[Logo] Air Video Forum
  [Search] Search   [Recent Topics] Recent Topics   [Hottest Topics] Hottest Topics   [Members]  Member Listing   [Groups] Back to home page 
[Moderation Log] Moderation Log   [Register] Register / 
[Login] Login 
Provide a toggle to disable incompatible streams  XML
Forum Index » Air Video General
Author Message
rgoodwin



Joined: 08/25/2009 15:10:59
Messages: 12
Offline

Well, on Win 7 I get about 2 seconds of decoded audio and video then the stream stops and returns me to the video summary when playing from THE BEGINNING. Stopped and started the server, no dice.
However if played from SEEK at any point into the file, it works just fine.

A manual run of ffmpeg.exe as ffmpeg -i myfile.wmv out.mpg runs and converts until canceled.

LiveConversion: Begin Live Video Conversion
LiveConversion: (Deleted long alpha string that was messing up forum formatting)

LiveConversion: FFmpeg version UNKNOWN, Copyright (c) 2000-2009 Fabrice Bellard, et al.
LiveConversion: configuration: --enable-memalign-hack --prefix=/mingw --target-os=mingw32 --arch=i686 --cpu=i686 --enable-gpl --enable-libfaac --enable-libx264 --enable-nonfree --enable-static --disable-shared --enable-pthreads
LiveConversion: libavutil 50. 3. 0 / 50. 3. 0
LiveConversion: libavcodec 52.35. 0 / 52.35. 0
LiveConversion: libavformat 52.38. 0 / 52.38. 0
LiveConversion: libavdevice 52. 2. 0 / 52. 2. 0
LiveConversion: libswscale 0. 7. 1 / 0. 7. 1
LiveConversion: built on Sep 5 2009 02:25:22, gcc: 4.4.0
LiveConversion: [wmv3 @ 0x1f07690]Extra data: 8 bits left, value: 0
LiveConversion:
LiveConversion: Seems stream 1 codec frame rate differs from container frame rate: 1000.00 (1000/1) -> 29.97 (30000/1001)
LiveConversion: Input #0, asf, from 'G:\Extracted\Heather&Travis-Tape3.wmv':
LiveConversion: Duration: 01:01:10.00, start: 3.000000, bitrate: 1371 kb/s
LiveConversion: Stream #0.0(eng): Audio: wmapro, 48000 Hz, 2 channels, s16, 384 kb/s
LiveConversion: Stream #0.1(eng): Video: wmv3, yuv420p, 640x480, 1000 kb/s, 29.97 tbr, 1k tbn, 1k tbc
LiveConversion: Metadata
LiveConversion: title : Heather & Travis - Tape 3
LiveConversion: author :
LiveConversion: copyright :
LiveConversion: comment :
LiveConversion: WMFSDKVersion : 11.0.5721.5145
LiveConversion: WMFSDKNeeded : 0.0.0.0000
LiveConversion: IsVBR : 1
LiveConversion: ASFLeakyBucketPairs:
LiveConversion: VBR Peak : 1664474
LiveConversion: Buffer Average : 318960
LiveConversion: [libx264 @ 0x20f6d20]using SAR=46/45
LiveConversion: [libx264 @ 0x20f6d20]using cpu capabilities: MMX2 SSE2Fast SSSE3 Cache64
LiveConversion: [libx264 @ 0x20f6d20]profile Baseline, level 3.0
LiveConversion: [wmv3 @ 0x1f07690]Extra data: 8 bits left, value: 0
LiveConversion: Output #0, mpegts, to 'pipe:':
LiveConversion: Stream #0.0(eng): Video: libx264, yuv420p, 480x368 [PAR 46:45 DAR 4:3], q=2-27, 200 kb/s, 90k tbn, 29.97 tbc
LiveConversion: Stream #0.1(eng): Audio: aac, 48000 Hz, 2 channels, s16, 160 kb/s
LiveConversion: Stream mapping:
LiveConversion: Stream #0.1 -> #0.0
LiveConversion: Stream #0.0 -> #0.1
LiveConversion: Press [q] to stop encoding
LiveConversion: frame= 66 fps= 0 q=27.0 size= 170kB time=0.58 bitrate=2417.9kbits/s

This message was edited 1 time. Last update was at 09/07/2009 18:55:55

Admin



Joined: 08/23/2009 08:49:34
Messages: 8705
Offline

Hi,

that is a bug in wmaprodec.c that crashes the ffmpeg process. It has been fixed in SVN but the fix caused another more severe bug that I've already reported.
 
Forum Index » Air Video General
Go to:   
Powered by JForum 2.1.8 © JForum Team