[Logo] Air Video Forum
  [Search] Search   [Recent Topics] Recent Topics   [Hottest Topics] Hottest Topics   [Members]  Member Listing   [Groups] Back to home page 
[Moderation Log] Moderation Log   [Register] Register / 
[Login] Login 
Air Video Server 2.4.5-beta3 released  XML
Forum Index » Air Video Announcements
Author Message
rayxchang



Joined: 02/27/2011 03:17:41
Messages: 1
Offline

I would like to know if adjustment of aspect-ratio would be available in the future because some videos are not 1024 pixel wide (max resolution of iPad).
There are two options for adjusting aspect: default and fit-to-screen, the latter is worse than the first one if video quality is not good.

The way I use for fixing it now is to play such kind of video in "menu" screen that means I can see my server, files on the left column.
However, the interface is bright that makes watching the video a little bit uncomfortable.
At least, I hope the vertical screen playback is practical.

Thank you!
mackthen



Joined: 02/27/2011 13:58:18
Messages: 1
Offline

Excellent that you're adding WTV support.

I'm experiencing an issue where wtv files are being cropped incorrectly. It's only happening with wtv files, and it happens with live conversion and Convert.
The source files are standard widescreen (roughly 16:9 I think) but there being displayed in a much shallower ratio with a lot of the top and bottom being cut out.

Is there some setting to fix this or is it an issue with the beta?

Thanks

Image as it should appear on phone screen

Image as it's appearing
fableman



Joined: 01/22/2011 15:28:57
Messages: 8
Offline

Still no support to stream music
JohnSays



Joined: 02/28/2011 23:21:05
Messages: 1
Offline

I have not been able to get any wtv files to play. Running the beta server, Core i5 with SSD. Also, with the same TV series recorded on different days, some are marked as invalid and some are not. None will play. Most were recorded from American ABC network and some from the SyFy nework.

This message was edited 1 time. Last update was at 02/28/2011 23:27:32

Fome



Joined: 09/11/2009 00:28:21
Messages: 16
Offline

I am having trouble playing one of my .mkv videos. Most of them work fine, but for these, it starts loading the file, and I can hear my computer whirring up, but after a few seconds it just closes the video. Here is the log:
2011-02-28 21:41:43 LiveConversion: >>
395821474B69747C697A763B5D72777E683B3363232D32475A72694D727F7E74487E696D7E69477D7D766B7E7C357E637E393B3636687E7C767E756F
36777E757C6F733B2F3B3636687E7C767E756F36747D7D687E6F3B2B3B36367874756D7E696872747536727F3B7A787D2A2F297A2A362E2F7D23362F
2E2D29367A2D2D22367E232A7D297E2F2D2D297D232C23287A222C7E78367E2A2F2E362F2B2B7A36227D7E78367F2E2A2D7A7F2829292C7D2F3B3636
6B74696F36756E76797E693B2F2D2D282A3B366F73697E7A7F683B2F3B367D777A7C68293B307D7A686F3B367D777A7C683B307774746B3B367C3B28
2B3B36707E6272756F447672753B2A3B36797D3B2B3B367944686F697A6F7E7C623B2B3B367D777A7C68293B366C6B697E7F367F786F2363233B3678
766B3B3078736974767A3B367F7E79777478707A776B737A3B2B3B367F7E7977747870797E6F7A3B2B3B36697E7D683B2A3B3678747F7E693B2B3B36
767E44697A757C7E3B2A2D3B36686E796A3B2E3B366B7A696F726F727475683B306B7A696F722F632F306B7A696F72236323306B7A696F6B2363233B
366F697E777772683B2B3B366878446F73697E687374777F3B2F2B3B3672446A7D7A786F74693B2B352C2A3B366A7874766B3B2B352D3B36767A6B3B
2B352B212B352B3B36767A6B3B2B352A212B352A3B3668683B2B352B3B36723B39582147474E687E69684747487E7A753B58737E7547475F746C7577
747A7F6847475A69727A3B6F737E3B5A7572767A6F7274753B332C2B2F632F232B3B73292D2F3247477A69727A446F737E447A7572767A6F72747544
2B2A4073292D2F356D746979726846407572726170463576706D393B366D7D3B397869746B262C2B2F212E2923212B212B373B68787A777E262C2B2F
212E2923373B687E6F687A69262C2B2F212E2923393B36623B367D3B766B7E7C6F683B366D78747F7E783B77727963292D2F3B36796E7D6872617E3B
2A2B292F703B36793B292A292E703B36796F3B29292E2B703B366A767A633B2F233B366A7672753B293B36693B292E352B3B367A78747F7E783B7772
79766B28777A767E3B367A793B292E2D703B367A693B2F232B2B2B3B367A783B293B36
<<

2011-02-28 21:41:44 SegmentedEncoder: FFmpeg version UNKNOWN, Copyright (c) 2000-2011 the FFmpeg developers
2011-02-28 21:41:44 SegmentedEncoder: built on Feb 24 2011 05:27:50 with gcc 4.4.0
2011-02-28 21:41:44 SegmentedEncoder: configuration: --enable-memalign-hack --prefix=/mingw --target-os=mingw32 --arch=i686 --cpu=i686 --enable-gpl --enable-libx264 --enable-static --disable-shared --enable-pthreads --enable-libmp3lame
2011-02-28 21:41:44 SegmentedEncoder: libavutil 50.36. 0 / 50.36. 0
2011-02-28 21:41:44 SegmentedEncoder: libavcore 0.16. 1 / 0.16. 1
2011-02-28 21:41:44 SegmentedEncoder: libavcodec 52.108. 0 / 52.108. 0
2011-02-28 21:41:44 SegmentedEncoder: libavformat 52.93. 0 / 52.93. 0
2011-02-28 21:41:44 SegmentedEncoder: libavdevice 52. 2. 3 / 52. 2. 3
2011-02-28 21:41:44 SegmentedEncoder: libavfilter 1.74. 0 / 1.74. 0
2011-02-28 21:41:44 SegmentedEncoder: libswscale 0.12. 0 / 0.12. 0
2011-02-28 21:41:44 SegmentedEncoder: [matroska,webm @ 0x1239fe0] max_analyze_duration reached
2011-02-28 21:41:44 SegmentedEncoder: [matroska,webm @ 0x1239fe0] Estimating duration from bitrate, this may be inaccurate
2011-02-28 21:41:44 SegmentedEncoder:
2011-02-28 21:41:44 SegmentedEncoder: Seems stream 0 codec frame rate differs from container frame rate: 59.94 (2997/50) -> 29.97 (30000/1001)
2011-02-28 21:41:44 SegmentedEncoder: Input #0, matroska,webm, from 'C:\\Users\\Sean Chen\\Downloads\\Aria the Animation (704x480 h264)\\aria_the_animation_01[h264.vorbis][niizk].mkv':
2011-02-28 21:41:44 SegmentedEncoder: Duration: 00:24:23.33, start: 0.000000, bitrate: N/A
2011-02-28 21:41:44 SegmentedEncoder: Stream #0.0: Video: h264, yuv420p, 704x480, PAR 10:11 DAR 4:3, 29.97 fps, 29.97 tbr, 1k tbn, 59.94 tbc
2011-02-28 21:41:44 SegmentedEncoder: Metadata:
2011-02-28 21:41:44 SegmentedEncoder: title : Episode01: That Wonderful Miracle...
2011-02-28 21:41:44 SegmentedEncoder: Stream #0.1(jpn): Audio: vorbis, 48000 Hz, stereo, s16
2011-02-28 21:41:44 SegmentedEncoder: Metadata:
2011-02-28 21:41:44 SegmentedEncoder: title : 2.0 VORBIS
2011-02-28 21:41:44 SegmentedEncoder: Stream #0.2(eng): Subtitle: ass
2011-02-28 21:41:44 SegmentedEncoder: Metadata:
2011-02-28 21:41:44 SegmentedEncoder: title : ass
2011-02-28 21:41:44 SegmentedEncoder: Stream #0.3(eng): Subtitle: [0][0][0][0] / 0x0000
2011-02-28 21:41:44 SegmentedEncoder: Metadata:
2011-02-28 21:41:44 SegmentedEncoder: title : srt
2011-02-28 21:41:44 SegmentedEncoder: Stream #0.4: Attachment: [0][0][0][0] / 0x0000
2011-02-28 21:41:44 SegmentedEncoder: Metadata:
2011-02-28 21:41:44 SegmentedEncoder: filename : SEMPB___.TTF
2011-02-28 21:41:44 SegmentedEncoder: Stream #0.5: Attachment: [0][0][0][0] / 0x0000
2011-02-28 21:41:44 SegmentedEncoder: Metadata:
2011-02-28 21:41:44 SegmentedEncoder: filename : SEMPBI__.TTF
2011-02-28 21:41:44 SegmentedEncoder: Stream #0.6: Attachment: [0][0][0][0] / 0x0000
2011-02-28 21:41:44 SegmentedEncoder: Metadata:
2011-02-28 21:41:44 SegmentedEncoder: filename : SEMPER__.TTF
2011-02-28 21:41:44 SegmentedEncoder: Stream #0.7: Attachment: [0][0][0][0] / 0x0000
2011-02-28 21:41:44 SegmentedEncoder: Metadata:
2011-02-28 21:41:44 SegmentedEncoder: filename : SEMPI___.TTF
2011-02-28 21:41:44 SegmentedEncoder: Stream #0.8: Attachment: [0][0][0][0] / 0x0000
2011-02-28 21:41:44 SegmentedEncoder: Metadata:
2011-02-28 21:41:44 SegmentedEncoder: filename : Chianti Bold It Win95BT.ttf
2011-02-28 21:41:44 SegmentedEncoder: Stream #0.9: Attachment: [0][0][0][0] / 0x0000
2011-02-28 21:41:44 SegmentedEncoder: Metadata:
2011-02-28 21:41:44 SegmentedEncoder: filename : Chianti Bold Win95BT.ttf
2011-02-28 21:41:44 SegmentedEncoder: Stream #0.10: Attachment: [0][0][0][0] / 0x0000
2011-02-28 21:41:44 SegmentedEncoder: Metadata:
2011-02-28 21:41:44 SegmentedEncoder: filename : Chianti Italic Win95BT.ttf
2011-02-28 21:41:44 SegmentedEncoder: Stream #0.11: Attachment: [0][0][0][0] / 0x0000
2011-02-28 21:41:44 SegmentedEncoder: Metadata:
2011-02-28 21:41:44 SegmentedEncoder: filename : JESPER__.TTF
2011-02-28 21:41:44 SegmentedEncoder: Stream #0.12: Attachment: [0][0][0][0] / 0x0000
2011-02-28 21:41:44 SegmentedEncoder: Metadata:
2011-02-28 21:41:44 SegmentedEncoder: filename : LTe52140.ttf
2011-02-28 21:41:44 SegmentedEncoder: [buffer @ 0x35f6440] w:704 h:480 pixfmt:yuv420p
2011-02-28 21:41:44 SegmentedEncoder: [setsar @ 0x35f6540] a:4/3
2011-02-28 21:41:44 SegmentedEncoder: [crop @ 0x35f64c0] w:704 h:480 -> w:704 h:528
2011-02-28 21:41:44 SegmentedEncoder: [crop @ 0x35f64c0] Invalid too big or non positive size for width '704' or height '528'
2011-02-28 21:41:44 SegmentedEncoder: Error opening filters!
2011-02-28 21:41:44 LiveConversion: >>
395821474B69747C697A763B5D72777E683B3363232D32475A72694D727F7E74487E696D7E69477D7D766B7E7C357E637E393B3636687E7C767E756F
36777E757C6F733B2F3B3636687E7C767E756F36747D7D687E6F3B2F3B36367874756D7E696872747536727F3B7A787D2A2F297A2A362E2F7D23362F
2E2D29367A2D2D22367E232A7D297E2F2D2D297D232A782F232C2E232936282D2D7F362F79792C36222A7F7D362C2C782E792829792F2D2D7F3B3636
6B74696F36756E76797E693B2F2D2D282A3B366F73697E7A7F683B2F3B367D777A7C68293B307D7A686F3B367D777A7C683B307774746B3B367C3B28
2B3B36707E6272756F447672753B2A3B36797D3B2B3B367944686F697A6F7E7C623B2B3B367D777A7C68293B366C6B697E7F367F786F2363233B3678
766B3B3078736974767A3B367F7E79777478707A776B737A3B2B3B367F7E7977747870797E6F7A3B2B3B36697E7D683B2A3B3678747F7E693B2B3B36
767E44697A757C7E3B2A2D3B36686E796A3B2E3B366B7A696F726F727475683B306B7A696F722F632F306B7A696F72236323306B7A696F6B2363233B
366F697E777772683B2B3B366878446F73697E687374777F3B2F2B3B3672446A7D7A786F74693B2B352C2A3B366A7874766B3B2B352D3B36767A6B3B
2B352B212B352B3B36767A6B3B2B352A212B352A3B3668683B2F352B3B36723B39582147474E687E69684747487E7A753B58737E7547475F746C7577
747A7F6847475A69727A3B6F737E3B5A7572767A6F7274753B332C2B2F632F232B3B73292D2F3247477A69727A446F737E447A7572767A6F72747544
2B2A4073292D2F356D746979726846407572726170463576706D393B366D7D3B397869746B262C2B2F212E2923212B212B373B68787A777E262C2B2F
212E2923373B687E6F687A69262C2B2F212E2923393B36623B367A686275783B2A3B367D3B766B7E7C6F683B366D78747F7E783B77727963292D2F3B
36796E7D6872617E3B2A2B292F703B36793B292A292E703B36796F3B29292E2B703B366A767A633B2F233B366A7672753B293B36693B292E352B3B36
7A78747F7E783B777279766B28777A767E3B367A793B292E2D703B367A693B2F232B2B2B3B367A783B293B36
<<

2011-02-28 21:41:44 SegmentedEncoder: FFmpeg version UNKNOWN, Copyright (c) 2000-2011 the FFmpeg developers
2011-02-28 21:41:44 SegmentedEncoder: built on Feb 24 2011 05:27:50 with gcc 4.4.0
2011-02-28 21:41:44 SegmentedEncoder: configuration: --enable-memalign-hack --prefix=/mingw --target-os=mingw32 --arch=i686 --cpu=i686 --enable-gpl --enable-libx264 --enable-static --disable-shared --enable-pthreads --enable-libmp3lame
2011-02-28 21:41:44 SegmentedEncoder: libavutil 50.36. 0 / 50.36. 0
2011-02-28 21:41:44 SegmentedEncoder: libavcore 0.16. 1 / 0.16. 1
2011-02-28 21:41:44 SegmentedEncoder: libavcodec 52.108. 0 / 52.108. 0
2011-02-28 21:41:44 SegmentedEncoder: libavformat 52.93. 0 / 52.93. 0
2011-02-28 21:41:44 SegmentedEncoder: libavdevice 52. 2. 3 / 52. 2. 3
2011-02-28 21:41:44 SegmentedEncoder: libavfilter 1.74. 0 / 1.74. 0
2011-02-28 21:41:44 SegmentedEncoder: libswscale 0.12. 0 / 0.12. 0
2011-02-28 21:41:44 SegmentedEncoder: [matroska,webm @ 0x1279e10] max_analyze_duration reached
2011-02-28 21:41:44 SegmentedEncoder: [matroska,webm @ 0x1279e10] Estimating duration from bitrate, this may be inaccurate
2011-02-28 21:41:44 SegmentedEncoder:
2011-02-28 21:41:44 SegmentedEncoder: Seems stream 0 codec frame rate differs from container frame rate: 59.94 (2997/50) -> 29.97 (30000/1001)
2011-02-28 21:41:44 SegmentedEncoder: Input #0, matroska,webm, from 'C:\\Users\\Sean Chen\\Downloads\\Aria the Animation (704x480 h264)\\aria_the_animation_01[h264.vorbis][niizk].mkv':
2011-02-28 21:41:44 SegmentedEncoder: Duration: 00:24:23.33, start: 0.000000, bitrate: N/A
2011-02-28 21:41:44 SegmentedEncoder: Stream #0.0: Video: h264, yuv420p, 704x480, PAR 10:11 DAR 4:3, 29.97 fps, 29.97 tbr, 1k tbn, 59.94 tbc
2011-02-28 21:41:44 SegmentedEncoder: Metadata:
2011-02-28 21:41:44 SegmentedEncoder: title : Episode01: That Wonderful Miracle...
2011-02-28 21:41:44 SegmentedEncoder: Stream #0.1(jpn): Audio: vorbis, 48000 Hz, stereo, s16
2011-02-28 21:41:44 SegmentedEncoder: Metadata:
2011-02-28 21:41:44 SegmentedEncoder: title : 2.0 VORBIS
2011-02-28 21:41:44 SegmentedEncoder: Stream #0.2(eng): Subtitle: ass
2011-02-28 21:41:44 SegmentedEncoder: Metadata:
2011-02-28 21:41:44 SegmentedEncoder: title : ass
2011-02-28 21:41:44 SegmentedEncoder: Stream #0.3(eng): Subtitle: [0][0][0][0] / 0x0000
2011-02-28 21:41:44 SegmentedEncoder: Metadata:
2011-02-28 21:41:44 SegmentedEncoder: title : srt
2011-02-28 21:41:44 SegmentedEncoder: Stream #0.4: Attachment: [0][0][0][0] / 0x0000
2011-02-28 21:41:44 SegmentedEncoder: Metadata:
2011-02-28 21:41:44 SegmentedEncoder: filename : SEMPB___.TTF
2011-02-28 21:41:44 SegmentedEncoder: Stream #0.5: Attachment: [0][0][0][0] / 0x0000
2011-02-28 21:41:44 SegmentedEncoder: Metadata:
2011-02-28 21:41:44 SegmentedEncoder: filename : SEMPBI__.TTF
2011-02-28 21:41:44 SegmentedEncoder: Stream #0.6: Attachment: [0][0][0][0] / 0x0000
2011-02-28 21:41:44 SegmentedEncoder: Metadata:
2011-02-28 21:41:44 SegmentedEncoder: filename : SEMPER__.TTF
2011-02-28 21:41:44 SegmentedEncoder: Stream #0.7: Attachment: [0][0][0][0] / 0x0000
2011-02-28 21:41:44 SegmentedEncoder: Metadata:
2011-02-28 21:41:44 SegmentedEncoder: filename : SEMPI___.TTF
2011-02-28 21:41:44 SegmentedEncoder: Stream #0.8: Attachment: [0][0][0][0] / 0x0000
2011-02-28 21:41:44 SegmentedEncoder: Metadata:
2011-02-28 21:41:44 SegmentedEncoder: filename : Chianti Bold It Win95BT.ttf
2011-02-28 21:41:44 SegmentedEncoder: Stream #0.9: Attachment: [0][0][0][0] / 0x0000
2011-02-28 21:41:44 SegmentedEncoder: Metadata:
2011-02-28 21:41:44 SegmentedEncoder: filename : Chianti Bold Win95BT.ttf
2011-02-28 21:41:44 SegmentedEncoder: Stream #0.10: Attachment: [0][0][0][0] / 0x0000
2011-02-28 21:41:44 SegmentedEncoder: Metadata:
2011-02-28 21:41:44 SegmentedEncoder: filename : Chianti Italic Win95BT.ttf
2011-02-28 21:41:44 SegmentedEncoder: Stream #0.11: Attachment: [0][0][0][0] / 0x0000
2011-02-28 21:41:44 SegmentedEncoder: Metadata:
2011-02-28 21:41:44 SegmentedEncoder: filename : JESPER__.TTF
2011-02-28 21:41:44 SegmentedEncoder: Stream #0.12: Attachment: [0][0][0][0] / 0x0000
2011-02-28 21:41:44 SegmentedEncoder: Metadata:
2011-02-28 21:41:44 SegmentedEncoder: filename : LTe52140.ttf
2011-02-28 21:41:44 SegmentedEncoder: [buffer @ 0x33978d0] w:704 h:480 pixfmt:yuv420p
2011-02-28 21:41:44 SegmentedEncoder: [setsar @ 0x33979d0] a:4/3
2011-02-28 21:41:44 SegmentedEncoder: [crop @ 0x3397950] w:704 h:480 -> w:704 h:528
2011-02-28 21:41:44 SegmentedEncoder: [crop @ 0x3397950] Invalid too big or non positive size for width '704' or height '528'
2011-02-28 21:41:44 SegmentedEncoder: Error opening filters!
2011-02-28 21:41:44 LiveConversion: >>
395821474B69747C697A763B5D72777E683B3363232D32475A72694D727F7E74487E696D7E69477D7D766B7E7C357E637E393B3636687E7C767E756F
36777E757C6F733B2F3B3636687E7C767E756F36747D7D687E6F3B233B36367874756D7E696872747536727F3B7A787D2A2F297A2A362E2F7D23362F
2E2D29367A2D2D22367E232A7D297E2F2D2D297D232F7F2E782A7A2C2F362E7E237A362F7F2B7F362329237E3623237A797A7A782C7A792F783B3636
6B74696F36756E76797E693B2F2D2D282A3B366F73697E7A7F683B2F3B367D777A7C68293B307D7A686F3B367D777A7C683B307774746B3B367C3B28
2B3B36707E6272756F447672753B2A3B36797D3B2B3B367944686F697A6F7E7C623B2B3B367D777A7C68293B366C6B697E7F367F786F2363233B3678
766B3B3078736974767A3B367F7E79777478707A776B737A3B2B3B367F7E7977747870797E6F7A3B2B3B36697E7D683B2A3B3678747F7E693B2B3B36
767E44697A757C7E3B2A2D3B36686E796A3B2E3B366B7A696F726F727475683B306B7A696F722F632F306B7A696F72236323306B7A696F6B2363233B
366F697E777772683B2B3B366878446F73697E687374777F3B2F2B3B3672446A7D7A786F74693B2B352C2A3B366A7874766B3B2B352D3B36767A6B3B
2B352B212B352B3B36767A6B3B2B352A212B352A3B3668683B23352B3B36723B39582147474E687E69684747487E7A753B58737E7547475F746C7577
747A7F6847475A69727A3B6F737E3B5A7572767A6F7274753B332C2B2F632F232B3B73292D2F3247477A69727A446F737E447A7572767A6F72747544
2B2A4073292D2F356D746979726846407572726170463576706D393B366D7D3B397869746B262C2B2F212E2923212B212B373B68787A777E262C2B2F
212E2923373B687E6F687A69262C2B2F212E2923393B36623B367A686275783B2A3B367D3B766B7E7C6F683B366D78747F7E783B77727963292D2F3B
36796E7D6872617E3B2A2B292F703B36793B292A292E703B36796F3B29292E2B703B366A767A633B2F233B366A7672753B293B36693B292E352B3B36
7A78747F7E783B777279766B28777A767E3B367A793B292E2D703B367A693B2F232B2B2B3B367A783B293B36
<<

2011-02-28 21:41:44 SegmentedEncoder: FFmpeg version UNKNOWN, Copyright (c) 2000-2011 the FFmpeg developers
2011-02-28 21:41:44 SegmentedEncoder: built on Feb 24 2011 05:27:50 with gcc 4.4.0
2011-02-28 21:41:44 SegmentedEncoder: configuration: --enable-memalign-hack --prefix=/mingw --target-os=mingw32 --arch=i686 --cpu=i686 --enable-gpl --enable-libx264 --enable-static --disable-shared --enable-pthreads --enable-libmp3lame
2011-02-28 21:41:44 SegmentedEncoder: libavutil 50.36. 0 / 50.36. 0
2011-02-28 21:41:44 SegmentedEncoder: libavcore 0.16. 1 / 0.16. 1
2011-02-28 21:41:44 SegmentedEncoder: libavcodec 52.108. 0 / 52.108. 0
2011-02-28 21:41:44 SegmentedEncoder: libavformat 52.93. 0 / 52.93. 0
2011-02-28 21:41:44 SegmentedEncoder: libavdevice 52. 2. 3 / 52. 2. 3
2011-02-28 21:41:44 SegmentedEncoder: libavfilter 1.74. 0 / 1.74. 0
2011-02-28 21:41:44 SegmentedEncoder: libswscale 0.12. 0 / 0.12. 0
2011-02-28 21:41:44 SegmentedEncoder: [matroska,webm @ 0x3d9e10] max_analyze_duration reached
2011-02-28 21:41:44 SegmentedEncoder: [matroska,webm @ 0x3d9e10] Estimating duration from bitrate, this may be inaccurate
2011-02-28 21:41:44 SegmentedEncoder:
2011-02-28 21:41:44 SegmentedEncoder: Seems stream 0 codec frame rate differs from container frame rate: 59.94 (2997/50) -> 29.97 (30000/1001)
2011-02-28 21:41:44 SegmentedEncoder: Input #0, matroska,webm, from 'C:\\Users\\Sean Chen\\Downloads\\Aria the Animation (704x480 h264)\\aria_the_animation_01[h264.vorbis][niizk].mkv':
2011-02-28 21:41:44 SegmentedEncoder: Duration: 00:24:23.33, start: 0.000000, bitrate: N/A
2011-02-28 21:41:44 SegmentedEncoder: Stream #0.0: Video: h264, yuv420p, 704x480, PAR 10:11 DAR 4:3, 29.97 fps, 29.97 tbr, 1k tbn, 59.94 tbc
2011-02-28 21:41:44 SegmentedEncoder: Metadata:
2011-02-28 21:41:44 SegmentedEncoder: title : Episode01: That Wonderful Miracle...
2011-02-28 21:41:44 SegmentedEncoder: Stream #0.1(jpn): Audio: vorbis, 48000 Hz, stereo, s16
2011-02-28 21:41:44 SegmentedEncoder: Metadata:
2011-02-28 21:41:44 SegmentedEncoder: title : 2.0 VORBIS
2011-02-28 21:41:44 SegmentedEncoder: Stream #0.2(eng): Subtitle: ass
2011-02-28 21:41:44 SegmentedEncoder: Metadata:
2011-02-28 21:41:44 SegmentedEncoder: title : ass
2011-02-28 21:41:44 SegmentedEncoder: Stream #0.3(eng): Subtitle: [0][0][0][0] / 0x0000
2011-02-28 21:41:44 SegmentedEncoder: Metadata:
2011-02-28 21:41:44 SegmentedEncoder: title : srt
2011-02-28 21:41:44 SegmentedEncoder: Stream #0.4: Attachment: [0][0][0][0] / 0x0000
2011-02-28 21:41:44 SegmentedEncoder: Metadata:
2011-02-28 21:41:44 SegmentedEncoder: filename : SEMPB___.TTF
2011-02-28 21:41:44 SegmentedEncoder: Stream #0.5: Attachment: [0][0][0][0] / 0x0000
2011-02-28 21:41:44 SegmentedEncoder: Metadata:
2011-02-28 21:41:44 SegmentedEncoder: filename : SEMPBI__.TTF
2011-02-28 21:41:44 SegmentedEncoder: Stream #0.6: Attachment: [0][0][0][0] / 0x0000
2011-02-28 21:41:44 SegmentedEncoder: Metadata:
2011-02-28 21:41:44 SegmentedEncoder: filename : SEMPER__.TTF
2011-02-28 21:41:44 SegmentedEncoder: Stream #0.7: Attachment: [0][0][0][0] / 0x0000
2011-02-28 21:41:44 SegmentedEncoder: Metadata:
2011-02-28 21:41:44 SegmentedEncoder: filename : SEMPI___.TTF
2011-02-28 21:41:44 SegmentedEncoder: Stream #0.8: Attachment: [0][0][0][0] / 0x0000
2011-02-28 21:41:44 SegmentedEncoder: Metadata:
2011-02-28 21:41:44 SegmentedEncoder: filename : Chianti Bold It Win95BT.ttf
2011-02-28 21:41:44 SegmentedEncoder: Stream #0.9: Attachment: [0][0][0][0] / 0x0000
2011-02-28 21:41:44 SegmentedEncoder: Metadata:
2011-02-28 21:41:44 SegmentedEncoder: filename : Chianti Bold Win95BT.ttf
2011-02-28 21:41:44 SegmentedEncoder: Stream #0.10: Attachment: [0][0][0][0] / 0x0000
2011-02-28 21:41:44 SegmentedEncoder: Metadata:
2011-02-28 21:41:44 SegmentedEncoder: filename : Chianti Italic Win95BT.ttf
2011-02-28 21:41:44 SegmentedEncoder: Stream #0.11: Attachment: [0][0][0][0] / 0x0000
2011-02-28 21:41:44 SegmentedEncoder: Metadata:
2011-02-28 21:41:44 SegmentedEncoder: filename : JESPER__.TTF
2011-02-28 21:41:44 SegmentedEncoder: Stream #0.12: Attachment: [0][0][0][0] / 0x0000
2011-02-28 21:41:44 SegmentedEncoder: Metadata:
2011-02-28 21:41:44 SegmentedEncoder: filename : LTe52140.ttf
2011-02-28 21:41:44 SegmentedEncoder: [buffer @ 0x33778d0] w:704 h:480 pixfmt:yuv420p
2011-02-28 21:41:44 SegmentedEncoder: [setsar @ 0x33779d0] a:4/3
2011-02-28 21:41:44 SegmentedEncoder: [crop @ 0x3377950] w:704 h:480 -> w:704 h:528
2011-02-28 21:41:44 SegmentedEncoder: [crop @ 0x3377950] Invalid too big or non positive size for width '704' or height '528'
2011-02-28 21:41:44 SegmentedEncoder: Error opening filters!
2011-02-28 21:41:44 LiveConversion: >>
395821474B69747C697A763B5D72777E683B3363232D32475A72694D727F7E74487E696D7E69477D7D766B7E7C357E637E393B3636687E7C767E756F
36777E757C6F733B2F3B3636687E7C767E756F36747D7D687E6F3B2A293B36367874756D7E696872747536727F3B7A787D2A2F297A2A362E2F7D2336
2F2E2D29367A2D2D22367E232A7D297E2F2D2D297D232A282D7D7A2C2B2A367A2C2C2D362F2E2A28367922237F36292A7A227879222F2D7D227F3B36
366B74696F36756E76797E693B2F2D2D282A3B366F73697E7A7F683B2F3B367D777A7C68293B307D7A686F3B367D777A7C683B307774746B3B367C3B
282B3B36707E6272756F447672753B2A3B36797D3B2B3B367944686F697A6F7E7C623B2B3B367D777A7C68293B366C6B697E7F367F786F2363233B36
78766B3B3078736974767A3B367F7E79777478707A776B737A3B2B3B367F7E7977747870797E6F7A3B2B3B36697E7D683B2A3B3678747F7E693B2B3B
36767E44697A757C7E3B2A2D3B36686E796A3B2E3B366B7A696F726F727475683B306B7A696F722F632F306B7A696F72236323306B7A696F6B236323
3B366F697E777772683B2B3B366878446F73697E687374777F3B2F2B3B3672446A7D7A786F74693B2B352C2A3B366A7874766B3B2B352D3B36767A6B
3B2B352B212B352B3B36767A6B3B2B352A212B352A3B3668683B2A29352B3B36723B39582147474E687E69684747487E7A753B58737E7547475F746C
7577747A7F6847475A69727A3B6F737E3B5A7572767A6F7274753B332C2B2F632F232B3B73292D2F3247477A69727A446F737E447A7572767A6F7274
75442B2A4073292D2F356D746979726846407572726170463576706D393B366D7D3B397869746B262C2B2F212E2923212B212B373B68787A777E262C
2B2F212E2923373B687E6F687A69262C2B2F212E2923393B36623B367A686275783B2A3B367D3B766B7E7C6F683B366D78747F7E783B77727963292D
2F3B36796E7D6872617E3B2A2B292F703B36793B292A292E703B36796F3B29292E2B703B366A767A633B2F233B366A7672753B293B36693B292E352B
3B367A78747F7E783B777279766B28777A767E3B367A793B292E2D703B367A693B2F232B2B2B3B367A783B293B36
<<

2011-02-28 21:41:44 SegmentedEncoder: FFmpeg version UNKNOWN, Copyright (c) 2000-2011 the FFmpeg developers
2011-02-28 21:41:44 SegmentedEncoder: built on Feb 24 2011 05:27:50 with gcc 4.4.0
2011-02-28 21:41:44 SegmentedEncoder: configuration: --enable-memalign-hack --prefix=/mingw --target-os=mingw32 --arch=i686 --cpu=i686 --enable-gpl --enable-libx264 --enable-static --disable-shared --enable-pthreads --enable-libmp3lame
2011-02-28 21:41:44 SegmentedEncoder: libavutil 50.36. 0 / 50.36. 0
2011-02-28 21:41:44 SegmentedEncoder: libavcore 0.16. 1 / 0.16. 1
2011-02-28 21:41:44 SegmentedEncoder: libavcodec 52.108. 0 / 52.108. 0
2011-02-28 21:41:44 SegmentedEncoder: libavformat 52.93. 0 / 52.93. 0
2011-02-28 21:41:44 SegmentedEncoder: libavdevice 52. 2. 3 / 52. 2. 3
2011-02-28 21:41:44 SegmentedEncoder: libavfilter 1.74. 0 / 1.74. 0
2011-02-28 21:41:44 SegmentedEncoder: libswscale 0.12. 0 / 0.12. 0
2011-02-28 21:41:44 SegmentedEncoder: [matroska,webm @ 0x13f9610] max_analyze_duration reached
2011-02-28 21:41:44 SegmentedEncoder: [matroska,webm @ 0x13f9610] Estimating duration from bitrate, this may be inaccurate
2011-02-28 21:41:44 SegmentedEncoder:
2011-02-28 21:41:44 SegmentedEncoder: Seems stream 0 codec frame rate differs from container frame rate: 59.94 (2997/50) -> 29.97 (30000/1001)
2011-02-28 21:41:44 SegmentedEncoder: Input #0, matroska,webm, from 'C:\\Users\\Sean Chen\\Downloads\\Aria the Animation (704x480 h264)\\aria_the_animation_01[h264.vorbis][niizk].mkv':
2011-02-28 21:41:44 SegmentedEncoder: Duration: 00:24:23.33, start: 0.000000, bitrate: N/A
2011-02-28 21:41:44 SegmentedEncoder: Stream #0.0: Video: h264, yuv420p, 704x480, PAR 10:11 DAR 4:3, 29.97 fps, 29.97 tbr, 1k tbn, 59.94 tbc
2011-02-28 21:41:44 SegmentedEncoder: Metadata:
2011-02-28 21:41:44 SegmentedEncoder: title : Episode01: That Wonderful Miracle...
2011-02-28 21:41:44 SegmentedEncoder: Stream #0.1(jpn): Audio: vorbis, 48000 Hz, stereo, s16
2011-02-28 21:41:44 SegmentedEncoder: Metadata:
2011-02-28 21:41:44 SegmentedEncoder: title : 2.0 VORBIS
2011-02-28 21:41:44 SegmentedEncoder: Stream #0.2(eng): Subtitle: ass
2011-02-28 21:41:44 SegmentedEncoder: Metadata:
2011-02-28 21:41:44 SegmentedEncoder: title : ass
2011-02-28 21:41:44 SegmentedEncoder: Stream #0.3(eng): Subtitle: [0][0][0][0] / 0x0000
2011-02-28 21:41:44 SegmentedEncoder: Metadata:
2011-02-28 21:41:44 SegmentedEncoder: title : srt
2011-02-28 21:41:44 SegmentedEncoder: Stream #0.4: Attachment: [0][0][0][0] / 0x0000
2011-02-28 21:41:44 SegmentedEncoder: Metadata:
2011-02-28 21:41:44 SegmentedEncoder: filename : SEMPB___.TTF
2011-02-28 21:41:44 SegmentedEncoder: Stream #0.5: Attachment: [0][0][0][0] / 0x0000
2011-02-28 21:41:44 SegmentedEncoder: Metadata:
2011-02-28 21:41:44 SegmentedEncoder: filename : SEMPBI__.TTF
2011-02-28 21:41:44 SegmentedEncoder: Stream #0.6: Attachment: [0][0][0][0] / 0x0000
2011-02-28 21:41:44 SegmentedEncoder: Metadata:
2011-02-28 21:41:44 SegmentedEncoder: filename : SEMPER__.TTF
2011-02-28 21:41:44 SegmentedEncoder: Stream #0.7: Attachment: [0][0][0][0] / 0x0000
2011-02-28 21:41:44 SegmentedEncoder: Metadata:
2011-02-28 21:41:44 SegmentedEncoder: filename : SEMPI___.TTF
2011-02-28 21:41:44 SegmentedEncoder: Stream #0.8: Attachment: [0][0][0][0] / 0x0000
2011-02-28 21:41:44 SegmentedEncoder: Metadata:
2011-02-28 21:41:44 SegmentedEncoder: filename : Chianti Bold It Win95BT.ttf
2011-02-28 21:41:44 SegmentedEncoder: Stream #0.9: Attachment: [0][0][0][0] / 0x0000
2011-02-28 21:41:44 SegmentedEncoder: Metadata:
2011-02-28 21:41:44 SegmentedEncoder: filename : Chianti Bold Win95BT.ttf
2011-02-28 21:41:44 SegmentedEncoder: Stream #0.10: Attachment: [0][0][0][0] / 0x0000
2011-02-28 21:41:44 SegmentedEncoder: Metadata:
2011-02-28 21:41:44 SegmentedEncoder: filename : Chianti Italic Win95BT.ttf
2011-02-28 21:41:44 SegmentedEncoder: Stream #0.11: Attachment: [0][0][0][0] / 0x0000
2011-02-28 21:41:44 SegmentedEncoder: Metadata:
2011-02-28 21:41:44 SegmentedEncoder: filename : JESPER__.TTF
2011-02-28 21:41:44 SegmentedEncoder: Stream #0.12: Attachment: [0][0][0][0] / 0x0000
2011-02-28 21:41:44 SegmentedEncoder: Metadata:
2011-02-28 21:41:44 SegmentedEncoder: filename : LTe52140.ttf
2011-02-28 21:41:44 SegmentedEncoder: [buffer @ 0x32279f0] w:704 h:480 pixfmt:yuv420p
2011-02-28 21:41:44 SegmentedEncoder: [setsar @ 0x3227af0] a:4/3
2011-02-28 21:41:44 SegmentedEncoder: [crop @ 0x3227a70] w:704 h:480 -> w:704 h:528
2011-02-28 21:41:44 SegmentedEncoder: [crop @ 0x3227a70] Invalid too big or non positive size for width '704' or height '528'
2011-02-28 21:41:44 SegmentedEncoder: Error opening filters!
2011-02-28 21:41:44 LiveConversion: >>
395821474B69747C697A763B5D72777E683B3363232D32475A72694D727F7E74487E696D7E69477D7D766B7E7C357E637E393B3636687E7C767E756F
36777E757C6F733B2F3B3636687E7C767E756F36747D7D687E6F3B2A2D3B36367874756D7E696872747536727F3B7A787D2A2F297A2A362E2F7D2336
2F2E2D29367A2D2D22367E232A7D297E2F2D2D297D23227E7D2E2878787F362E2F7E7A362F7E2F233679282E78367A7F7D2B2A7F2C297D2923283B36
366B74696F36756E76797E693B2F2D2D282A3B366F73697E7A7F683B2F3B367D777A7C68293B307D7A686F3B367D777A7C683B307774746B3B367C3B
282B3B36707E6272756F447672753B2A3B36797D3B2B3B367944686F697A6F7E7C623B2B3B367D777A7C68293B366C6B697E7F367F786F2363233B36
78766B3B3078736974767A3B367F7E79777478707A776B737A3B2B3B367F7E7977747870797E6F7A3B2B3B36697E7D683B2A3B3678747F7E693B2B3B
36767E44697A757C7E3B2A2D3B36686E796A3B2E3B366B7A696F726F727475683B306B7A696F722F632F306B7A696F72236323306B7A696F6B236323
3B366F697E777772683B2B3B366878446F73697E687374777F3B2F2B3B3672446A7D7A786F74693B2B352C2A3B366A7874766B3B2B352D3B36767A6B
3B2B352B212B352B3B36767A6B3B2B352A212B352A3B3668683B2A2D352B3B36723B39582147474E687E69684747487E7A753B58737E7547475F746C
7577747A7F6847475A69727A3B6F737E3B5A7572767A6F7274753B332C2B2F632F232B3B73292D2F3247477A69727A446F737E447A7572767A6F7274
75442B2A4073292D2F356D746979726846407572726170463576706D393B366D7D3B397869746B262C2B2F212E2923212B212B373B68787A777E262C
2B2F212E2923373B687E6F687A69262C2B2F212E2923393B36623B367A686275783B2A3B367D3B766B7E7C6F683B366D78747F7E783B77727963292D
2F3B36796E7D6872617E3B2A2B292F703B36793B292A292E703B36796F3B29292E2B703B366A767A633B2F233B366A7672753B293B36693B292E352B
3B367A78747F7E783B777279766B28777A767E3B367A793B292E2D703B367A693B2F232B2B2B3B367A783B293B36
<<

2011-02-28 21:41:44 SegmentedEncoder: FFmpeg version UNKNOWN, Copyright (c) 2000-2011 the FFmpeg developers
2011-02-28 21:41:44 SegmentedEncoder: built on Feb 24 2011 05:27:50 with gcc 4.4.0
2011-02-28 21:41:44 SegmentedEncoder: configuration: --enable-memalign-hack --prefix=/mingw --target-os=mingw32 --arch=i686 --cpu=i686 --enable-gpl --enable-libx264 --enable-static --disable-shared --enable-pthreads --enable-libmp3lame
2011-02-28 21:41:44 SegmentedEncoder: libavutil 50.36. 0 / 50.36. 0
2011-02-28 21:41:44 SegmentedEncoder: libavcore 0.16. 1 / 0.16. 1
2011-02-28 21:41:44 SegmentedEncoder: libavcodec 52.108. 0 / 52.108. 0
2011-02-28 21:41:44 SegmentedEncoder: libavformat 52.93. 0 / 52.93. 0
2011-02-28 21:41:44 SegmentedEncoder: libavdevice 52. 2. 3 / 52. 2. 3
2011-02-28 21:41:44 SegmentedEncoder: libavfilter 1.74. 0 / 1.74. 0
2011-02-28 21:41:44 SegmentedEncoder: libswscale 0.12. 0 / 0.12. 0
2011-02-28 21:41:44 SegmentedEncoder: [matroska,webm @ 0x3d9610] max_analyze_duration reached
2011-02-28 21:41:44 SegmentedEncoder: [matroska,webm @ 0x3d9610] Estimating duration from bitrate, this may be inaccurate
2011-02-28 21:41:44 SegmentedEncoder:
2011-02-28 21:41:44 SegmentedEncoder: Seems stream 0 codec frame rate differs from container frame rate: 59.94 (2997/50) -> 29.97 (30000/1001)
2011-02-28 21:41:44 SegmentedEncoder: Input #0, matroska,webm, from 'C:\\Users\\Sean Chen\\Downloads\\Aria the Animation (704x480 h264)\\aria_the_animation_01[h264.vorbis][niizk].mkv':
2011-02-28 21:41:44 SegmentedEncoder: Duration: 00:24:23.33, start: 0.000000, bitrate: N/A
2011-02-28 21:41:44 SegmentedEncoder: Stream #0.0: Video: h264, yuv420p, 704x480, PAR 10:11 DAR 4:3, 29.97 fps, 29.97 tbr, 1k tbn, 59.94 tbc
2011-02-28 21:41:44 SegmentedEncoder: Metadata:
2011-02-28 21:41:44 SegmentedEncoder: title : Episode01: That Wonderful Miracle...
2011-02-28 21:41:44 SegmentedEncoder: Stream #0.1(jpn): Audio: vorbis, 48000 Hz, stereo, s16
2011-02-28 21:41:44 SegmentedEncoder: Metadata:
2011-02-28 21:41:44 SegmentedEncoder: title : 2.0 VORBIS
2011-02-28 21:41:44 SegmentedEncoder: Stream #0.2(eng): Subtitle: ass
2011-02-28 21:41:44 SegmentedEncoder: Metadata:
2011-02-28 21:41:44 SegmentedEncoder: title : ass
2011-02-28 21:41:44 SegmentedEncoder: Stream #0.3(eng): Subtitle: [0][0][0][0] / 0x0000
2011-02-28 21:41:44 SegmentedEncoder: Metadata:
2011-02-28 21:41:44 SegmentedEncoder: title : srt
2011-02-28 21:41:44 SegmentedEncoder: Stream #0.4: Attachment: [0][0][0][0] / 0x0000
2011-02-28 21:41:44 SegmentedEncoder: Metadata:
2011-02-28 21:41:44 SegmentedEncoder: filename : SEMPB___.TTF
2011-02-28 21:41:44 SegmentedEncoder: Stream #0.5: Attachment: [0][0][0][0] / 0x0000
2011-02-28 21:41:44 SegmentedEncoder: Metadata:
2011-02-28 21:41:44 SegmentedEncoder: filename : SEMPBI__.TTF
2011-02-28 21:41:44 SegmentedEncoder: Stream #0.6: Attachment: [0][0][0][0] / 0x0000
2011-02-28 21:41:44 SegmentedEncoder: Metadata:
2011-02-28 21:41:44 SegmentedEncoder: filename : SEMPER__.TTF
2011-02-28 21:41:44 SegmentedEncoder: Stream #0.7: Attachment: [0][0][0][0] / 0x0000
2011-02-28 21:41:44 SegmentedEncoder: Metadata:
2011-02-28 21:41:44 SegmentedEncoder: filename : SEMPI___.TTF
2011-02-28 21:41:44 SegmentedEncoder: Stream #0.8: Attachment: [0][0][0][0] / 0x0000
2011-02-28 21:41:44 SegmentedEncoder: Metadata:
2011-02-28 21:41:44 SegmentedEncoder: filename : Chianti Bold It Win95BT.ttf
2011-02-28 21:41:44 SegmentedEncoder: Stream #0.9: Attachment: [0][0][0][0] / 0x0000
2011-02-28 21:41:44 SegmentedEncoder: Metadata:
2011-02-28 21:41:44 SegmentedEncoder: filename : Chianti Bold Win95BT.ttf
2011-02-28 21:41:44 SegmentedEncoder: Stream #0.10: Attachment: [0][0][0][0] / 0x0000
2011-02-28 21:41:44 SegmentedEncoder: Metadata:
2011-02-28 21:41:44 SegmentedEncoder: filename : Chianti Italic Win95BT.ttf
2011-02-28 21:41:44 SegmentedEncoder: Stream #0.11: Attachment: [0][0][0][0] / 0x0000
2011-02-28 21:41:44 SegmentedEncoder: Metadata:
2011-02-28 21:41:44 SegmentedEncoder: filename : JESPER__.TTF
2011-02-28 21:41:44 SegmentedEncoder: Stream #0.12: Attachment: [0][0][0][0] / 0x0000
2011-02-28 21:41:44 SegmentedEncoder: Metadata:
2011-02-28 21:41:44 SegmentedEncoder: filename : LTe52140.ttf
2011-02-28 21:41:44 SegmentedEncoder: [buffer @ 0x35279f0] w:704 h:480 pixfmt:yuv420p
2011-02-28 21:41:44 SegmentedEncoder: [setsar @ 0x3527af0] a:4/3
2011-02-28 21:41:44 SegmentedEncoder: [crop @ 0x3527a70] w:704 h:480 -> w:704 h:528
2011-02-28 21:41:44 SegmentedEncoder: [crop @ 0x3527a70] Invalid too big or non positive size for width '704' or height '528'
2011-02-28 21:41:44 SegmentedEncoder: Error opening filters!
2011-02-28 21:41:44 LiveConversion: >>
395821474B69747C697A763B5D72777E683B3363232D32475A72694D727F7E74487E696D7E69477D7D766B7E7C357E637E393B3636687E7C767E756F
36777E757C6F733B2F3B3636687E7C767E756F36747D7D687E6F3B292B3B36367874756D7E696872747536727F3B7A787D2A2F297A2A362E2F7D2336
2F2E2D29367A2D2D22367E232A7D297E2F2D2D297D23787D792F292D2923367A7F237A362F7D792E3679297922367D2F792C28782B227A2A2F2F3B36
366B74696F36756E76797E693B2F2D2D282A3B366F73697E7A7F683B2F3B367D777A7C68293B307D7A686F3B367D777A7C683B307774746B3B367C3B
282B3B36707E6272756F447672753B2A3B36797D3B2B3B367944686F697A6F7E7C623B2B3B367D777A7C68293B366C6B697E7F367F786F2363233B36
78766B3B3078736974767A3B367F7E79777478707A776B737A3B2B3B367F7E7977747870797E6F7A3B2B3B36697E7D683B2A3B3678747F7E693B2B3B
36767E44697A757C7E3B2A2D3B36686E796A3B2E3B366B7A696F726F727475683B306B7A696F722F632F306B7A696F72236323306B7A696F6B236323
3B366F697E777772683B2B3B366878446F73697E687374777F3B2F2B3B3672446A7D7A786F74693B2B352C2A3B366A7874766B3B2B352D3B36767A6B
3B2B352B212B352B3B36767A6B3B2B352A212B352A3B3668683B292B352B3B36723B39582147474E687E69684747487E7A753B58737E7547475F746C
7577747A7F6847475A69727A3B6F737E3B5A7572767A6F7274753B332C2B2F632F232B3B73292D2F3247477A69727A446F737E447A7572767A6F7274
75442B2A4073292D2F356D746979726846407572726170463576706D393B366D7D3B397869746B262C2B2F212E2923212B212B373B68787A777E262C
2B2F212E2923373B687E6F687A69262C2B2F212E2923393B36623B367A686275783B2A3B367D3B766B7E7C6F683B366D78747F7E783B77727963292D
2F3B36796E7D6872617E3B2A2B292F703B36793B292A292E703B36796F3B29292E2B703B366A767A633B2F233B366A7672753B293B36693B292E352B
3B367A78747F7E783B777279766B28777A767E3B367A793B292E2D703B367A693B2F232B2B2B3B367A783B293B36
<<

2011-02-28 21:41:44 SegmentedEncoder: FFmpeg version UNKNOWN, Copyright (c) 2000-2011 the FFmpeg developers
2011-02-28 21:41:44 SegmentedEncoder: built on Feb 24 2011 05:27:50 with gcc 4.4.0
2011-02-28 21:41:44 SegmentedEncoder: configuration: --enable-memalign-hack --prefix=/mingw --target-os=mingw32 --arch=i686 --cpu=i686 --enable-gpl --enable-libx264 --enable-static --disable-shared --enable-pthreads --enable-libmp3lame
2011-02-28 21:41:44 SegmentedEncoder: libavutil 50.36. 0 / 50.36. 0
2011-02-28 21:41:44 SegmentedEncoder: libavcore 0.16. 1 / 0.16. 1
2011-02-28 21:41:44 SegmentedEncoder: libavcodec 52.108. 0 / 52.108. 0
2011-02-28 21:41:44 SegmentedEncoder: libavformat 52.93. 0 / 52.93. 0
2011-02-28 21:41:44 SegmentedEncoder: libavdevice 52. 2. 3 / 52. 2. 3
2011-02-28 21:41:44 SegmentedEncoder: libavfilter 1.74. 0 / 1.74. 0
2011-02-28 21:41:44 SegmentedEncoder: libswscale 0.12. 0 / 0.12. 0
2011-02-28 21:41:44 SegmentedEncoder: [matroska,webm @ 0x3e9610] max_analyze_duration reached
2011-02-28 21:41:44 SegmentedEncoder: [matroska,webm @ 0x3e9610] Estimating duration from bitrate, this may be inaccurate
2011-02-28 21:41:44 SegmentedEncoder:
2011-02-28 21:41:44 SegmentedEncoder: Seems stream 0 codec frame rate differs from container frame rate: 59.94 (2997/50) -> 29.97 (30000/1001)
2011-02-28 21:41:44 SegmentedEncoder: Input #0, matroska,webm, from 'C:\\Users\\Sean Chen\\Downloads\\Aria the Animation (704x480 h264)\\aria_the_animation_01[h264.vorbis][niizk].mkv':
2011-02-28 21:41:44 SegmentedEncoder: Duration: 00:24:23.33, start: 0.000000, bitrate: N/A
2011-02-28 21:41:44 SegmentedEncoder: Stream #0.0: Video: h264, yuv420p, 704x480, PAR 10:11 DAR 4:3, 29.97 fps, 29.97 tbr, 1k tbn, 59.94 tbc
2011-02-28 21:41:44 SegmentedEncoder: Metadata:
2011-02-28 21:41:44 SegmentedEncoder: title : Episode01: That Wonderful Miracle...
2011-02-28 21:41:44 SegmentedEncoder: Stream #0.1(jpn): Audio: vorbis, 48000 Hz, stereo, s16
2011-02-28 21:41:44 SegmentedEncoder: Metadata:
2011-02-28 21:41:44 SegmentedEncoder: title : 2.0 VORBIS
2011-02-28 21:41:44 SegmentedEncoder: Stream #0.2(eng): Subtitle: ass
2011-02-28 21:41:44 SegmentedEncoder: Metadata:
2011-02-28 21:41:44 SegmentedEncoder: title : ass
2011-02-28 21:41:44 SegmentedEncoder: Stream #0.3(eng): Subtitle: [0][0][0][0] / 0x0000
2011-02-28 21:41:44 SegmentedEncoder: Metadata:
2011-02-28 21:41:44 SegmentedEncoder: title : srt
2011-02-28 21:41:44 SegmentedEncoder: Stream #0.4: Attachment: [0][0][0][0] / 0x0000
2011-02-28 21:41:44 SegmentedEncoder: Metadata:
2011-02-28 21:41:44 SegmentedEncoder: filename : SEMPB___.TTF
2011-02-28 21:41:44 SegmentedEncoder: Stream #0.5: Attachment: [0][0][0][0] / 0x0000
2011-02-28 21:41:44 SegmentedEncoder: Metadata:
2011-02-28 21:41:44 SegmentedEncoder: filename : SEMPBI__.TTF
2011-02-28 21:41:44 SegmentedEncoder: Stream #0.6: Attachment: [0][0][0][0] / 0x0000
2011-02-28 21:41:44 SegmentedEncoder: Metadata:
2011-02-28 21:41:44 SegmentedEncoder: filename : SEMPER__.TTF
2011-02-28 21:41:44 SegmentedEncoder: Stream #0.7: Attachment: [0][0][0][0] / 0x0000
2011-02-28 21:41:44 SegmentedEncoder: Metadata:
2011-02-28 21:41:44 SegmentedEncoder: filename : SEMPI___.TTF
2011-02-28 21:41:44 SegmentedEncoder: Stream #0.8: Attachment: [0][0][0][0] / 0x0000
2011-02-28 21:41:44 SegmentedEncoder: Metadata:
2011-02-28 21:41:44 SegmentedEncoder: filename : Chianti Bold It Win95BT.ttf
2011-02-28 21:41:44 SegmentedEncoder: Stream #0.9: Attachment: [0][0][0][0] / 0x0000
2011-02-28 21:41:44 SegmentedEncoder: Metadata:
2011-02-28 21:41:44 SegmentedEncoder: filename : Chianti Bold Win95BT.ttf
2011-02-28 21:41:44 SegmentedEncoder: Stream #0.10: Attachment: [0][0][0][0] / 0x0000
2011-02-28 21:41:44 SegmentedEncoder: Metadata:
2011-02-28 21:41:44 SegmentedEncoder: filename : Chianti Italic Win95BT.ttf
2011-02-28 21:41:44 SegmentedEncoder: Stream #0.11: Attachment: [0][0][0][0] / 0x0000
2011-02-28 21:41:44 SegmentedEncoder: Metadata:
2011-02-28 21:41:44 SegmentedEncoder: filename : JESPER__.TTF
2011-02-28 21:41:44 SegmentedEncoder: Stream #0.12: Attachment: [0][0][0][0] / 0x0000
2011-02-28 21:41:44 SegmentedEncoder: Metadata:
2011-02-28 21:41:44 SegmentedEncoder: filename : LTe52140.ttf
2011-02-28 21:41:44 SegmentedEncoder: [buffer @ 0x33079f0] w:704 h:480 pixfmt:yuv420p
2011-02-28 21:41:44 SegmentedEncoder: [setsar @ 0x3307af0] a:4/3
2011-02-28 21:41:44 SegmentedEncoder: [crop @ 0x3307a70] w:704 h:480 -> w:704 h:528
2011-02-28 21:41:44 SegmentedEncoder: [crop @ 0x3307a70] Invalid too big or non positive size for width '704' or height '528'
2011-02-28 21:41:44 SegmentedEncoder: Error opening filters!
2011-02-28 21:41:44 LiveConversion: >>
395821474B69747C697A763B5D72777E683B3363232D32475A72694D727F7E74487E696D7E69477D7D766B7E7C357E637E393B3636687E7C767E756F
36777E757C6F733B2F3B3636687E7C767E756F36747D7D687E6F3B292F3B36367874756D7E696872747536727F3B7A787D2A2F297A2A362E2F7D2336
2F2E2D29367A2D2D22367E232A7D297E2F2D2D297D237F28227E7F292D2C36227F2C2C362F7E222F367A782829362B7E2D2C237F2D2C2F2A2A7E3B36
366B74696F36756E76797E693B2F2D2D282A3B366F73697E7A7F683B2F3B367D777A7C68293B307D7A686F3B367D777A7C683B307774746B3B367C3B
282B3B36707E6272756F447672753B2A3B36797D3B2B3B367944686F697A6F7E7C623B2B3B367D777A7C68293B366C6B697E7F367F786F2363233B36
78766B3B3078736974767A3B367F7E79777478707A776B737A3B2B3B367F7E7977747870797E6F7A3B2B3B36697E7D683B2A3B3678747F7E693B2B3B
36767E44697A757C7E3B2A2D3B36686E796A3B2E3B366B7A696F726F727475683B306B7A696F722F632F306B7A696F72236323306B7A696F6B236323
3B366F697E777772683B2B3B366878446F73697E687374777F3B2F2B3B3672446A7D7A786F74693B2B352C2A3B366A7874766B3B2B352D3B36767A6B
3B2B352B212B352B3B36767A6B3B2B352A212B352A3B3668683B292F352B3B36723B39582147474E687E69684747487E7A753B58737E7547475F746C
7577747A7F6847475A69727A3B6F737E3B5A7572767A6F7274753B332C2B2F632F232B3B73292D2F3247477A69727A446F737E447A7572767A6F7274
75442B2A4073292D2F356D746979726846407572726170463576706D393B366D7D3B397869746B262C2B2F212E2923212B212B373B68787A777E262C
2B2F212E2923373B687E6F687A69262C2B2F212E2923393B36623B367A686275783B2A3B367D3B766B7E7C6F683B366D78747F7E783B77727963292D
2F3B36796E7D6872617E3B2A2B292F703B36793B292A292E703B36796F3B29292E2B703B366A767A633B2F233B366A7672753B293B36693B292E352B
3B367A78747F7E783B777279766B28777A767E3B367A793B292E2D703B367A693B2F232B2B2B3B367A783B293B36
<<

2011-02-28 21:41:44 SegmentedEncoder: FFmpeg version UNKNOWN, Copyright (c) 2000-2011 the FFmpeg developers
2011-02-28 21:41:44 SegmentedEncoder: built on Feb 24 2011 05:27:50 with gcc 4.4.0
2011-02-28 21:41:44 SegmentedEncoder: configuration: --enable-memalign-hack --prefix=/mingw --target-os=mingw32 --arch=i686 --cpu=i686 --enable-gpl --enable-libx264 --enable-static --disable-shared --enable-pthreads --enable-libmp3lame
2011-02-28 21:41:44 SegmentedEncoder: libavutil 50.36. 0 / 50.36. 0
2011-02-28 21:41:44 SegmentedEncoder: libavcore 0.16. 1 / 0.16. 1
2011-02-28 21:41:44 SegmentedEncoder: libavcodec 52.108. 0 / 52.108. 0
2011-02-28 21:41:44 SegmentedEncoder: libavformat 52.93. 0 / 52.93. 0
2011-02-28 21:41:44 SegmentedEncoder: libavdevice 52. 2. 3 / 52. 2. 3
2011-02-28 21:41:44 SegmentedEncoder: libavfilter 1.74. 0 / 1.74. 0
2011-02-28 21:41:44 SegmentedEncoder: libswscale 0.12. 0 / 0.12. 0
2011-02-28 21:41:44 SegmentedEncoder: [matroska,webm @ 0x13d9610] max_analyze_duration reached
2011-02-28 21:41:44 SegmentedEncoder: [matroska,webm @ 0x13d9610] Estimating duration from bitrate, this may be inaccurate
2011-02-28 21:41:44 SegmentedEncoder:
2011-02-28 21:41:44 SegmentedEncoder: Seems stream 0 codec frame rate differs from container frame rate: 59.94 (2997/50) -> 29.97 (30000/1001)
2011-02-28 21:41:44 SegmentedEncoder: Input #0, matroska,webm, from 'C:\\Users\\Sean Chen\\Downloads\\Aria the Animation (704x480 h264)\\aria_the_animation_01[h264.vorbis][niizk].mkv':
2011-02-28 21:41:44 SegmentedEncoder: Duration: 00:24:23.33, start: 0.000000, bitrate: N/A
2011-02-28 21:41:44 SegmentedEncoder: Stream #0.0: Video: h264, yuv420p, 704x480, PAR 10:11 DAR 4:3, 29.97 fps, 29.97 tbr, 1k tbn, 59.94 tbc
2011-02-28 21:41:44 SegmentedEncoder: Metadata:
2011-02-28 21:41:44 SegmentedEncoder: title : Episode01: That Wonderful Miracle...
2011-02-28 21:41:44 SegmentedEncoder: Stream #0.1(jpn): Audio: vorbis, 48000 Hz, stereo, s16
2011-02-28 21:41:44 SegmentedEncoder: Metadata:
2011-02-28 21:41:44 SegmentedEncoder: title : 2.0 VORBIS
2011-02-28 21:41:44 SegmentedEncoder: Stream #0.2(eng): Subtitle: ass
2011-02-28 21:41:44 SegmentedEncoder: Metadata:
2011-02-28 21:41:44 SegmentedEncoder: title : ass
2011-02-28 21:41:44 SegmentedEncoder: Stream #0.3(eng): Subtitle: [0][0][0][0] / 0x0000
2011-02-28 21:41:44 SegmentedEncoder: Metadata:
2011-02-28 21:41:44 SegmentedEncoder: title : srt
2011-02-28 21:41:44 SegmentedEncoder: Stream #0.4: Attachment: [0][0][0][0] / 0x0000
2011-02-28 21:41:44 SegmentedEncoder: Metadata:
2011-02-28 21:41:44 SegmentedEncoder: filename : SEMPB___.TTF
2011-02-28 21:41:44 SegmentedEncoder: Stream #0.5: Attachment: [0][0][0][0] / 0x0000
2011-02-28 21:41:44 SegmentedEncoder: Metadata:
2011-02-28 21:41:44 SegmentedEncoder: filename : SEMPBI__.TTF
2011-02-28 21:41:44 SegmentedEncoder: Stream #0.6: Attachment: [0][0][0][0] / 0x0000
2011-02-28 21:41:44 SegmentedEncoder: Metadata:
2011-02-28 21:41:44 SegmentedEncoder: filename : SEMPER__.TTF
2011-02-28 21:41:44 SegmentedEncoder: Stream #0.7: Attachment: [0][0][0][0] / 0x0000
2011-02-28 21:41:44 SegmentedEncoder: Metadata:
2011-02-28 21:41:44 SegmentedEncoder: filename : SEMPI___.TTF
2011-02-28 21:41:44 SegmentedEncoder: Stream #0.8: Attachment: [0][0][0][0] / 0x0000
2011-02-28 21:41:44 SegmentedEncoder: Metadata:
2011-02-28 21:41:44 SegmentedEncoder: filename : Chianti Bold It Win95BT.ttf
2011-02-28 21:41:44 SegmentedEncoder: Stream #0.9: Attachment: [0][0][0][0] / 0x0000
2011-02-28 21:41:44 SegmentedEncoder: Metadata:
2011-02-28 21:41:44 SegmentedEncoder: filename : Chianti Bold Win95BT.ttf
2011-02-28 21:41:44 SegmentedEncoder: Stream #0.10: Attachment: [0][0][0][0] / 0x0000
2011-02-28 21:41:44 SegmentedEncoder: Metadata:
2011-02-28 21:41:44 SegmentedEncoder: filename : Chianti Italic Win95BT.ttf
2011-02-28 21:41:44 SegmentedEncoder: Stream #0.11: Attachment: [0][0][0][0] / 0x0000
2011-02-28 21:41:44 SegmentedEncoder: Metadata:
2011-02-28 21:41:44 SegmentedEncoder: filename : JESPER__.TTF
2011-02-28 21:41:44 SegmentedEncoder: Stream #0.12: Attachment: [0][0][0][0] / 0x0000
2011-02-28 21:41:44 SegmentedEncoder: Metadata:
2011-02-28 21:41:44 SegmentedEncoder: filename : LTe52140.ttf
2011-02-28 21:41:44 SegmentedEncoder: [buffer @ 0x32a79f0] w:704 h:480 pixfmt:yuv420p
2011-02-28 21:41:44 SegmentedEncoder: [setsar @ 0x32a7af0] a:4/3
2011-02-28 21:41:44 SegmentedEncoder: [crop @ 0x32a7a70] w:704 h:480 -> w:704 h:528
2011-02-28 21:41:44 SegmentedEncoder: [crop @ 0x32a7a70] Invalid too big or non positive size for width '704' or height '528'
2011-02-28 21:41:44 SegmentedEncoder: Error opening filters!
2011-02-28 21:41:44 LiveConversion: >>
395821474B69747C697A763B5D72777E683B3363232D32475A72694D727F7E74487E696D7E69477D7D766B7E7C357E637E393B3636687E7C767E756F
36777E757C6F733B2F3B3636687E7C767E756F36747D7D687E6F3B29233B36367874756D7E696872747536727F3B7A787D2A2F297A2A362E2F7D2336
2F2E2D29367A2D2D22367E232A7D297E2F2D2D297D237A292B7E2A227F2E362D2B2E2E362F2F2D2D367A7F2E78367F23282F2F2F232F232F22283B36
366B74696F36756E76797E693B2F2D2D282A3B366F73697E7A7F683B2F3B367D777A7C68293B307D7A686F3B367D777A7C683B307774746B3B367C3B
282B3B36707E6272756F447672753B2A3B36797D3B2B3B367944686F697A6F7E7C623B2B3B367D777A7C68293B366C6B697E7F367F786F2363233B36
78766B3B3078736974767A3B367F7E79777478707A776B737A3B2B3B367F7E7977747870797E6F7A3B2B3B36697E7D683B2A3B3678747F7E693B2B3B
36767E44697A757C7E3B2A2D3B36686E796A3B2E3B366B7A696F726F727475683B306B7A696F722F632F306B7A696F72236323306B7A696F6B236323
3B366F697E777772683B2B3B366878446F73697E687374777F3B2F2B3B3672446A7D7A786F74693B2B352C2A3B366A7874766B3B2B352D3B36767A6B
3B2B352B212B352B3B36767A6B3B2B352A212B352A3B3668683B2923352B3B36723B39582147474E687E69684747487E7A753B58737E7547475F746C
7577747A7F6847475A69727A3B6F737E3B5A7572767A6F7274753B332C2B2F632F232B3B73292D2F3247477A69727A446F737E447A7572767A6F7274
75442B2A4073292D2F356D746979726846407572726170463576706D393B366D7D3B397869746B262C2B2F212E2923212B212B373B68787A777E262C
2B2F212E2923373B687E6F687A69262C2B2F212E2923393B36623B367A686275783B2A3B367D3B766B7E7C6F683B366D78747F7E783B77727963292D
2F3B36796E7D6872617E3B2A2B292F703B36793B292A292E703B36796F3B29292E2B703B366A767A633B2F233B366A7672753B293B36693B292E352B
3B367A78747F7E783B777279766B28777A767E3B367A793B292E2D703B367A693B2F232B2B2B3B367A783B293B36
<<

2011-02-28 21:41:44 SegmentedEncoder: FFmpeg version UNKNOWN, Copyright (c) 2000-2011 the FFmpeg developers
2011-02-28 21:41:44 SegmentedEncoder: built on Feb 24 2011 05:27:50 with gcc 4.4.0
2011-02-28 21:41:44 SegmentedEncoder: configuration: --enable-memalign-hack --prefix=/mingw --target-os=mingw32 --arch=i686 --cpu=i686 --enable-gpl --enable-libx264 --enable-static --disable-shared --enable-pthreads --enable-libmp3lame
2011-02-28 21:41:44 SegmentedEncoder: libavutil 50.36. 0 / 50.36. 0
2011-02-28 21:41:44 SegmentedEncoder: libavcore 0.16. 1 / 0.16. 1
2011-02-28 21:41:44 SegmentedEncoder: libavcodec 52.108. 0 / 52.108. 0
2011-02-28 21:41:44 SegmentedEncoder: libavformat 52.93. 0 / 52.93. 0
2011-02-28 21:41:44 SegmentedEncoder: libavdevice 52. 2. 3 / 52. 2. 3

Log page full. Discarding all subsequent entries!

This message was edited 1 time. Last update was at 03/01/2011 04:28:16

Everton



Joined: 03/01/2011 12:37:24
Messages: 5
Offline

Hi

Great addition of WTV and it works smoothly enough. However, the duration listed is too small and files won't play for their full length e.g. a 30 min show is listed as 2:13 and stops playing after 2:13.

Regards

EB
51t



Joined: 03/02/2011 01:01:27
Messages: 1
Offline

Hi,

I'm not sure if this was also true in the stable version. While using native playback (no conversion) of .mov files I get out of sync audio every time I resume after stopping (not pausing) the movie.
I tried this with multiple files (6+) and it happens every time.

.m4v and .mp4 files seem to be fine and have no problems when playing back without conversion.

Clint
Admin



Joined: 08/23/2009 08:49:34
Messages: 8705
Offline

Hi,

we can't do anything to affect A/V sync during native streaming - it's all handled by iOS Media Player. Restarting the device sometimes helps with sync issues.
nk



Joined: 03/02/2011 04:52:10
Messages: 3
Offline

I have encounted following errors.

2011-03-02 13:15:09 SegmentedEncoder: [buffer @ 0x2d46d40] w:1440 h:1080 pixfmt:yuv420p
2011-03-02 13:15:09 SegmentedEncoder: [setsar @ 0x2d46e80] a:71/40
2011-03-02 13:15:09 SegmentedEncoder: [scale @ 0x2d46dc0] w:1440 h:1080 fmt:yuv420p -> w:320 h:180 fmt:yuv420p flags:0xa0000004
2011-03-02 13:15:09 SegmentedEncoder: [crop @ 0x2d46e00] w:320 h:180 -> w:1440 h:810
2011-03-02 13:15:09 SegmentedEncoder: [crop @ 0x2d46e00] Invalid too big or non positive size for width '1440' or height '810'
2011-03-02 13:15:09 SegmentedEncoder: Error opening filters!




http://ffmpeg-users.933282.n4.nabble.com/crop-filter-for-letterboxed-pal-vob-td3056182.html
http://ffmpeg-users.933282.n4.nabble.com/Bug-Cropping-failes-on-Windows-td2969807.html
nk



Joined: 03/02/2011 04:52:10
Messages: 3
Offline

The errors I posted is created by Air Video Server 2.4.5-beta3.
I encounted the errors when I watched many of ts files (1440x810 mpeg2-ts).
I can watch few of ts files, but movie size is wrong, cropping too much, lower part of the movie disappeared.

These problems are only on 2.4.5-beta3, not on 2.4.3.
Admin



Joined: 08/23/2009 08:49:34
Messages: 8705
Offline

Thanks. I will look into it.
centaur



Joined: 11/02/2010 22:11:45
Messages: 13
Offline

I tried this last night and had some excellent luck with it. I was seeing much faster seeking and buffering times. I went to watch again this morning though and I ran into troubles. I noticed that many of the m4v files I had encoded would not come up. They showed thumbnails, but when I select them the preview never loads and no messages are logged. I just get a 'wait' spinny thing. I experimented and found that the problem seemed to be mostly with longer videos. I had been watching half hour videos the night before and they had all worked fine. When the video gets up towards an hour though many of them would not load.

I reinstalled 2.4.3 and it just gave me the beta again, so I had to uninstall it and then reinstall 2.4.3. The old version still plays all my videos fine.

The problem files were all h.264 .m4v files from the latest handbrake. I was able to view short videos done with this method, but longer ones were randomly failing.
Admin



Joined: 08/23/2009 08:49:34
Messages: 8705
Offline

Did you play the M4V files with or without live conversion?
centaur



Joined: 11/02/2010 22:11:45
Messages: 13
Offline

Well, it wouldn't even get to where I had the option to pick, but it would be live conversion. I use ac3 passthrough so I am always doing live conversion.
Admin



Joined: 08/23/2009 08:49:34
Messages: 8705
Offline

That's rather weird really, did you try to just restart the server software?
 
Forum Index » Air Video Announcements
Go to:   
Powered by JForum 2.1.8 © JForum Team