[Logo] Air Video Forum
  [Search] Search   [Recent Topics] Recent Topics   [Hottest Topics] Hottest Topics   [Members]  Member Listing   [Groups] Back to home page 
[Moderation Log] Moderation Log   [Register] Register / 
[Login] Login 
Air Video Server 2.4.5-beta5 released  XML
Forum Index » Air Video Announcements
Author Message
Admin



Joined: 08/23/2009 08:49:34
Messages: 8705
Offline

4.3 on ATV is a requirement. Oliver, are those HD files? What exactly do you mean by hang? Does it buffer or stops playback completely?
fbettag



Joined: 03/08/2011 15:42:01
Messages: 5
Offline

Admin wrote:4.3 on ATV is a requirement. Oliver, are those HD files? What exactly do you mean by hang? Does it buffer or stops playback completely?


Yes the buffer stops, on the ipad in see the play button, which after a few seconds switches back to the pause button (when the video resumes again).

i could tape it with my iphone if you want to.

This message was edited 1 time. Last update was at 03/08/2011 16:57:08

Admin



Joined: 08/23/2009 08:49:34
Messages: 8705
Offline

Sometimes during playback Apple TV requests different parts of the file than the iPad/iPhone, in that case we have to do two parallel live conversion. We try to adjust the priorities so that we deliver to Apple TV first but it is possible that it might be too much for your computer to handle. What CPU do you have?
fbettag



Joined: 03/08/2011 15:42:01
Messages: 5
Offline

Admin wrote:Sometimes during playback Apple TV requests different parts of the file than the iPad/iPhone, in that case we have to do two parallel live conversion. We try to adjust the priorities so that we deliver to Apple TV first but it is possible that it might be too much for your computer to handle. What CPU do you have?


late 2007 MacPro (2x 2.66 dual core, 5gb ddr2)
Admin



Joined: 08/23/2009 08:49:34
Messages: 8705
Offline

I think that should be enough. What resolution do those files have? Can you post here live conversion log? (Clear the log before you start playback)
oliver



Joined: 09/29/2010 05:59:30
Messages: 6
Offline

Nope, not any are HD, just standard definition video files. Between 200mb and 600mb in filesize and around under 60 minutes in length.
fbettag



Joined: 03/08/2011 15:42:01
Messages: 5
Offline

Admin wrote:I think that should be enough. What resolution do those files have? Can you post here live conversion log? (Clear the log before you start playback)


it's 720p mkv. Not sure which

2011-03-08 15:17:19 SegmentedEncoder: FFmpeg version UNKNOWN, Copyright (c) 2000-2011 the FFmpeg developers
2011-03-08 15:17:19 SegmentedEncoder: built on Mar 6 2011 19:02:40 with gcc 4.2.1 (Apple Inc. build 5666) (dot 3)
2011-03-08 15:17:19 SegmentedEncoder: configuration: --enable-pthreads --disable-shared --enable-static --enable-gpl --enable-libx264 --enable-libmp3lame
2011-03-08 15:17:19 SegmentedEncoder: libavutil 50.36. 0 / 50.36. 0
2011-03-08 15:17:19 SegmentedEncoder: libavcore 0.16. 1 / 0.16. 1
2011-03-08 15:17:19 SegmentedEncoder: libavcodec 52.108. 0 / 52.108. 0
2011-03-08 15:17:19 SegmentedEncoder: libavformat 52.93. 0 / 52.93. 0
2011-03-08 15:17:19 SegmentedEncoder: libavdevice 52. 2. 3 / 52. 2. 3
2011-03-08 15:17:19 SegmentedEncoder: libavfilter 1.74. 0 / 1.74. 0
2011-03-08 15:17:19 SegmentedEncoder: libswscale 0.12. 0 / 0.12. 0
2011-03-08 15:17:19 SegmentedEncoder: [matroska,webm @ 0x10100b000] Estimating duration from bitrate, this may be inaccurate
2011-03-08 15:17:19 SegmentedEncoder:
2011-03-08 15:17:19 SegmentedEncoder: Seems stream 0 codec frame rate differs from container frame rate: 47.95 (48000/1001) -> 24.00 (24/1)
2011-03-08 15:17:19 SegmentedEncoder: Input #0, matroska,webm, from '/somefile.720p.mkv':
2011-03-08 15:17:19 SegmentedEncoder: Duration: 00:28:30.12, start: 0.000000, bitrate: 384 kb/s
2011-03-08 15:17:19 SegmentedEncoder: Stream #0.0(eng): Video: h264, yuv420p, 1280x720, PAR 1:1 DAR 16:9, 23.98 fps, 24 tbr, 1k tbn, 47.95 tbc
2011-03-08 15:17:19 SegmentedEncoder: Stream #0.1: Audio: ac3, 48000 Hz, 5.1, s16, 384 kb/s
2011-03-08 15:17:19 SegmentedEncoder: [buffer @ 0x100e00db0] w:1280 h:720 pixfmt:yuv420p
2011-03-08 15:17:19 SegmentedEncoder: [crop @ 0x100e03730] w:1280 h:720 -> w:1280 h:720
2011-03-08 15:17:19 SegmentedEncoder: [scale @ 0x100e036e0] w:1280 h:720 fmt:yuv420p -> w:1024 h:576 fmt:yuv420p flags:0xa0000004
2011-03-08 15:17:19 SegmentedEncoder: [libx264 @ 0x10100f800] VBV maxrate unspecified, assuming CBR
2011-03-08 15:17:19 SegmentedEncoder: [libx264 @ 0x10100f800] using SAR=1/1
2011-03-08 15:17:19 SegmentedEncoder: [libx264 @ 0x10100f800] using cpu capabilities: MMX2 SSE2Fast SSSE3 Cache64
2011-03-08 15:17:19 SegmentedEncoder: [libx264 @ 0x10100f800] profile Constrained Baseline, level 3.1
2011-03-08 15:17:19 SegmentedEncoder: [mpegts @ 0x101013400] muxrate VBR, pcr every 2 pkts, sdt every 200, pat/pmt every 40 pkts
2011-03-08 15:17:19 SegmentedEncoder: Output #0, mpegts, to 'pipe:':
2011-03-08 15:17:19 SegmentedEncoder: Metadata:
2011-03-08 15:17:19 SegmentedEncoder: encoder : Lavf52.93.0
2011-03-08 15:17:19 SegmentedEncoder: Stream #0.0(eng): Video: libx264, yuv420p, 1024x576 [PAR 1:1 DAR 16:9], q=2-48, 4250 kb/s, 90k tbn, 24 tbc
2011-03-08 15:17:19 SegmentedEncoder: Stream #0.1: Audio: libmp3lame, 48000 Hz, 2 channels, s16, 256 kb/s
2011-03-08 15:17:19 SegmentedEncoder: Stream mapping:
2011-03-08 15:17:19 SegmentedEncoder: Stream #0.0 -> #0.0
2011-03-08 15:17:19 SegmentedEncoder: Stream #0.1 -> #0.1
2011-03-08 15:17:19 SegmentedEncoder: Press [q] to stop encoding
2011-03-08 15:17:19 SegmentedEncoder: Input stream #0.1 frame changed from rate:48000 fmt:s16 ch:6 to rate:48000 fmt:s16 ch:2
2011-03-08 15:17:20 SegmentedEncoder: frame= 34 fps= 0 q=26.0 size= 0kB time=1.73 bitrate= 0.0kbits/s
2011-03-08 15:17:25 SegmentedEncoder: frame= 234 fps= 39 q=20.0 size= 4582kB time=8.29 bitrate=4526.6kbits/s
2011-03-08 15:17:31 SegmentedEncoder: frame= 445 fps= 37 q=19.0 size= 9607kB time=17.08 bitrate=4607.0kbits/s
2011-03-08 15:17:36 SegmentedEncoder: frame= 640 fps= 37 q=21.0 size= 14148kB time=25.21 bitrate=4597.5kbits/s
2011-03-08 15:17:41 SegmentedEncoder: frame= 843 fps= 38 q=19.0 size= 18831kB time=33.67 bitrate=4582.2kbits/s
2011-03-08 15:17:47 SegmentedEncoder: frame= 1049 fps= 38 q=19.0 size= 23671kB time=42.25 bitrate=4589.7kbits/s
2011-03-08 15:17:52 SegmentedEncoder: frame= 1327 fps= 40 q=19.0 size= 27777kB time=53.83 bitrate=4226.9kbits/s
2011-03-08 15:17:57 SegmentedEncoder: frame= 1533 fps= 40 q=18.0 size= 32607kB time=62.42 bitrate=4279.6kbits/s dup=1 drop=0
2011-03-08 15:18:03 SegmentedEncoder: frame= 1722 fps= 39 q=20.0 size= 37007kB time=70.29 bitrate=4312.9kbits/s dup=1 drop=0
2011-03-08 15:18:08 SegmentedEncoder: frame= 1914 fps= 39 q=20.0 size= 41444kB time=78.29 bitrate=4336.5kbits/s dup=1 drop=0
2011-03-08 15:18:14 SegmentedEncoder: frame= 2105 fps= 38 q=20.0 size= 45885kB time=86.25 bitrate=4358.1kbits/s dup=1 drop=0
2011-03-08 15:18:19 SegmentedEncoder: frame= 2322 fps= 39 q=19.0 size= 50936kB time=95.29 bitrate=4378.8kbits/s dup=1 drop=0
2011-03-08 15:18:25 SegmentedEncoder: frame= 2517 fps= 38 q=21.0 size= 55593kB time=103.42 bitrate=4403.7kbits/s dup=2 drop=0
2011-03-08 15:18:30 SegmentedEncoder: frame= 2703 fps= 38 q=20.0 size= 59932kB time=111.17 bitrate=4416.5kbits/s dup=2 drop=0
2011-03-08 15:18:35 SegmentedEncoder: frame= 2895 fps= 38 q=20.0 size= 64459kB time=119.17 bitrate=4431.2kbits/s dup=2 drop=0
2011-03-08 15:18:41 SegmentedEncoder: frame= 3089 fps= 38 q=19.0 size= 68977kB time=127.25 bitrate=4440.6kbits/s dup=2 drop=0
2011-03-08 15:18:47 SegmentedEncoder: frame= 3283 fps= 38 q=21.0 size= 73509kB time=135.33 bitrate=4449.7kbits/s dup=2 drop=0
2011-03-08 15:18:53 SegmentedEncoder: frame= 3472 fps= 37 q=20.0 size= 77879kB time=143.21 bitrate=4455.0kbits/s dup=2 drop=0
2011-03-08 15:19:01 SegmentedEncoder: frame= 3666 fps= 36 q=18.0 size= 82440kB time=151.29 bitrate=4463.9kbits/s dup=3 drop=0
2011-03-08 15:20:42 SegmentedEncoder: av_interleaved_write_frame(): Operation not permitted
2011-03-08 15:20:42 SegmentedEncoder: Received signal 15: terminating.
2011-03-08 15:20:42 SegmentedEncoder: Bad file descriptor
2011-03-08 15:20:43 LiveConversion: >>
39345A6B6B7772787A6F72747568345A72693B4D727F7E743B487E696D7E69357A6B6B345874756F7E756F6834497E68746E69787E68347D7D766B7E
7C393B3636687E7C767E756F36777E757C6F733B2F3B3636687E7C767E756F36747D7D687E6F3B2B3B36367874756D7E696872747536727F3B7D7D23
2F79222F2D36292B7E2A362F782D2D367A222B2B36222D2B227D787E7D7E222C782B7F782E2C787F7A362E2A7D7F362F29227D36237E2279362F2228
2E237E2C232D787A2D3B36366B74696F36756E76797E693B2F2D2D282A3B366F73697E7A7F683B2F3B367D777A7C68293B307D7A686F3B367D777A7C
683B307774746B3B367C3B282B3B36707E6272756F447672753B2A3B36797D3B2B3B367944686F697A6F7E7C623B2B3B367D777A7C68293B366C6B69
7E7F367F786F2363233B3678766B3B3078736974767A3B367F7E79777478707A776B737A3B2B3B367F7E7977747870797E6F7A3B2B3B36697E7D683B
2A3B3678747F7E693B2B3B36767E44697A757C7E3B2A2D3B36686E796A3B2E3B366B7A696F726F727475683B306B7A696F722F632F306B7A696F7223
6323306B7A696F6B2363233B366F697E777772683B2B3B366878446F73697E687374777F3B2F2B3B3672446A7D7A786F74693B2B352C2A3B366A7874
766B3B2B352D3B36767A6B3B2B352B212B352B3B36767A6B3B2B352A212B352A3B3668683B2B352B3B36723B39344D74776E767E6834487E69727E68
34587A77727D74697572787A6F72747534487E7A6874753B2F34587A77727D74697572787A6F72747535482B2F5E2B2C352C292B6B35535F4F4D3543
292D2F365F52565E55485254553576706D393B366D7D3B397869746B262A29232B212C292B212B212B373B68787A777E262A2B292F212E2C2D393B36
7A686B7E786F3B2A29232B212C292B3B36623B367D3B766B7E7C6F683B366D78747F7E783B77727963292D2F3B36796E7D6872617E3B2A2B292F703B
36793B2F292E2B703B36796F3B2F2E2B2B703B366A767A633B2F233B366A7672753B293B36693B292F352B3B367A78747F7E783B777279766B28777A
767E3B367A793B292E2D703B367A693B2F232B2B2B3B367A783B293B36
<<

2011-03-08 15:20:43 SegmentedEncoder: FFmpeg version UNKNOWN, Copyright (c) 2000-2011 the FFmpeg developers
2011-03-08 15:20:43 SegmentedEncoder: built on Mar 6 2011 19:02:40 with gcc 4.2.1 (Apple Inc. build 5666) (dot 3)
2011-03-08 15:20:43 SegmentedEncoder: configuration: --enable-pthreads --disable-shared --enable-static --enable-gpl --enable-libx264 --enable-libmp3lame
2011-03-08 15:20:43 SegmentedEncoder: libavutil 50.36. 0 / 50.36. 0
2011-03-08 15:20:43 SegmentedEncoder: libavcore 0.16. 1 / 0.16. 1
2011-03-08 15:20:43 SegmentedEncoder: libavcodec 52.108. 0 / 52.108. 0
2011-03-08 15:20:43 SegmentedEncoder: libavformat 52.93. 0 / 52.93. 0
2011-03-08 15:20:43 SegmentedEncoder: libavdevice 52. 2. 3 / 52. 2. 3
2011-03-08 15:20:43 SegmentedEncoder: libavfilter 1.74. 0 / 1.74. 0
2011-03-08 15:20:43 SegmentedEncoder: libswscale 0.12. 0 / 0.12. 0
2011-03-08 15:20:43 SegmentedEncoder: [matroska,webm @ 0x10100b000] Estimating duration from bitrate, this may be inaccurate
2011-03-08 15:20:43 SegmentedEncoder:
2011-03-08 15:20:43 SegmentedEncoder: Seems stream 0 codec frame rate differs from container frame rate: 47.95 (48000/1001) -> 24.00 (24/1)
2011-03-08 15:20:43 SegmentedEncoder: Input #0, matroska,webm, from '/somefile.720p.mkv':
2011-03-08 15:20:43 SegmentedEncoder: Duration: 00:28:30.12, start: 0.000000, bitrate: 384 kb/s
2011-03-08 15:20:43 SegmentedEncoder: Stream #0.0(eng): Video: h264, yuv420p, 1280x720, PAR 1:1 DAR 16:9, 23.98 fps, 24 tbr, 1k tbn, 47.95 tbc
2011-03-08 15:20:43 SegmentedEncoder: Stream #0.1: Audio: ac3, 48000 Hz, 5.1, s16, 384 kb/s
2011-03-08 15:20:43 SegmentedEncoder: [buffer @ 0x100e00db0] w:1280 h:720 pixfmt:yuv420p
2011-03-08 15:20:43 SegmentedEncoder: [crop @ 0x100e03730] w:1280 h:720 -> w:1280 h:720
2011-03-08 15:20:43 SegmentedEncoder: [scale @ 0x100e036e0] w:1280 h:720 fmt:yuv420p -> w:1024 h:576 fmt:yuv420p flags:0xa0000004
2011-03-08 15:20:43 SegmentedEncoder: [libx264 @ 0x10100f800] VBV maxrate unspecified, assuming CBR
2011-03-08 15:20:43 SegmentedEncoder: [libx264 @ 0x10100f800] using SAR=1/1
2011-03-08 15:20:43 SegmentedEncoder: [libx264 @ 0x10100f800] using cpu capabilities: MMX2 SSE2Fast SSSE3 Cache64
2011-03-08 15:20:43 SegmentedEncoder: [libx264 @ 0x10100f800] profile Constrained Baseline, level 3.1
2011-03-08 15:20:43 SegmentedEncoder: [mpegts @ 0x101013400] muxrate VBR, pcr every 2 pkts, sdt every 200, pat/pmt every 40 pkts
2011-03-08 15:20:43 SegmentedEncoder: Output #0, mpegts, to 'pipe:':
2011-03-08 15:20:43 SegmentedEncoder: Metadata:
2011-03-08 15:20:43 SegmentedEncoder: encoder : Lavf52.93.0
2011-03-08 15:20:43 SegmentedEncoder: Stream #0.0(eng): Video: libx264, yuv420p, 1024x576 [PAR 1:1 DAR 16:9], q=2-48, 4250 kb/s, 90k tbn, 24 tbc
2011-03-08 15:20:43 SegmentedEncoder: Stream #0.1: Audio: libmp3lame, 48000 Hz, 2 channels, s16, 256 kb/s
2011-03-08 15:20:43 SegmentedEncoder: Stream mapping:
2011-03-08 15:20:43 SegmentedEncoder: Stream #0.0 -> #0.0
2011-03-08 15:20:43 SegmentedEncoder: Stream #0.1 -> #0.1
2011-03-08 15:20:43 SegmentedEncoder: Press [q] to stop encoding
2011-03-08 15:20:43 SegmentedEncoder: Input stream #0.1 frame changed from rate:48000 fmt:s16 ch:6 to rate:48000 fmt:s16 ch:2
2011-03-08 15:20:43 SegmentedEncoder: frame= 34 fps= 0 q=26.0 size= 0kB time=1.73 bitrate= 0.0kbits/s
2011-03-08 15:20:50 LiveConversion: >>
39345A6B6B7772787A6F72747568345A72693B4D727F7E743B487E696D7E69357A6B6B345874756F7E756F6834497E68746E69787E68347D7D766B7E
7C393B3636687E7C767E756F36777E757C6F733B2F3B3636687E7C767E756F36747D7D687E6F3B2A2F233B36367874756D7E696872747536727F3B7D
7D232F79222F2D36292B7E2A362F782D2D367A222B2B36222D2B227D787E7D7E222C782C29222378297A2A362C7F232F362F2D787836232A2C2C367D
2D7D29222F7F297F2B2F793B36366B74696F36756E76797E693B2F2D2D282A3B366F73697E7A7F683B2F3B367D777A7C68293B307D7A686F3B367D77
7A7C683B307774746B3B367C3B282B3B36707E6272756F447672753B2A3B36797D3B2B3B367944686F697A6F7E7C623B2B3B367D777A7C68293B366C
6B697E7F367F786F2363233B3678766B3B3078736974767A3B367F7E79777478707A776B737A3B2B3B367F7E7977747870797E6F7A3B2B3B36697E7D
683B2A3B3678747F7E693B2B3B36767E44697A757C7E3B2A2D3B36686E796A3B2E3B366B7A696F726F727475683B306B7A696F722F632F306B7A696F
72236323306B7A696F6B2363233B366F697E777772683B2B3B366878446F73697E687374777F3B2F2B3B3672446A7D7A786F74693B2B352C2A3B366A
7874766B3B2B352D3B36767A6B3B2B352B212B352B3B36767A6B3B2B352A212B352A3B3668683B2A2F23352B3B36723B39344D74776E767E6834487E
69727E6834587A77727D74697572787A6F72747534487E7A6874753B2F34587A77727D74697572787A6F72747535482B2F5E2B2C352C292B6B35535F
4F4D3543292D2F365F52565E55485254553576706D393B366D7D3B397869746B262A29232B212C292B212B212B373B68787A777E262A2B292F212E2C
2D393B367A686B7E786F3B2A29232B212C292B3B36623B367A686275783B2A3B367D3B766B7E7C6F683B366D78747F7E783B77727963292D2F3B3679
6E7D6872617E3B2A2B292F703B36793B2F292E2B703B36796F3B2F2E2B2B703B366A767A633B2F233B366A7672753B293B36693B292F352B3B367A78
747F7E783B777279766B28777A767E3B367A793B292E2D703B367A693B2F232B2B2B3B367A783B293B36
<<

2011-03-08 15:20:50 SegmentedEncoder: FFmpeg version UNKNOWN, Copyright (c) 2000-2011 the FFmpeg developers
2011-03-08 15:20:50 SegmentedEncoder: built on Mar 6 2011 19:02:40 with gcc 4.2.1 (Apple Inc. build 5666) (dot 3)
2011-03-08 15:20:50 SegmentedEncoder: configuration: --enable-pthreads --disable-shared --enable-static --enable-gpl --enable-libx264 --enable-libmp3lame
2011-03-08 15:20:50 SegmentedEncoder: libavutil 50.36. 0 / 50.36. 0
2011-03-08 15:20:50 SegmentedEncoder: libavcore 0.16. 1 / 0.16. 1
2011-03-08 15:20:50 SegmentedEncoder: libavcodec 52.108. 0 / 52.108. 0
2011-03-08 15:20:50 SegmentedEncoder: libavformat 52.93. 0 / 52.93. 0
2011-03-08 15:20:50 SegmentedEncoder: libavdevice 52. 2. 3 / 52. 2. 3
2011-03-08 15:20:50 SegmentedEncoder: libavfilter 1.74. 0 / 1.74. 0
2011-03-08 15:20:50 SegmentedEncoder: libswscale 0.12. 0 / 0.12. 0
2011-03-08 15:20:50 SegmentedEncoder: av_interleaved_write_frame(): Operation not permitted
2011-03-08 15:20:50 SegmentedEncoder: Bad file descriptor
2011-03-08 15:20:50 SegmentedEncoder: [matroska,webm @ 0x10100b000] Estimating duration from bitrate, this may be inaccurate
2011-03-08 15:20:50 SegmentedEncoder:
2011-03-08 15:20:50 SegmentedEncoder: Seems stream 0 codec frame rate differs from container frame rate: 47.95 (48000/1001) -> 24.00 (24/1)
2011-03-08 15:20:50 SegmentedEncoder: Input #0, matroska,webm, from '/somefile.720p.mkv':
2011-03-08 15:20:50 SegmentedEncoder: Duration: 00:28:30.12, start: 0.000000, bitrate: 384 kb/s
2011-03-08 15:20:50 SegmentedEncoder: Stream #0.0(eng): Video: h264, yuv420p, 1280x720, PAR 1:1 DAR 16:9, 23.98 fps, 24 tbr, 1k tbn, 47.95 tbc
2011-03-08 15:20:50 SegmentedEncoder: Stream #0.1: Audio: ac3, 48000 Hz, 5.1, s16, 384 kb/s
2011-03-08 15:20:50 SegmentedEncoder: [buffer @ 0x100e064e0] w:1280 h:720 pixfmt:yuv420p
2011-03-08 15:20:50 SegmentedEncoder: [crop @ 0x100e03960] w:1280 h:720 -> w:1280 h:720
2011-03-08 15:20:50 SegmentedEncoder: [scale @ 0x100e03910] w:1280 h:720 fmt:yuv420p -> w:1024 h:576 fmt:yuv420p flags:0xa0000004
2011-03-08 15:20:50 SegmentedEncoder: [libx264 @ 0x101014600] VBV maxrate unspecified, assuming CBR
2011-03-08 15:20:50 SegmentedEncoder: [libx264 @ 0x101014600] using SAR=1/1
2011-03-08 15:20:50 SegmentedEncoder: [libx264 @ 0x101014600] using cpu capabilities: MMX2 SSE2Fast SSSE3 Cache64
2011-03-08 15:20:50 SegmentedEncoder: [libx264 @ 0x101014600] profile Constrained Baseline, level 3.1
2011-03-08 15:20:50 SegmentedEncoder: [mpegts @ 0x101013400] muxrate VBR, pcr every 2 pkts, sdt every 200, pat/pmt every 40 pkts
2011-03-08 15:20:50 SegmentedEncoder: Output #0, mpegts, to 'pipe:':
2011-03-08 15:20:50 SegmentedEncoder: Metadata:
2011-03-08 15:20:50 SegmentedEncoder: encoder : Lavf52.93.0
2011-03-08 15:20:50 SegmentedEncoder: Stream #0.0(eng): Video: libx264, yuv420p, 1024x576 [PAR 1:1 DAR 16:9], q=2-48, 4250 kb/s, 90k tbn, 24 tbc
2011-03-08 15:20:50 SegmentedEncoder: Stream #0.1: Audio: libmp3lame, 48000 Hz, 2 channels, s16, 256 kb/s
2011-03-08 15:20:50 SegmentedEncoder: Stream mapping:
2011-03-08 15:20:50 SegmentedEncoder: Stream #0.0 -> #0.0
2011-03-08 15:20:50 SegmentedEncoder: Stream #0.1 -> #0.1
2011-03-08 15:20:50 SegmentedEncoder: Press [q] to stop encoding
2011-03-08 15:20:50 SegmentedEncoder: Input stream #0.1 frame changed from rate:48000 fmt:s16 ch:6 to rate:48000 fmt:s16 ch:2
2011-03-08 15:20:51 SegmentedEncoder: frame= 30 fps= 0 q=0.0 size= 0kB time=1.63 bitrate= 0.0kbits/s dup=0 drop=13
2011-03-08 15:20:58 SegmentedEncoder: frame= 238 fps= 30 q=20.0 size= 4644kB time=8.46 bitrate=4498.2kbits/s dup=0 drop=13
2011-03-08 15:21:06 SegmentedEncoder: frame= 429 fps= 26 q=20.0 size= 9060kB time=16.42 bitrate=4520.9kbits/s dup=0 drop=13
2011-03-08 15:21:15 SegmentedEncoder: frame= 638 fps= 26 q=21.0 size= 13999kB time=25.12 bitrate=4564.3kbits/s dup=0 drop=13
2011-03-08 15:21:25 SegmentedEncoder: frame= 829 fps= 24 q=20.0 size= 18429kB time=33.08 bitrate=4563.4kbits/s dup=0 drop=13
2011-03-08 15:21:34 SegmentedEncoder: frame= 1021 fps= 24 q=20.0 size= 22916kB time=41.08 bitrate=4569.5kbits/s dup=0 drop=13
2011-03-08 15:21:43 SegmentedEncoder: frame= 1241 fps= 23 q=30.0 size= 28148kB time=50.25 bitrate=4588.8kbits/s dup=0 drop=13
2011-03-08 15:21:50 SegmentedEncoder: frame= 1477 fps= 24 q=21.0 size= 33741kB time=60.08 bitrate=4600.4kbits/s dup=0 drop=13
2011-03-08 15:21:57 SegmentedEncoder: frame= 1676 fps= 25 q=27.0 size= 38462kB time=68.38 bitrate=4608.1kbits/s dup=0 drop=13
2011-03-08 15:22:03 SegmentedEncoder: frame= 1898 fps= 26 q=21.0 size= 43598kB time=77.62 bitrate=4601.0kbits/s dup=0 drop=13
2011-03-08 15:22:11 SegmentedEncoder: frame= 2133 fps= 26 q=22.0 size= 48990kB time=87.42 bitrate=4591.0kbits/s dup=1 drop=13
2011-03-08 15:22:18 SegmentedEncoder: frame= 2347 fps= 27 q=20.0 size= 53963kB time=96.33 bitrate=4588.9kbits/s dup=1 drop=13
2011-03-08 15:22:24 SegmentedEncoder: frame= 2536 fps= 27 q=22.0 size= 58385kB time=104.21 bitrate=4589.8kbits/s dup=1 drop=13
2011-03-08 15:22:31 SegmentedEncoder: frame= 2727 fps= 27 q=19.0 size= 62886kB time=112.17 bitrate=4592.8kbits/s dup=1 drop=13
2011-03-08 15:22:37 SegmentedEncoder: frame= 2918 fps= 27 q=18.0 size= 67336kB time=120.12 bitrate=4592.0kbits/s dup=1 drop=13
2011-03-08 15:22:43 SegmentedEncoder: frame= 3120 fps= 28 q=18.0 size= 72108kB time=128.54 bitrate=4595.5kbits/s dup=2 drop=13
2011-03-08 15:22:50 SegmentedEncoder: frame= 3329 fps= 28 q=19.0 size= 76945kB time=137.25 bitrate=4592.6kbits/s dup=2 drop=13
2011-03-08 15:22:53 LiveConversion: >>
39345A6B6B7772787A6F72747568345A72693B4D727F7E743B487E696D7E69357A6B6B345874756F7E756F6834497E68746E69787E68347D7D766B7E
7C393B3636687E7C767E756F36777E757C6F733B2F3B3636687E7C767E756F36747D7D687E6F3B232E2D3B36367874756D7E696872747536727F3B7D
7D232F79222F2D36292B7E2A362F782D2D367A222B2B36222D2B227D787E7D7E222C782A797D2A7F782C2E367F22792E362F2223783679287A29367E
7F7A2E2C2C7D2F7E7E23233B36366B74696F36756E76797E693B2F2D2D282A3B366F73697E7A7F683B2F3B367D777A7C68293B307D7A686F3B367D77
7A7C683B307774746B3B367C3B282B3B36707E6272756F447672753B2A3B36797D3B2B3B367944686F697A6F7E7C623B2B3B367D777A7C68293B366C
6B697E7F367F786F2363233B3678766B3B3078736974767A3B367F7E79777478707A776B737A3B2B3B367F7E7977747870797E6F7A3B2B3B36697E7D
683B2A3B3678747F7E693B2B3B36767E44697A757C7E3B2A2D3B36686E796A3B2E3B366B7A696F726F727475683B306B7A696F722F632F306B7A696F
72236323306B7A696F6B2363233B366F697E777772683B2B3B366878446F73697E687374777F3B2F2B3B3672446A7D7A786F74693B2B352C2A3B366A
7874766B3B2B352D3B36767A6B3B2B352B212B352B3B36767A6B3B2B352A212B352A3B3668683B232E2D352B3B36723B39344D74776E767E6834487E
69727E6834587A77727D74697572787A6F72747534487E7A6874753B2F34587A77727D74697572787A6F72747535482B2F5E2B2C352C292B6B35535F
4F4D3543292D2F365F52565E55485254553576706D393B366D7D3B397869746B262A29232B212C292B212B212B373B68787A777E262A2B292F212E2C
2D393B367A686B7E786F3B2A29232B212C292B3B36623B367A686275783B2A3B367D3B766B7E7C6F683B366D78747F7E783B77727963292D2F3B3679
6E7D6872617E3B2A2B292F703B36793B2F292E2B703B36796F3B2F2E2B2B703B366A767A633B2F233B366A7672753B293B36693B292F352B3B367A78
747F7E783B777279766B28777A767E3B367A793B292E2D703B367A693B2F232B2B2B3B367A783B293B36
<<

2011-03-08 15:22:54 SegmentedEncoder: av_interleaved_write_frame(): Operation not permitted
2011-03-08 15:22:54 SegmentedEncoder: Bad file descriptor
2011-03-08 15:22:54 SegmentedEncoder: FFmpeg version UNKNOWN, Copyright (c) 2000-2011 the FFmpeg developers
2011-03-08 15:22:54 SegmentedEncoder: built on Mar 6 2011 19:02:40 with gcc 4.2.1 (Apple Inc. build 5666) (dot 3)
2011-03-08 15:22:54 SegmentedEncoder: configuration: --enable-pthreads --disable-shared --enable-static --enable-gpl --enable-libx264 --enable-libmp3lame
2011-03-08 15:22:54 SegmentedEncoder: libavutil 50.36. 0 / 50.36. 0
2011-03-08 15:22:54 SegmentedEncoder: libavcore 0.16. 1 / 0.16. 1
2011-03-08 15:22:54 SegmentedEncoder: libavcodec 52.108. 0 / 52.108. 0
2011-03-08 15:22:54 SegmentedEncoder: libavformat 52.93. 0 / 52.93. 0
2011-03-08 15:22:54 SegmentedEncoder: libavdevice 52. 2. 3 / 52. 2. 3
2011-03-08 15:22:54 SegmentedEncoder: libavfilter 1.74. 0 / 1.74. 0
2011-03-08 15:22:54 SegmentedEncoder: libswscale 0.12. 0 / 0.12. 0
2011-03-08 15:22:54 SegmentedEncoder: [matroska,webm @ 0x10100b000] Estimating duration from bitrate, this may be inaccurate
2011-03-08 15:22:54 SegmentedEncoder:
2011-03-08 15:22:54 SegmentedEncoder: Seems stream 0 codec frame rate differs from container frame rate: 47.95 (48000/1001) -> 24.00 (24/1)
2011-03-08 15:22:54 SegmentedEncoder: Input #0, matroska,webm, from '/somefile.720p.mkv':
2011-03-08 15:22:54 SegmentedEncoder: Duration: 00:28:30.12, start: 0.000000, bitrate: 384 kb/s
2011-03-08 15:22:54 SegmentedEncoder: Stream #0.0(eng): Video: h264, yuv420p, 1280x720, PAR 1:1 DAR 16:9, 23.98 fps, 24 tbr, 1k tbn, 47.95 tbc
2011-03-08 15:22:54 SegmentedEncoder: Stream #0.1: Audio: ac3, 48000 Hz, 5.1, s16, 384 kb/s
2011-03-08 15:22:54 SegmentedEncoder: [buffer @ 0x100e064e0] w:1280 h:720 pixfmt:yuv420p
2011-03-08 15:22:54 SegmentedEncoder: [crop @ 0x100e03960] w:1280 h:720 -> w:1280 h:720
2011-03-08 15:22:54 SegmentedEncoder: [scale @ 0x100e03910] w:1280 h:720 fmt:yuv420p -> w:1024 h:576 fmt:yuv420p flags:0xa0000004
2011-03-08 15:22:54 SegmentedEncoder: [libx264 @ 0x101014600] VBV maxrate unspecified, assuming CBR
2011-03-08 15:22:54 SegmentedEncoder: [libx264 @ 0x101014600] using SAR=1/1
2011-03-08 15:22:54 SegmentedEncoder: [libx264 @ 0x101014600] using cpu capabilities: MMX2 SSE2Fast SSSE3 Cache64
2011-03-08 15:22:54 SegmentedEncoder: [libx264 @ 0x101014600] profile Constrained Baseline, level 3.1
2011-03-08 15:22:54 SegmentedEncoder: [mpegts @ 0x101013400] muxrate VBR, pcr every 2 pkts, sdt every 200, pat/pmt every 40 pkts
2011-03-08 15:22:54 SegmentedEncoder: Output #0, mpegts, to 'pipe:':
2011-03-08 15:22:54 SegmentedEncoder: Metadata:
2011-03-08 15:22:54 SegmentedEncoder: encoder : Lavf52.93.0
2011-03-08 15:22:54 SegmentedEncoder: Stream #0.0(eng): Video: libx264, yuv420p, 1024x576 [PAR 1:1 DAR 16:9], q=2-48, 4250 kb/s, 90k tbn, 24 tbc
2011-03-08 15:22:54 SegmentedEncoder: Stream #0.1: Audio: libmp3lame, 48000 Hz, 2 channels, s16, 256 kb/s
2011-03-08 15:22:54 SegmentedEncoder: Stream mapping:
2011-03-08 15:22:54 SegmentedEncoder: Stream #0.0 -> #0.0
2011-03-08 15:22:54 SegmentedEncoder: Stream #0.1 -> #0.1
2011-03-08 15:22:54 SegmentedEncoder: Press [q] to stop encoding
2011-03-08 15:22:54 SegmentedEncoder: Input stream #0.1 frame changed from rate:48000 fmt:s16 ch:6 to rate:48000 fmt:s16 ch:2
2011-03-08 15:22:55 SegmentedEncoder: frame= 29 fps= 0 q=0.0 size= 0kB time=1.58 bitrate= 0.0kbits/s dup=0 drop=14
2011-03-08 15:23:03 SegmentedEncoder: frame= 256 fps= 29 q=19.0 size= 5128kB time=9.21 bitrate=4561.9kbits/s dup=0 drop=14
2011-03-08 15:23:10 SegmentedEncoder: frame= 452 fps= 28 q=20.0 size= 9626kB time=17.38 bitrate=4538.5kbits/s dup=0 drop=14
2011-03-08 15:23:13 LiveConversion: >>
39345A6B6B7772787A6F72747568345A72693B4D727F7E743B487E696D7E69357A6B6B345874756F7E756F6834497E68746E69787E68347D7D766B7E
7C393B3636687E7C767E756F36777E757C6F733B2F3B3636687E7C767E756F36747D7D687E6F3B23232F3B36367874756D7E696872747536727F3B7D
7D232F79222F2D36292B7E2A362F782D2D367A222B2B36222D2B227D787E7D7E222C782D2B7D28297A2379367D2F2F78362F7D2C2E36227F7E28362E
28782C2A23222A29287A223B36366B74696F36756E76797E693B2F2D2D282A3B366F73697E7A7F683B2F3B367D777A7C68293B307D7A686F3B367D77
7A7C683B307774746B3B367C3B282B3B36707E6272756F447672753B2A3B36797D3B2B3B367944686F697A6F7E7C623B2B3B367D777A7C68293B366C
6B697E7F367F786F2363233B3678766B3B3078736974767A3B367F7E79777478707A776B737A3B2B3B367F7E7977747870797E6F7A3B2B3B36697E7D
683B2A3B3678747F7E693B2B3B36767E44697A757C7E3B2A2D3B36686E796A3B2E3B366B7A696F726F727475683B306B7A696F722F632F306B7A696F
72236323306B7A696F6B2363233B366F697E777772683B2B3B366878446F73697E687374777F3B2F2B3B3672446A7D7A786F74693B2B352C2A3B366A
7874766B3B2B352D3B36767A6B3B2B352B212B352B3B36767A6B3B2B352A212B352A3B3668683B23232F352B3B36723B39344D74776E767E6834487E
69727E6834587A77727D74697572787A6F72747534487E7A6874753B2F34587A77727D74697572787A6F72747535482B2F5E2B2C352C292B6B35535F
4F4D3543292D2F365F52565E55485254553576706D393B366D7D3B397869746B262A29232B212C292B212B212B373B68787A777E262A2B292F212E2C
2D393B367A686B7E786F3B2A29232B212C292B3B36623B367A686275783B2A3B367D3B766B7E7C6F683B366D78747F7E783B77727963292D2F3B3679
6E7D6872617E3B2A2B292F703B36793B2F292E2B703B36796F3B2F2E2B2B703B366A767A633B2F233B366A7672753B293B36693B292F352B3B367A78
747F7E783B777279766B28777A767E3B367A793B292E2D703B367A693B2F232B2B2B3B367A783B293B36
<<

2011-03-08 15:23:13 SegmentedEncoder: FFmpeg version UNKNOWN, Copyright (c) 2000-2011 the FFmpeg developers
2011-03-08 15:23:13 SegmentedEncoder: built on Mar 6 2011 19:02:40 with gcc 4.2.1 (Apple Inc. build 5666) (dot 3)
2011-03-08 15:23:13 SegmentedEncoder: configuration: --enable-pthreads --disable-shared --enable-static --enable-gpl --enable-libx264 --enable-libmp3lame
2011-03-08 15:23:13 SegmentedEncoder: libavutil 50.36. 0 / 50.36. 0
2011-03-08 15:23:13 SegmentedEncoder: libavcore 0.16. 1 / 0.16. 1
2011-03-08 15:23:13 SegmentedEncoder: libavcodec 52.108. 0 / 52.108. 0
2011-03-08 15:23:13 SegmentedEncoder: libavformat 52.93. 0 / 52.93. 0
2011-03-08 15:23:13 SegmentedEncoder: libavdevice 52. 2. 3 / 52. 2. 3
2011-03-08 15:23:13 SegmentedEncoder: libavfilter 1.74. 0 / 1.74. 0
2011-03-08 15:23:13 SegmentedEncoder: libswscale 0.12. 0 / 0.12. 0
2011-03-08 15:23:13 SegmentedEncoder: av_interleaved_write_frame(): Operation not permitted
2011-03-08 15:23:13 SegmentedEncoder: Bad file descriptor
2011-03-08 15:23:13 SegmentedEncoder: [matroska,webm @ 0x10100b000] Estimating duration from bitrate, this may be inaccurate
2011-03-08 15:23:13 SegmentedEncoder:
2011-03-08 15:23:13 SegmentedEncoder: Seems stream 0 codec frame rate differs from container frame rate: 47.95 (48000/1001) -> 24.00 (24/1)
2011-03-08 15:23:13 SegmentedEncoder: Input #0, matroska,webm, from '/somefile.720p.mkv':
2011-03-08 15:23:13 SegmentedEncoder: Duration: 00:28:30.12, start: 0.000000, bitrate: 384 kb/s
2011-03-08 15:23:13 SegmentedEncoder: Stream #0.0(eng): Video: h264, yuv420p, 1280x720, PAR 1:1 DAR 16:9, 23.98 fps, 24 tbr, 1k tbn, 47.95 tbc
2011-03-08 15:23:13 SegmentedEncoder: Stream #0.1: Audio: ac3, 48000 Hz, 5.1, s16, 384 kb/s
2011-03-08 15:23:13 SegmentedEncoder: [buffer @ 0x100e064e0] w:1280 h:720 pixfmt:yuv420p
2011-03-08 15:23:13 SegmentedEncoder: [crop @ 0x100e03960] w:1280 h:720 -> w:1280 h:720
2011-03-08 15:23:13 SegmentedEncoder: [scale @ 0x100e03910] w:1280 h:720 fmt:yuv420p -> w:1024 h:576 fmt:yuv420p flags:0xa0000004
2011-03-08 15:23:13 SegmentedEncoder: [libx264 @ 0x101014600] VBV maxrate unspecified, assuming CBR
2011-03-08 15:23:13 SegmentedEncoder: [libx264 @ 0x101014600] using SAR=1/1
2011-03-08 15:23:13 SegmentedEncoder: [libx264 @ 0x101014600] using cpu capabilities: MMX2 SSE2Fast SSSE3 Cache64
2011-03-08 15:23:14 SegmentedEncoder: [libx264 @ 0x101014600] profile Constrained Baseline, level 3.1
2011-03-08 15:23:14 LiveConversion: >>
39345A6B6B7772787A6F72747568345A72693B4D727F7E743B487E696D7E69357A6B6B345874756F7E756F6834497E68746E69787E68347D7D766B7E
7C393B3636687E7C767E756F36777E757C6F733B2F3B3636687E7C767E756F36747D7D687E6F3B2A2B292B3B36367874756D7E696872747536727F3B
7D7D232F79222F2D36292B7E2A362F782D2D367A222B2B36222D2B227D787E7D7E222C782C2C2F292F2F7D2B367A2C2223362F2C287936797A792336
792B2922782E7F297D7E797D3B36366B74696F36756E76797E693B2F2D2D282A3B366F73697E7A7F683B2F3B367D777A7C68293B307D7A686F3B367D
777A7C683B307774746B3B367C3B282B3B36707E6272756F447672753B2A3B36797D3B2B3B367944686F697A6F7E7C623B2B3B367D777A7C68293B36
6C6B697E7F367F786F2363233B3678766B3B3078736974767A3B367F7E79777478707A776B737A3B2B3B367F7E7977747870797E6F7A3B2B3B36697E
7D683B2A3B3678747F7E693B2B3B36767E44697A757C7E3B2A2D3B36686E796A3B2E3B366B7A696F726F727475683B306B7A696F722F632F306B7A69
6F72236323306B7A696F6B2363233B366F697E777772683B2B3B366878446F73697E687374777F3B2F2B3B3672446A7D7A786F74693B2B352C2A3B36
6A7874766B3B2B352D3B36767A6B3B2B352B212B352B3B36767A6B3B2B352A212B352A3B3668683B2A2B292B352B3B36723B39344D74776E767E6834
487E69727E6834587A77727D74697572787A6F72747534487E7A6874753B2F34587A77727D74697572787A6F72747535482B2F5E2B2C352C292B6B35
535F4F4D3543292D2F365F52565E55485254553576706D393B366D7D3B397869746B262A29232B212C292B212B212B373B68787A777E262A2B292F21
2E2C2D393B367A686B7E786F3B2A29232B212C292B3B36623B367A686275783B2A3B367D3B766B7E7C6F683B366D78747F7E783B77727963292D2F3B
36796E7D6872617E3B2A2B292F703B36793B2F292E2B703B36796F3B2F2E2B2B703B366A767A633B2F233B366A7672753B293B36693B292F352B3B36
7A78747F7E783B777279766B28777A767E3B367A793B292E2D703B367A693B2F232B2B2B3B367A783B293B36
<<

2011-03-08 15:23:14 SegmentedEncoder: [mpegts @ 0x101013400] muxrate VBR, pcr every 2 pkts, sdt every 200, pat/pmt every 40 pkts
2011-03-08 15:23:14 SegmentedEncoder: Output #0, mpegts, to 'pipe:':
2011-03-08 15:23:14 SegmentedEncoder: Metadata:
2011-03-08 15:23:14 SegmentedEncoder: encoder : Lavf52.93.0
2011-03-08 15:23:14 SegmentedEncoder: Stream #0.0(eng): Video: libx264, yuv420p, 1024x576 [PAR 1:1 DAR 16:9], q=2-48, 4250 kb/s, 90k tbn, 24 tbc
2011-03-08 15:23:14 SegmentedEncoder: Stream #0.1: Audio: libmp3lame, 48000 Hz, 2 channels, s16, 256 kb/s
2011-03-08 15:23:14 SegmentedEncoder: Stream mapping:
2011-03-08 15:23:14 SegmentedEncoder: Stream #0.0 -> #0.0
2011-03-08 15:23:14 SegmentedEncoder: Stream #0.1 -> #0.1
2011-03-08 15:23:14 SegmentedEncoder: Press [q] to stop encoding
2011-03-08 15:23:14 SegmentedEncoder: Input stream #0.1 frame changed from rate:48000 fmt:s16 ch:6 to rate:48000 fmt:s16 ch:2
2011-03-08 15:23:14 SegmentedEncoder: FFmpeg version UNKNOWN, Copyright (c) 2000-2011 the FFmpeg developers
2011-03-08 15:23:14 SegmentedEncoder: built on Mar 6 2011 19:02:40 with gcc 4.2.1 (Apple Inc. build 5666) (dot 3)
2011-03-08 15:23:14 SegmentedEncoder: configuration: --enable-pthreads --disable-shared --enable-static --enable-gpl --enable-libx264 --enable-libmp3lame
2011-03-08 15:23:14 SegmentedEncoder: libavutil 50.36. 0 / 50.36. 0
2011-03-08 15:23:14 SegmentedEncoder: libavcore 0.16. 1 / 0.16. 1
2011-03-08 15:23:14 SegmentedEncoder: libavcodec 52.108. 0 / 52.108. 0
2011-03-08 15:23:14 SegmentedEncoder: libavformat 52.93. 0 / 52.93. 0
2011-03-08 15:23:14 SegmentedEncoder: libavdevice 52. 2. 3 / 52. 2. 3
2011-03-08 15:23:14 SegmentedEncoder: libavfilter 1.74. 0 / 1.74. 0
2011-03-08 15:23:14 SegmentedEncoder: libswscale 0.12. 0 / 0.12. 0
2011-03-08 15:23:14 SegmentedEncoder: frame= 0 fps= 0 q=-1.0 Lsize= 1kB time=0.02 bitrate= 501.3kbits/s dup=0 drop=9
2011-03-08 15:23:14 SegmentedEncoder: Bad file descriptor
2011-03-08 15:23:14 SegmentedEncoder: [matroska,webm @ 0x10100b000] Estimating duration from bitrate, this may be inaccurate
2011-03-08 15:23:14 SegmentedEncoder:
2011-03-08 15:23:14 SegmentedEncoder: Seems stream 0 codec frame rate differs from container frame rate: 47.95 (48000/1001) -> 24.00 (24/1)
2011-03-08 15:23:14 SegmentedEncoder: Input #0, matroska,webm, from '/somefile.720p.mkv':
2011-03-08 15:23:14 SegmentedEncoder: Duration: 00:28:30.12, start: 0.000000, bitrate: 384 kb/s
2011-03-08 15:23:14 SegmentedEncoder: Stream #0.0(eng): Video: h264, yuv420p, 1280x720, PAR 1:1 DAR 16:9, 23.98 fps, 24 tbr, 1k tbn, 47.95 tbc
2011-03-08 15:23:14 SegmentedEncoder: Stream #0.1: Audio: ac3, 48000 Hz, 5.1, s16, 384 kb/s
2011-03-08 15:23:14 SegmentedEncoder: [buffer @ 0x100e064e0] w:1280 h:720 pixfmt:yuv420p
2011-03-08 15:23:14 SegmentedEncoder: [crop @ 0x100e03960] w:1280 h:720 -> w:1280 h:720
2011-03-08 15:23:14 SegmentedEncoder: [scale @ 0x100e03910] w:1280 h:720 fmt:yuv420p -> w:1024 h:576 fmt:yuv420p flags:0xa0000004
2011-03-08 15:23:14 SegmentedEncoder: [libx264 @ 0x101014600] VBV maxrate unspecified, assuming CBR
2011-03-08 15:23:14 SegmentedEncoder: [libx264 @ 0x101014600] using SAR=1/1
2011-03-08 15:23:14 SegmentedEncoder: [libx264 @ 0x101014600] using cpu capabilities: MMX2 SSE2Fast SSSE3 Cache64
2011-03-08 15:23:14 SegmentedEncoder: [libx264 @ 0x101014600] profile Constrained Baseline, level 3.1
2011-03-08 15:23:14 SegmentedEncoder: [mpegts @ 0x101013400] muxrate VBR, pcr every 2 pkts, sdt every 200, pat/pmt every 40 pkts
2011-03-08 15:23:14 SegmentedEncoder: Output #0, mpegts, to 'pipe:':
2011-03-08 15:23:14 SegmentedEncoder: Metadata:
2011-03-08 15:23:14 SegmentedEncoder: encoder : Lavf52.93.0
2011-03-08 15:23:14 SegmentedEncoder: Stream #0.0(eng): Video: libx264, yuv420p, 1024x576 [PAR 1:1 DAR 16:9], q=2-48, 4250 kb/s, 90k tbn, 24 tbc
2011-03-08 15:23:14 SegmentedEncoder: Stream #0.1: Audio: libmp3lame, 48000 Hz, 2 channels, s16, 256 kb/s
2011-03-08 15:23:14 SegmentedEncoder: Stream mapping:
2011-03-08 15:23:14 SegmentedEncoder: Stream #0.0 -> #0.0
2011-03-08 15:23:14 SegmentedEncoder: Stream #0.1 -> #0.1
2011-03-08 15:23:14 SegmentedEncoder: Press [q] to stop encoding
2011-03-08 15:23:14 SegmentedEncoder: Input stream #0.1 frame changed from rate:48000 fmt:s16 ch:6 to rate:48000 fmt:s16 ch:2
2011-03-08 15:23:14 SegmentedEncoder: frame= 0 fps= 0 q=0.0 size= 0kB time=10000000000.00 bitrate= 0.0kbits/s dup=0 drop=46
2011-03-08 15:23:22 SegmentedEncoder: frame= 190 fps= 24 q=22.0 size= 3546kB time=6.46 bitrate=4497.9kbits/s dup=0 drop=195
2011-03-08 15:23:29 SegmentedEncoder: frame= 382 fps= 25 q=20.0 size= 7969kB time=14.46 bitrate=4515.2kbits/s dup=0 drop=195
2011-03-08 15:23:37 SegmentedEncoder: frame= 590 fps= 26 q=19.0 size= 12854kB time=23.12 bitrate=4553.4kbits/s dup=0 drop=195
2011-03-08 15:23:44 SegmentedEncoder: frame= 784 fps= 26 q=21.0 size= 17309kB time=31.21 bitrate=4543.5kbits/s dup=0 drop=195
2011-03-08 15:23:51 SegmentedEncoder: frame= 987 fps= 26 q=24.0 size= 22027kB time=39.67 bitrate=4549.1kbits/s dup=0 drop=195
2011-03-08 15:23:58 SegmentedEncoder: frame= 1172 fps= 26 q=22.0 size= 26364kB time=47.38 bitrate=4558.8kbits/s dup=0 drop=195
2011-03-08 15:24:06 SegmentedEncoder: frame= 1364 fps= 26 q=21.0 size= 30848kB time=55.38 bitrate=4563.6kbits/s dup=0 drop=195
2011-03-08 15:24:12 SegmentedEncoder: frame= 1557 fps= 27 q=21.0 size= 35403kB time=63.42 bitrate=4573.3kbits/s dup=0 drop=195
2011-03-08 15:24:18 SegmentedEncoder: frame= 1770 fps= 27 q=21.0 size= 40268kB time=72.29 bitrate=4563.1kbits/s dup=0 drop=195
2011-03-08 15:24:26 SegmentedEncoder: frame= 1966 fps= 27 q=24.0 size= 44863kB time=80.46 bitrate=4567.9kbits/s dup=0 drop=195
2011-03-08 15:24:33 SegmentedEncoder: frame= 2179 fps= 27 q=20.0 size= 49873kB time=89.33 bitrate=4573.5kbits/s dup=1 drop=195
2011-03-08 15:24:40 SegmentedEncoder: frame= 2390 fps= 28 q=22.0 size= 54762kB time=98.12 bitrate=4571.8kbits/s dup=1 drop=195
2011-03-08 15:24:46 SegmentedEncoder: frame= 2586 fps= 28 q=22.0 size= 59389kB time=106.29 bitrate=4577.2kbits/s dup=1 drop=195
2011-03-08 15:24:53 SegmentedEncoder: frame= 2777 fps= 28 q=24.0 size= 63856kB time=114.25 bitrate=4578.6kbits/s dup=1 drop=195
2011-03-08 15:25:00 SegmentedEncoder: frame= 3014 fps= 28 q=23.0 size= 69299kB time=124.12 bitrate=4573.6kbits/s dup=1 drop=195
2011-03-08 15:25:06 SegmentedEncoder: frame= 3238 fps= 29 q=22.0 size= 74585kB time=133.46 bitrate=4578.2kbits/s dup=2 drop=195
2011-03-08 15:25:14 SegmentedEncoder: frame= 3477 fps= 29 q=21.0 size= 80202kB time=143.42 bitrate=4581.1kbits/s dup=2 drop=195
2011-03-08 15:25:50 SegmentedEncoder: av_interleaved_write_frame(): Operation not permitted
2011-03-08 15:25:50 SegmentedEncoder: Bad file descriptor

This message was edited 1 time. Last update was at 03/08/2011 17:16:04

Admin



Joined: 08/23/2009 08:49:34
Messages: 8705
Offline

Do they have subtitles? If you can share any of the files (i.e. using dropbox.com) please send me email to support (at) inmethod.com
Edit: That was for fbettag before I saw the log.
Oliver I'm not sure what the problem is in your case, it looks like if you weren't running the beta (which you are, right?)

This message was edited 1 time. Last update was at 03/08/2011 17:18:30

Admin



Joined: 08/23/2009 08:49:34
Messages: 8705
Offline

fbettag, have you tried to lower the bitrate?
fbettag



Joined: 03/08/2011 15:42:01
Messages: 5
Offline

Admin wrote:fbettag, have you tried to lower the bitrate?


I'll try that, forgot all about that. Can't be my WiFi. Got 5GHz (only one using 5ghz in my hood) and 70% reception on the atv. i'll keep an eye on the mac pro's activity monitor next time.

will keep you posted.
asmod4n



Joined: 03/08/2011 17:18:19
Messages: 1
Offline

Works fine with the stable release.


2011-03-08 17:40:29 LiveConversion: >>
39345A6B6B7772787A6F72747568345A72693B4D727F7E743B487E696D7E69357A6B6B345874756F7E756F6834497E68746E69787E68347D7D766B7E
7C393B3636687E7C767E756F36777E757C6F733B2F3B3636687E7C767E756F36747D7D687E6F3B2B3B36367874756D7E696872747536727F3B232F29
2D7A2E2E7D362F2E7878362F7D287D367A2D2C7A367929782B78222C2F782B2C23787E2922782D2D22362B232A22362F2D7D2C367A2D2D7D36232D29
2F222D2C7E79297A793B36366B74696F36756E76797E693B2F2D2D282A3B366F73697E7A7F683B2F3B367D777A7C68293B307D7A686F3B367D777A7C
683B307774746B3B367C3B282B3B36707E6272756F447672753B2A3B36797D3B2B3B367944686F697A6F7E7C623B2B3B367D777A7C68293B366C6B69
7E7F367F786F2363233B3678766B3B3078736974767A3B367F7E79777478707A776B737A3B2B3B367F7E7977747870797E6F7A3B2B3B36697E7D683B
2A3B3678747F7E693B2B3B36767E44697A757C7E3B2A2D3B36686E796A3B2E3B366B7A696F726F727475683B306B7A696F722F632F306B7A696F7223
6323306B7A696F6B2363233B366F697E777772683B2B3B366878446F73697E687374777F3B2F2B3B3672446A7D7A786F74693B2B352C2A3B366A7874
766B3B2B352D3B36767A6B3B2B352B212B352B3B36767A6B3B2B352A212B352A3B3668683B2B352B3B36723B39344D74776E767E6834737E757F6972
703468737A697E3456746D727E6834496E69746E75723B507E756873727534405A534A463B496E69746E75723B507E75687372753B363B29293B363B
5F7A757C7E693B54753B5A3B496E757A6C7A623B5774787476746F726D7E35747C76393B366D7D3B397869746B262E2A292128232F212B212B373B68
787A777E262F232B21282D2B393B367A686B7E786F3B2E2A292128232F3B36623B367D3B766B7E7C6F683B366D78747F7E783B77727963292D2F3B36
796E7D6872617E3B2A2B292F703B36793B2A292B2B703B36796F3B2A282B2B703B366A767A633B2F233B366A7672753B293B36693B292835222C2D3B
367A78747F7E783B777279766B28777A767E3B367A793B2A2229703B367A693B2F232B2B2B3B367A783B293B36
<<

2011-03-08 17:40:29 SegmentedEncoder: FFmpeg version UNKNOWN, Copyright (c) 2000-2011 the FFmpeg developers
2011-03-08 17:40:29 SegmentedEncoder: built on Mar 6 2011 19:02:40 with gcc 4.2.1 (Apple Inc. build 5666) (dot 3)
2011-03-08 17:40:29 SegmentedEncoder: configuration: --enable-pthreads --disable-shared --enable-static --enable-gpl --enable-libx264 --enable-libmp3lame
2011-03-08 17:40:29 SegmentedEncoder: libavutil 50.36. 0 / 50.36. 0
2011-03-08 17:40:29 SegmentedEncoder: libavcore 0.16. 1 / 0.16. 1
2011-03-08 17:40:29 SegmentedEncoder: libavcodec 52.108. 0 / 52.108. 0
2011-03-08 17:40:29 SegmentedEncoder: libavformat 52.93. 0 / 52.93. 0
2011-03-08 17:40:29 SegmentedEncoder: libavdevice 52. 2. 3 / 52. 2. 3
2011-03-08 17:40:29 SegmentedEncoder: libavfilter 1.74. 0 / 1.74. 0
2011-03-08 17:40:29 SegmentedEncoder: libswscale 0.12. 0 / 0.12. 0
2011-03-08 17:40:29 SegmentedEncoder: [vorbis @ 0x10103fc00] Extradata missing.
2011-03-08 17:40:29 SegmentedEncoder: [vorbis @ 0x101052000] Extradata missing.
2011-03-08 17:40:29 SegmentedEncoder: [vorbis @ 0x10103fc00] Extradata missing.
2011-03-08 17:40:29 SegmentedEncoder: [vorbis @ 0x101052000] Extradata missing.
2011-03-08 17:40:29 SegmentedEncoder: [vorbis @ 0x10103fc00] Extradata missing.
2011-03-08 17:40:29 SegmentedEncoder: [vorbis @ 0x101052000] Extradata missing.
2011-03-08 17:40:29 SegmentedEncoder: [vorbis @ 0x10103fc00] Extradata missing.
2011-03-08 17:40:29 SegmentedEncoder: [vorbis @ 0x101052000] Extradata missing.
2011-03-08 17:40:29 SegmentedEncoder: [vorbis @ 0x10103fc00] Extradata missing.
2011-03-08 17:40:29 SegmentedEncoder: [vorbis @ 0x101052000] Extradata missing.
2011-03-08 17:40:29 SegmentedEncoder: [vorbis @ 0x10103fc00] Extradata missing.
2011-03-08 17:40:29 SegmentedEncoder: [vorbis @ 0x101052000] Extradata missing.
2011-03-08 17:40:29 SegmentedEncoder: [vorbis @ 0x10103fc00] Extradata missing.
2011-03-08 17:40:29 SegmentedEncoder: [vorbis @ 0x101052000] Extradata missing.
2011-03-08 17:40:29 SegmentedEncoder: [vorbis @ 0x10103fc00] Extradata missing.
2011-03-08 17:40:29 SegmentedEncoder: [vorbis @ 0x101052000] Extradata missing.
2011-03-08 17:40:29 SegmentedEncoder: [vorbis @ 0x10103fc00] Extradata missing.
2011-03-08 17:40:29 SegmentedEncoder: [vorbis @ 0x101052000] Extradata missing.
2011-03-08 17:40:29 SegmentedEncoder: [vorbis @ 0x10103fc00] Extradata missing.
2011-03-08 17:40:29 SegmentedEncoder: [vorbis @ 0x101052000] Extradata missing.
2011-03-08 17:40:29 SegmentedEncoder: [vorbis @ 0x10103fc00] Extradata missing.
2011-03-08 17:40:29 SegmentedEncoder: [vorbis @ 0x101052000] Extradata missing.
2011-03-08 17:40:29 SegmentedEncoder: [vorbis @ 0x10103fc00] Extradata missing.
2011-03-08 17:40:29 SegmentedEncoder: [vorbis @ 0x101052000] Extradata missing.
2011-03-08 17:40:29 SegmentedEncoder: [vorbis @ 0x10103fc00] Extradata missing.
2011-03-08 17:40:29 SegmentedEncoder: [vorbis @ 0x101052000] Extradata missing.
2011-03-08 17:40:29 SegmentedEncoder: [vorbis @ 0x10103fc00] Extradata missing.
2011-03-08 17:40:29 SegmentedEncoder: [vorbis @ 0x101052000] Extradata missing.
2011-03-08 17:40:29 SegmentedEncoder: [vorbis @ 0x10103fc00] Extradata missing.
2011-03-08 17:40:29 SegmentedEncoder: [vorbis @ 0x101052000] Extradata missing.
2011-03-08 17:40:29 SegmentedEncoder: [vorbis @ 0x10103fc00] Extradata missing.
2011-03-08 17:40:29 SegmentedEncoder: [vorbis @ 0x101052000] Extradata missing.
2011-03-08 17:40:29 SegmentedEncoder: [ogg @ 0x10100b000] max_analyze_duration reached
2011-03-08 17:40:29 SegmentedEncoder: Input #0, ogg, from '/Volumes/hendrik/share/Movies/Rurouni Kenshin/Rurouni Kenshin - 22 - Danger On A Runaway Locomotive.ogm':
2011-03-08 17:40:29 SegmentedEncoder: Duration: 00:20:01.52, start: 0.000000, bitrate: 1501 kb/s
2011-03-08 17:40:29 SegmentedEncoder: Chapter #0.0: start 0.000000, end 1201.525000
2011-03-08 17:40:29 SegmentedEncoder: Metadata:
2011-03-08 17:40:29 SegmentedEncoder: title : Episode Start
2011-03-08 17:40:29 SegmentedEncoder: Stream #0.0: Video: mpeg4, yuv420p, 512x384, 23.98 fps, 23.98 tbr, 23.98 tbn, 23.98 tbc
2011-03-08 17:40:29 SegmentedEncoder: Metadata:
2011-03-08 17:40:29 SegmentedEncoder: TITLE : Rurouni Kenshin - 022 - Danger on a Runaway Locomotive
2011-03-08 17:40:29 SegmentedEncoder: Stream #0.1(English): Audio: vorbis, 48000 Hz, 2 channels, 0 kb/s
2011-03-08 17:40:29 SegmentedEncoder: Stream #0.2(Japanese): Audio: vorbis, 48000 Hz, 2 channels, 0 kb/s
2011-03-08 17:40:29 SegmentedEncoder: [buffer @ 0x100e305e0] w:512 h:384 pixfmt:yuv420p
2011-03-08 17:40:29 SegmentedEncoder: [crop @ 0x100e309d0] w:512 h:384 -> w:512 h:384
2011-03-08 17:40:29 SegmentedEncoder: [scale @ 0x100e30bc0] w:512 h:384 fmt:yuv420p -> w:480 h:360 fmt:yuv420p flags:0xa0000004
2011-03-08 17:40:29 SegmentedEncoder: [libx264 @ 0x10103f600] VBV maxrate unspecified, assuming CBR
2011-03-08 17:40:29 SegmentedEncoder: [libx264 @ 0x10103f600] using SAR=1/1
2011-03-08 17:40:29 SegmentedEncoder: [libx264 @ 0x10103f600] using cpu capabilities: MMX2 SSE2Fast SSSE3 Cache64
2011-03-08 17:40:29 SegmentedEncoder: [libx264 @ 0x10103f600] profile Constrained Baseline, level 2.1
2011-03-08 17:40:29 SegmentedEncoder: [vorbis @ 0x10103fc00] Extradata missing.
2011-03-08 17:40:29 SegmentedEncoder: Output #0, mpegts, to 'pipe:':
2011-03-08 17:40:29 SegmentedEncoder: Stream #0.0: Video: libx264, yuv420p, 480x360 [PAR 1:1 DAR 4:3], q=2-48, 1200 kb/s, 90k tbn, 23.98 tbc
2011-03-08 17:40:29 SegmentedEncoder: Metadata:
2011-03-08 17:40:29 SegmentedEncoder: TITLE : Rurouni Kenshin -=- 022 - Danger on a Runaway Locomotive
2011-03-08 17:40:29 SegmentedEncoder: Stream #0.1(English): Audio: libmp3lame, 48000 Hz, 2 channels, s16, 192 kb/s
2011-03-08 17:40:29 SegmentedEncoder: Stream mapping:
2011-03-08 17:40:29 SegmentedEncoder: Stream #0.0 -> #0.0
2011-03-08 17:40:29 SegmentedEncoder: Stream #0.1 -> #0.1
2011-03-08 17:40:29 SegmentedEncoder: Error while opening decoder for input stream #0.1

This message was edited 1 time. Last update was at 03/08/2011 17:26:41

oliver



Joined: 09/29/2010 05:59:30
Messages: 6
Offline

Admin wrote:
Oliver I'm not sure what the problem is in your case, it looks like if you weren't running the beta (which you are, right?)


I'm running 4.3 (2021.2) on my ATV and 4.3 (8F190) on my phone.

This message was edited 1 time. Last update was at 03/08/2011 17:52:38

Admin



Joined: 08/23/2009 08:49:34
Messages: 8705
Offline

I mean the server version.
oliver



Joined: 09/29/2010 05:59:30
Messages: 6
Offline

Admin wrote:I mean the server version.

2.4.5-beta5. I first tried with beta4, then noticed beta5 was out and upgraded right away.
kaisblog_de



Joined: 03/08/2011 20:00:33
Messages: 1
Offline

Tried it with ATV2 and it works nice. However, my Air Video Linux server doesn't work with the newest client. Do you already know when it will catch up to official server release? Thanks a lot!
 
Forum Index » Air Video Announcements
Go to:   
Powered by JForum 2.1.8 © JForum Team