[Logo] Air Video Forum
  [Search] Search   [Recent Topics] Recent Topics   [Hottest Topics] Hottest Topics   [Members]  Member Listing   [Groups] Back to home page 
[Moderation Log] Moderation Log   [Register] Register / 
[Login] Login 
Air Video Server 2.4.6-beta1 released  XML
Forum Index » Air Video Announcements
Author Message
Admin



Joined: 08/23/2009 08:49:34
Messages: 8705
Offline

Live conversion does not use MP4. MP4 can only be used when you transcode entire file upfront.
drosoph



Joined: 03/31/2011 20:18:35
Messages: 5
Offline

Waiting with baited breath for the new AirVid Client app update ... DYING to experience H.264 passthrough (and others).
Toz


[Avatar]
Joined: 07/12/2012 15:00:24
Messages: 3
Offline

Before my first post, I just wanted to say: Even as it is, Air Video is the best 3 dollars I spent after getting my new iPad. Thanks.

So back to my post, I installed the new beta server and tried out some anime mkv files and I am having trouble with the subtitles. Every time there is drastic movement on screen like someone getting falcon punched in the face, the subtitles and the area around it goes haywire with loads of pixellated artifacts which follow the on screen movement. Reverting back to the previous server fixes this problem.

I also hope styled subtitles are possible in the future(I understand this will increase CPU requirements).
tjsama


[Avatar]

Joined: 09/08/2011 08:46:16
Messages: 3
Offline

IllusionKH wrote:Hi,

Since the new version the audio crackles when playing video.

Any idea?

- reinstalled the server software
- reinstalled the client on the iPad (3)
- rebooted the iPad

... to no effect.

For the moment, I reverted back to the older version (2.4.5 b6)...

Thanks in advance!


I too am having this problem. unlike yours, it occurs for every mkv file that I play.
nafrance



Joined: 01/25/2012 12:14:40
Messages: 4
Offline

Will the *nix Java server be updated also?

We missed out on Beta7, and it'd be nice to keep updated for those of us running linux servers!
ciguli



Joined: 07/09/2011 00:52:08
Messages: 14
Offline

Toz wrote:Before my first post, I just wanted to say: Even as it is, Air Video is the best 3 dollars I spent after getting my new iPad. Thanks.

So back to my post, I installed the new beta server and tried out some anime mkv files and I am having trouble with the subtitles. Every time there is drastic movement on screen like someone getting falcon punched in the face, the subtitles and the area around it goes haywire with loads of pixellated artifacts which follow the on screen movement. Reverting back to the previous server fixes this problem.

I also hope styled subtitles are possible in the future(I understand this will increase CPU requirements).


I've got the same problem with the new version. The subtitles become all pixellated when there is movement.

In addition to that, the audio crackles, too
Admin



Joined: 08/23/2009 08:49:34
Messages: 8705
Offline

Can you take screenshot of the pixelation? As for the audio, it is really weird, I was not able to reproduce it so far.
bixxman



Joined: 07/13/2012 18:18:53
Messages: 1
Offline

Is there a limit on the number of files you can have a directory?? I'm getting a Request Timeout error message when I navigate into the directory where my video files are stored. This only seems to happen with the directory with the largest amount of files - other directories open and display thumbnails, etc fine.

Thanks!
Admin



Joined: 08/23/2009 08:49:34
Messages: 8705
Offline

bixxman wrote:Is there a limit on the number of files you can have a directory?? I'm getting a Request Timeout error message when I navigate into the directory where my video files are stored. This only seems to happen with the directory with the largest amount of files - other directories open and display thumbnails, etc fine.

Thanks!

IT really depends if it is on a network share or local drive. Network shares tend to have really high latency which can cause request timeout.
Admin



Joined: 08/23/2009 08:49:34
Messages: 8705
Offline

So, I was able to reproduce and fix the subtitles artifacts, but I still can't reproduce the audio problem.
Toz


[Avatar]
Joined: 07/12/2012 15:00:24
Messages: 3
Offline

Admin wrote:So, I was able to reproduce and fix the subtitles artifacts, but I still can't reproduce the audio problem.

I was afraid it was a silly problem with my computer. Nice to know that its fixed.
TychoQuad



Joined: 07/14/2012 04:03:48
Messages: 2
Offline

This version was a huge improvement for me over the current stable release, thanks!
zubs



Joined: 10/26/2011 02:14:08
Messages: 23
Offline

Hi guys
running this new beta. So far i have noticed that audio/video gets out of sync within the first few minutes of playing. Stopping and playing again seems to fix it for the rest of the file.

Happens on every file i play (avi/mp4) so far on the new version (3 files so far).

Happy to test a new beta once this is resolved.
mrow



Joined: 06/22/2012 06:52:53
Messages: 7
Offline

Any idea when a new Linux server version will be released to bring it up to par with this version?




This message was edited 1 time. Last update was at 07/16/2012 07:50:52

ytcan



Joined: 04/03/2012 22:42:56
Messages: 1
Offline

IllusionKH wrote:Hi,

Since the new version the audio crackles when playing video.

Any idea?

- reinstalled the server software
- reinstalled the client on the iPad (3)
- rebooted the iPad

... to no effect.

For the moment, I reverted back to the older version (2.4.5 b6)...

Thanks in advance!



same problem here, here is the log

2012-07-17 09:32:46 SegmentedEncoder: frame= 1119 fps=106 q=21.0 size= 7851kB time=44.92 bitrate=1431.7kbits/s
2012-07-17 09:33:10 LiveConversion: >>
39345A6B6B7772787A6F72747568345A72693B4D727F7E743B487E696D7E69357A6B6B345874756F7E756F6834497E68746E69787E68347A6D787475
6D393B3636687E7C767E756F36777E757C6F733B2F3B3636687E7C767E756F36747D7D687E6F3B282E2D3B36367874756D7E696872747536727F3B22
7D2B7F2E7D7829367A2D2F7E362F7E282A36222B2D7D362A2A292A28282C227D2928287E78792B7F2F2C7E367F232F7E362F29297F36232E7F2E3628
287F7D2F2A28292C7E29283B36366B74696F36756E76797E693B2F2D2D282A3B366F73697E7A7F683B2F3B3668683B282E2D352B3B36723B344D7477
6E767E6834567A61726F345F726172345D69727E757F68345D69727E757F6835482B2E354E55584E4F355F4D5F49726B35436D725F36485A72554F48
345D69727E757F6835482B2E5E2B2A354E55584E4F355F4D5F49726B35436D725F36485A72554F48345D69727E757F6835482B2E5E2B2A354E55584E
4F355F4D5F49726B35436D725F36485A72554F48357A6D723B36767A6B3B2B212B372B212B3B36767A6B3B2B212A372B212A3B366D7D3B397869746B
262E2A292128232F212B212B373B68787A777E262E2A292128232F393B367A686B7E786F3B2E2A292128232F3B36623B367A686275783B2A3B367D3B
766B7E7C6F683B366D78747F7E783B77727963292D2F3B366D78747F7E783B77727963292D2F3B367D777A7C68293B307D7A686F3B367D777A7C683B
307774746B3B367C3B282B3B36707E6272756F447672753B2A3B36797D3B2B3B367944686F697A6F7E7C623B2B3B3678766B3B3078736974767A3B36
697E7D683B2A3B3678747F7E693B2B3B36767E44697A757C7E3B2A2D3B36686E796A3B2E3B366B7A696F726F727475683B306B7A696F722F632F306B
7A696F72236323306B7A696F6B2363233B366F697E777772683B2B3B366878446F73697E687374777F3B2F2B3B3672446A7D7A786F74693B2B352C2A
3B366A7874766B3B2B352D3B36796E7D6872617E3B2A2B292F703B36793B2A292B2B703B36796F3B2A282B2B703B366A767A633B2F233B366A767275
3B293B36693B292835222C2D3B367A78747F7E783B7772797D7A7A783B367A793B2A2229703B367A693B2F232B2B2B3B367A783B293B36
<<

2012-07-17 09:33:10 SegmentedEncoder: avconv version v0.8-1996-ge96f1a1, Copyright (c) 2000-2012 the Libav developers
2012-07-17 09:33:10 SegmentedEncoder: built on Jun 16 2012 21:26:50 with llvm_gcc 4.2.1 (Based on Apple Inc. build 565 (LLVM build 2336.9.00)
2012-07-17 09:33:10 SegmentedEncoder: [mpeg4 @ 0x7fd55202bc20] Invalid and inefficient vfw-avi packed B frames detected
2012-07-17 09:33:10 SegmentedEncoder: Guessed Channel Layout for Input Stream #0.1 : stereo
2012-07-17 09:33:10 SegmentedEncoder: Input #0, avi, from '/Volumes/Mazit/Dizi/Friends/Friends.S05.UNCUT.DVDRip.XviD-SAiNTS/Friends.S05E01.UNCUT.DVDRip.XviD-SAiNTS/Friends.S05E01.UNCUT.DVDRip.XviD-SAiNTS.avi':
2012-07-17 09:33:10 SegmentedEncoder: Metadata:
2012-07-17 09:33:10 SegmentedEncoder: encoder : VirtualDubMod 1.5.10.1 (build 2439/release)
2012-07-17 09:33:10 SegmentedEncoder: Duration: 00:22:21.34, start: 0.000000, bitrate: 1093 kb/s
2012-07-17 09:33:10 SegmentedEncoder: Stream #0.0: Video: mpeg4 (Advanced Simple Profile), yuv420p, 512x384 [PAR 1:1 DAR 4:3], 23.98 tbn, 23.98 tbc
2012-07-17 09:33:10 SegmentedEncoder: Stream #0.1: Audio: mp3, 48000 Hz, stereo, s16, 32 kb/s
2012-07-17 09:33:10 SegmentedEncoder: [buffer @ 0x7fd551c16ac0] w:512 h:384 pixfmt:yuv420p
2012-07-17 09:33:10 SegmentedEncoder: [crop @ 0x7fd551c17080] w:512 h:384 -> w:512 h:384
2012-07-17 09:33:10 SegmentedEncoder: [scale @ 0x7fd551c16640] w:512 h:384 fmt:yuv420p -> w:512 h:384 fmt:yuv420p flags:0x4
2012-07-17 09:33:10 SegmentedEncoder: -async has been deprecated. Used the asyncts audio filter instead.
2012-07-17 09:33:10 SegmentedEncoder: [libx264 @ 0x7fd552036620] VBV maxrate unspecified, assuming CBR
2012-07-17 09:33:10 SegmentedEncoder: [libx264 @ 0x7fd552036620] using SAR=1/1
2012-07-17 09:33:10 SegmentedEncoder: [libx264 @ 0x7fd552036620] using cpu capabilities: MMX2 SSE2Fast SSSE3 FastShuffle SSE4.2 AVX
2012-07-17 09:33:10 SegmentedEncoder: [libx264 @ 0x7fd552036620] profile High, level 2.1
2012-07-17 09:33:10 SegmentedEncoder: [mpegts @ 0x7fd552034820] muxrate VBR, pcr every 2 pkts, sdt every 200, pat/pmt every 40 pkts
2012-07-17 09:33:10 SegmentedEncoder: Output #0, mpegts, to 'pipe:':
2012-07-17 09:33:10 SegmentedEncoder: Metadata:
2012-07-17 09:33:10 SegmentedEncoder: encoder : Lavf54.3.1
2012-07-17 09:33:10 SegmentedEncoder: Stream #0.0: Video: libx264, yuv420p, 512x384 [PAR 1:1 DAR 4:3], q=2-48, 1200 kb/s, 90k tbn, 23.98 tbc
2012-07-17 09:33:10 SegmentedEncoder: Stream #0.1: Audio: libfaac, 48000 Hz, stereo, s16, 192 kb/s
2012-07-17 09:33:10 SegmentedEncoder: Stream mapping:
2012-07-17 09:33:10 SegmentedEncoder: Stream #0:0 -> #0:0 (mpeg4 -> libx264)
2012-07-17 09:33:10 SegmentedEncoder: Stream #0:1 -> #0:1 (mp3 -> libfaac)
2012-07-17 09:33:10 SegmentedEncoder: Press ctrl-c to stop encoding
2012-07-17 09:33:10 SegmentedEncoder: [mpeg4 @ 0x7fd55202bc20] Invalid and inefficient vfw-avi packed B frames detected
2012-07-17 09:33:10 SegmentedEncoder: [mpeg4 @ 0x7fd552c56c20] Invalid and inefficient vfw-avi packed B frames detected
2012-07-17 09:33:10 SegmentedEncoder: [libx264 @ 0x7fd552036620] non-strictly-monotonic PTS
2012-07-17 09:33:11 SegmentedEncoder: frame= 143 fps= 0 q=23.0 size= 710kB time=0.50 bitrate=11623.6kbits/s
2012-07-17 09:33:19 SegmentedEncoder: frame= 1120 fps=124 q=24.0 size= 8186kB time=41.25 bitrate=1625.7kbits/s
2012-07-17 09:33:40 SegmentedEncoder: frame= 2070 fps= 69 q=26.0 size= 15417kB time=80.87 bitrate=1561.6kbits/s
2012-07-17 09:33:52 LiveConversion: >>
39345A6B6B7772787A6F72747568345A72693B4D727F7E743B487E696D7E69357A6B6B345874756F7E756F6834497E68746E69787E68347A6D787475
6D393B3636687E7C767E756F36777E757C6F733B2F3B3636687E7C767E756F36747D7D687E6F3B2B3B36367874756D7E696872747536727F3B2C282A
2D227E2B7836787E2223362F297A7E36227E282B362D2C792F2D7829237A282A792E292D2A2D28237D36797E7A2A362F2B7D7D362228222336227E22
782F7D7F7D22287F783B36366B74696F36756E76797E693B2F2D2D282A3B366F73697E7A7F683B2F3B3668683B2B352B3B36723B344D74776E767E68
34567A61726F345F726172345D69727E757F68345D69727E757F6835482B2C354E55584E4F355F4D5F49726B35436D725F36485A72554F48345D6972
7E757F6835482B2C5E2B2C354E55584E4F355F4D5F49726B35436D725F36485A72554F48357A6D723B36767A6B3B2B212B372B212B3B36767A6B3B2B
212A372B212A3B366D7D3B397869746B262E2A292128232F212B212B373B68787A777E262E2A292128232F393B367A686B7E786F3B2E2A292128232F
3B36623B367D3B766B7E7C6F683B366D78747F7E783B77727963292D2F3B366D78747F7E783B77727963292D2F3B367D777A7C68293B307D7A686F3B
367D777A7C683B307774746B3B367C3B282B3B36707E6272756F447672753B2A3B36797D3B2B3B367944686F697A6F7E7C623B2B3B3678766B3B3078
736974767A3B36697E7D683B2A3B3678747F7E693B2B3B36767E44697A757C7E3B2A2D3B36686E796A3B2E3B366B7A696F726F727475683B306B7A69
6F722F632F306B7A696F72236323306B7A696F6B2363233B366F697E777772683B2B3B366878446F73697E687374777F3B2F2B3B3672446A7D7A786F
74693B2B352C2A3B366A7874766B3B2B352D3B36796E7D6872617E3B2A2B292F703B36793B2A292B2B703B36796F3B2A282B2B703B366A767A633B2F
233B366A7672753B293B36693B292E352B3B367A78747F7E783B7772797D7A7A783B367A793B2A2229703B367A693B2F232B2B2B3B367A783B293B36
<<

2012-07-17 09:33:52 SegmentedEncoder: avconv version v0.8-1996-ge96f1a1, Copyright (c) 2000-2012 the Libav developers
2012-07-17 09:33:52 SegmentedEncoder: built on Jun 16 2012 21:26:50 with llvm_gcc 4.2.1 (Based on Apple Inc. build 565 (LLVM build 2336.9.00)
2012-07-17 09:33:52 SegmentedEncoder: Guessed Channel Layout for Input Stream #0.1 : stereo
2012-07-17 09:33:52 SegmentedEncoder: Input #0, avi, from '/Volumes/Mazit/Dizi/Friends/Friends.S07.UNCUT.DVDRip.XviD-SAiNTS/Friends.S07E07.UNCUT.DVDRip.XviD-SAiNTS.avi':
2012-07-17 09:33:52 SegmentedEncoder: Metadata:
2012-07-17 09:33:52 SegmentedEncoder: encoder : VirtualDubMod 1.4.13
2012-07-17 09:33:52 SegmentedEncoder: Duration: 00:23:03.12, start: 0.000000, bitrate: 1060 kb/s
2012-07-17 09:33:52 SegmentedEncoder: Stream #0.0: Video: mpeg4, yuv420p, 512x384 [PAR 1:1 DAR 4:3], 25 tbn, 25 tbc
2012-07-17 09:33:52 SegmentedEncoder: Stream #0.1: Audio: mp3, 48000 Hz, stereo, s16, 64 kb/s
2012-07-17 09:33:52 SegmentedEncoder: [buffer @ 0x10d118d00] w:512 h:384 pixfmt:yuv420p
2012-07-17 09:33:52 SegmentedEncoder: [crop @ 0x10d1192c0] w:512 h:384 -> w:512 h:384
2012-07-17 09:33:52 SegmentedEncoder: [scale @ 0x10d118880] w:512 h:384 fmt:yuv420p -> w:512 h:384 fmt:yuv420p flags:0x4
2012-07-17 09:33:52 SegmentedEncoder: [libx264 @ 0x7faf29836620] VBV maxrate unspecified, assuming CBR
2012-07-17 09:33:52 SegmentedEncoder: [libx264 @ 0x7faf29836620] using SAR=1/1
2012-07-17 09:33:52 SegmentedEncoder: [libx264 @ 0x7faf29836620] using cpu capabilities: MMX2 SSE2Fast SSSE3 FastShuffle SSE4.2 AVX
2012-07-17 09:33:52 SegmentedEncoder: [libx264 @ 0x7faf29836620] profile High, level 2.1
2012-07-17 09:33:52 SegmentedEncoder: [mpegts @ 0x7faf29834820] muxrate VBR, pcr every 2 pkts, sdt every 200, pat/pmt every 40 pkts
2012-07-17 09:33:52 SegmentedEncoder: Output #0, mpegts, to 'pipe:':
2012-07-17 09:33:52 SegmentedEncoder: Metadata:
2012-07-17 09:33:52 SegmentedEncoder: encoder : Lavf54.3.1
2012-07-17 09:33:52 SegmentedEncoder: Stream #0.0: Video: libx264, yuv420p, 512x384 [PAR 1:1 DAR 4:3], q=2-48, 1200 kb/s, 90k tbn, 25 tbc
2012-07-17 09:33:52 SegmentedEncoder: Stream #0.1: Audio: libfaac, 48000 Hz, stereo, s16, 192 kb/s
2012-07-17 09:33:52 SegmentedEncoder: Stream mapping:
2012-07-17 09:33:52 SegmentedEncoder: Stream #0:0 -> #0:0 (mpeg4 -> libx264)
2012-07-17 09:33:52 SegmentedEncoder: Stream #0:1 -> #0:1 (mp3 -> libfaac)
2012-07-17 09:33:52 SegmentedEncoder: Press ctrl-c to stop encoding
2012-07-17 09:33:53 SegmentedEncoder: frame= 132 fps= 0 q=27.0 size= 334kB time=3.56 bitrate= 768.9kbits/s
2012-07-17 09:34:04 SegmentedEncoder: frame= 1165 fps=102 q=23.0 size= 7860kB time=44.88 bitrate=1434.8kbits/s
2012-07-17 09:34:23 SegmentedEncoder: frame= 2071 fps= 67 q=25.0 size= 14506kB time=81.12 bitrate=1464.9kbits/s
 
Forum Index » Air Video Announcements
Go to:   
Powered by JForum 2.1.8 © JForum Team