[Logo] Air Video Forum
  [Search] Search   [Recent Topics] Recent Topics   [Hottest Topics] Hottest Topics   [Members]  Member Listing   [Groups] Back to home page 
[Moderation Log] Moderation Log   [Register] Register / 
[Login] Login 
Air Video Server 2.4.6-beta3 released  XML
Forum Index » Air Video Announcements
Author Message
msstatedawg



Joined: 02/22/2011 16:26:12
Messages: 13
Offline

Reporting an issue. Apologies if I've reported it in the wrong place.

I installed 2.4.6 b3. Video playback on iPhone 5 with iOS 6.1.4 was very choppy. It was as if it were dropping frames, but the audio was not choppy.

I removed that version and installed 2.4.3. When displaying the AV dialog, it still said 2.4.6 b3 in the title bar and the choppy behavior continued.

I removed AV again then cleaned out all references to "AirVideo" from my registry as well as any folders on the drive with their name containing "AirVideo". Then, I installed 2.4.3 again.

All is well now. Hope this helped with your ongoing dev of the next production release. Many thanks for this product.
cha1218



Joined: 05/10/2013 12:17:10
Messages: 1
Offline

when playing with subtitles all the chinese characters are unreadable
hein



Joined: 05/14/2013 18:10:07
Messages: 1
Offline

Will there be support to disable to menu icon? (I have too many useless icons in my menu bar as it is). Once you have configured Air Server it just runs, so there is really not much need to use the menu icon.

I would prefer to have the preferences available from the System Preferences Other section. It should be made optional to show the icon in the menu bar.

Thanks,

Hein
sjk



Joined: 12/25/2009 02:24:48
Messages: 189
Location: Eugene
Offline

hein wrote:(I have too many useless icons in my menu bar as it is).

Recommended shareware utility I use to generally help with that issue:

Bartender | Mac Menu Bar Item Control

Once you have configured Air Server it just runs, so there is really not much need to use the menu icon.

The icon could be made more useful by displaying a non-zero number of connected clients.

I would prefer to have the preferences available from the System Preferences Other section.

I wouldn't mind Air Video Server being a Preference Pane for configuring/managing it.

Regardless, I'd also like the server to auto-restart (maybe as an option) after crashing.

Air Video 2.4.13 (iPad 2, iPhone 3GS [iOS 6.1.3]), Air Video Server 2.4.6-beta3u2 (Mac mini [Early 2009, OS X 10.8.4]), 802.11g/n WLAN
emax



Joined: 07/26/2011 23:10:14
Messages: 37
Offline

2013-06-04 20:58:57 LiveConversion: >>
39345A6B6B7772787A6F72747568345A72693B4D727F7E743B487E696D7E69357A6B6B345874756F7E756F6834497E68746E69787E68347A6D787475
6D393B3636687E7C767E756F36777E757C6F733B2F3B3636687E7C767E756F36747D7D687E6F3B2B3B36367874756D7E696872747536727F3B297E78
292D79237D362A797F22362F2E792C3679227D2F367D7F222E282D7878297F2F2F787F2A2C2D2D2B2D36797A287D362F2A2F2A36237F7D2D367E7F7D
2D2F287A222E2A797A3B36366B74696F36756E76797E693B2F2D2D282A3B366F73697E7A7F683B2F3B3668683B2B352B3B36723B39344D74776E767E
68347E567A344D727F7E743444487E69727E3B52753B587469687434417E7C7A6B7A72753B3440486E79417E6974463B417E7C7A6B7A72753B363B2B
293B4059776E36697A623B53722A2B4B3B2C292B6B464063292D2F365A5A584640524F5A463576706D393B36767A6B3B2B212B372B212B3B36767A6B
3B2B212A372B212A3B366D7D3B397869746B262A29232B212C292B212B212B373B68787A777E262A29232B212C292B3778746B62393B367A686B7E78
6F3B2A29232B212C292B3B36623B367D3B766B7E7C6F683B367A686275783B362A3B366D78747F7E783B77727963292D2F3B366D78747F7E783B7772
7963292D2F3B367D777A7C68293B307D7A686F3B367D777A7C683B307774746B3B367C3B282B3B36707E6272756F447672753B2A3B36797D3B2B3B36
7944686F697A6F7E7C623B2B3B3678766B3B3078736974767A3B36697E7D683B2A3B3678747F7E693B2B3B36767E44697A757C7E3B2A2D3B36686E79
6A3B2F3B366B7A696F726F727475683B306B7A696F722F632F306B7A696F72236323306B7A696F6B2363233B366F697E777772683B2B3B366878446F
73697E687374777F3B2F2B3B3672446A7D7A786F74693B2B352C2A3B366A7874766B3B2B352D3B36796E7D6872617E3B2A2B292F703B36793B2F292E
2B703B36796F3B2F2E2B2B703B366A767A633B2F233B366A7672753B293B36693B292835222C2E3B367A78747F7E783B777279766B28777A767E3B36
7A793B292E2D703B367A693B222D2B2B2B3B367A783B293B36
<<

2013-06-04 20:58:57 SegmentedEncoder: avconv version v0.8-2343-g468e020, Copyright (c) 2000-2012 the Libav developers
2013-06-04 20:58:57 SegmentedEncoder: built on Jul 18 2012 00:40:03 with llvm_gcc 4.2.1 (Based on Apple Inc. build 565 (LLVM build 2336.11.00)
2013-06-04 20:58:57 SegmentedEncoder: Input #0, matroska,webm, from '/Video/[SubZero] Zegapain - 02 [Blu-ray Hi10P 720p][x264-AAC].mkv':
2013-06-04 20:58:57 SegmentedEncoder: Duration: 00:23:22.47, start: 0.000000, bitrate: 1916 kb/s
2013-06-04 20:58:57 SegmentedEncoder: Chapter #0.0: start 0.000000, end 90.090000
2013-06-04 20:58:57 SegmentedEncoder: Metadata:
2013-06-04 20:58:57 SegmentedEncoder: title : Opening
2013-06-04 20:58:57 SegmentedEncoder: Chapter #0.1: start 90.090000, end 672.213000
2013-06-04 20:58:57 SegmentedEncoder: Metadata:
2013-06-04 20:58:57 SegmentedEncoder: title : Parte 1
2013-06-04 20:58:57 SegmentedEncoder: Chapter #0.2: start 672.213000, end 1280.320000
2013-06-04 20:58:57 SegmentedEncoder: Metadata:
2013-06-04 20:58:57 SegmentedEncoder: title : Parte 2
2013-06-04 20:58:57 SegmentedEncoder: Chapter #0.3: start 1280.320000, end 1370.369000
2013-06-04 20:58:57 SegmentedEncoder: Metadata:
2013-06-04 20:58:57 SegmentedEncoder: title : Ending
2013-06-04 20:58:57 SegmentedEncoder: Chapter #0.4: start 1370.369000, end 1402.474000
2013-06-04 20:58:57 SegmentedEncoder: Metadata:
2013-06-04 20:58:57 SegmentedEncoder: title : Anticipazioni
2013-06-04 20:58:57 SegmentedEncoder: Stream #0.0(jpn): Video: h264 (High 10), yuv420p10le, 1280x720 [PAR 1:1 DAR 16:9], 23.98 fps, 23.98 tbr, 1k tbn, 47.95 tbc (default)
2013-06-04 20:58:57 SegmentedEncoder: Metadata:
2013-06-04 20:58:57 SegmentedEncoder: title : Zegapain - 02
2013-06-04 20:58:57 SegmentedEncoder: Stream #0.1(jpn): Audio: aac, 96000 Hz, stereo, s16 (default)
2013-06-04 20:58:57 SegmentedEncoder: Stream #0.2(ita): Subtitle: ass (default)
2013-06-04 20:58:57 SegmentedEncoder: Metadata:
2013-06-04 20:58:57 SegmentedEncoder: title : Sottotitoli con karaoke e credits
2013-06-04 20:58:57 SegmentedEncoder: Stream #0.3(ita): Subtitle: ass
2013-06-04 20:58:57 SegmentedEncoder: Metadata:
2013-06-04 20:58:57 SegmentedEncoder: title : Sottotitoli senza karaoke e credits
2013-06-04 20:58:57 SegmentedEncoder: Stream #0.4: Attachment: [0][0][0][0] / 0x0000
2013-06-04 20:58:57 SegmentedEncoder: Metadata:
2013-06-04 20:58:57 SegmentedEncoder: filename : Amira-Semibold_0.otf
2013-06-04 20:58:57 SegmentedEncoder: mimetype : application/x-truetype-font
2013-06-04 20:58:57 SegmentedEncoder: Stream #0.5: Attachment: [0][0][0][0] / 0x0000
2013-06-04 20:58:57 SegmentedEncoder: Metadata:
2013-06-04 20:58:57 SegmentedEncoder: filename : BNEG98.ttf
2013-06-04 20:58:57 SegmentedEncoder: mimetype : application/x-truetype-font
2013-06-04 20:58:57 SegmentedEncoder: Stream #0.6: Attachment: [0][0][0][0] / 0x0000
2013-06-04 20:58:57 SegmentedEncoder: Metadata:
2013-06-04 20:58:57 SegmentedEncoder: filename : Bodonitown.ttf
2013-06-04 20:58:57 SegmentedEncoder: mimetype : application/x-truetype-font
2013-06-04 20:58:57 SegmentedEncoder: Stream #0.7: Attachment: [0][0][0][0] / 0x0000
2013-06-04 20:58:57 SegmentedEncoder: Metadata:
2013-06-04 20:58:57 SegmentedEncoder: filename : Forgottb.ttf
2013-06-04 20:58:57 SegmentedEncoder: mimetype : application/x-truetype-font
2013-06-04 20:58:57 SegmentedEncoder: Stream #0.8: Attachment: [0][0][0][0] / 0x0000
2013-06-04 20:58:57 SegmentedEncoder: Metadata:
2013-06-04 20:58:57 SegmentedEncoder: filename : gishabd.ttf
2013-06-04 20:58:57 SegmentedEncoder: mimetype : application/x-truetype-font
2013-06-04 20:58:57 SegmentedEncoder: Stream #0.9: Attachment: [0][0][0][0] / 0x0000
2013-06-04 20:58:57 SegmentedEncoder: Metadata:
2013-06-04 20:58:57 SegmentedEncoder: filename : PTS75F.ttf
2013-06-04 20:58:57 SegmentedEncoder: mimetype : application/x-truetype-font
2013-06-04 20:58:57 SegmentedEncoder: Stream #0.10: Attachment: [0][0][0][0] / 0x0000
2013-06-04 20:58:57 SegmentedEncoder: Metadata:
2013-06-04 20:58:57 SegmentedEncoder: filename : PTS76F.ttf
2013-06-04 20:58:57 SegmentedEncoder: mimetype : application/x-truetype-font
2013-06-04 20:58:57 SegmentedEncoder: Stream #0.11: Attachment: [0][0][0][0] / 0x0000
2013-06-04 20:58:57 SegmentedEncoder: Metadata:
2013-06-04 20:58:57 SegmentedEncoder: filename : ZEGAfont.ttf
2013-06-04 20:58:57 SegmentedEncoder: mimetype : application/x-truetype-font
2013-06-04 20:58:57 SegmentedEncoder: [libx264 @ 0x1010bf820] VBV maxrate unspecified, assuming CBR
2013-06-04 20:58:57 SegmentedEncoder: [libx264 @ 0x1010bf820] using SAR=1/1
2013-06-04 20:58:57 SegmentedEncoder: [libx264 @ 0x1010bf820] using cpu capabilities: MMX2 SSE2Fast SSSE3 FastShuffle SSE4.2 AVX
2013-06-04 20:58:57 SegmentedEncoder: [libx264 @ 0x1010bf820] profile High, level 3.1
2013-06-04 20:58:57 SegmentedEncoder: [libmp3lame @ 0x1010c0620] Specified sample_rate is not supported
2013-06-04 20:58:57 SegmentedEncoder: Output #0, mpegts, to 'pipe:':
2013-06-04 20:58:57 SegmentedEncoder: Chapter #0.0: start 0.000000, end 90.090000
2013-06-04 20:58:57 SegmentedEncoder: Metadata:
2013-06-04 20:58:57 SegmentedEncoder: title : Opening
2013-06-04 20:58:57 SegmentedEncoder: Chapter #0.1: start 90.090000, end 672.213000
2013-06-04 20:58:57 SegmentedEncoder: Metadata:
2013-06-04 20:58:57 SegmentedEncoder: title : Parte 1
2013-06-04 20:58:57 SegmentedEncoder: Chapter #0.2: start 672.213000, end 1280.320000
2013-06-04 20:58:57 SegmentedEncoder: Metadata:
2013-06-04 20:58:57 SegmentedEncoder: title : Parte 2
2013-06-04 20:58:57 SegmentedEncoder: Chapter #0.3: start 1280.320000, end 1370.369000
2013-06-04 20:58:57 SegmentedEncoder: Metadata:
2013-06-04 20:58:57 SegmentedEncoder: title : Ending
2013-06-04 20:58:57 SegmentedEncoder: Chapter #0.4: start 1370.369000, end 1402.474000
2013-06-04 20:58:57 SegmentedEncoder: Metadata:
2013-06-04 20:58:57 SegmentedEncoder: title : Anticipazioni
2013-06-04 20:58:57 SegmentedEncoder: Stream #0.0(jpn): Video: libx264, yuv420p, 1280x720 [PAR 1:1 DAR 16:9], q=2-48, 4250 kb/s, 90k tbn, 23.98 tbc (default)
2013-06-04 20:58:57 SegmentedEncoder: Metadata:
2013-06-04 20:58:57 SegmentedEncoder: title : Zegapain - 02
2013-06-04 20:58:57 SegmentedEncoder: Stream #0.1(jpn): Audio: libmp3lame, 96000 Hz, stereo, s16, 256 kb/s (default)
2013-06-04 20:58:57 SegmentedEncoder: Stream mapping:
2013-06-04 20:58:57 SegmentedEncoder: Stream #0:0 -> #0:0 (h264 -> libx264)
2013-06-04 20:58:57 SegmentedEncoder: Stream #0:1 -> #0:1 (aac -> libmp3lame)
2013-06-04 20:58:57 SegmentedEncoder: Error while opening encoder for output stream #0:1 - maybe incorrect parameters such as bit_rate, rate, width or height

Help

iPad 3 iOS 6.1.3 . iPhone 5 iOS 7 beta 1 . MacBook Air i7 OS X 10.9 DP1
Air Video: Client 2.4.13 . Server 2.4.6-beta3
Admin



Joined: 08/23/2009 08:49:34
Messages: 8705
Offline

Does the problem happen with other files as well?

This message was edited 1 time. Last update was at 06/05/2013 16:28:03

emax



Joined: 07/26/2011 23:10:14
Messages: 37
Offline

Yes, this is a another Series wih 10bit profile that not wok!!

2013-06-06 20:28:30 LiveConversion: >>
39345A6B6B7772787A6F72747568345A72693B4D727F7E743B487E696D7E69357A6B6B345874756F7E756F6834497E68746E69787E68347A6D787475
6D393B3636687E7C767E756F36777E757C6F733B2F3B3636687E7C767E756F36747D7D687E6F3B2B3B36367874756D7E696872747536727F3B2B7D29
782B2B2928362F232C2C362F2C797936792B23223628292B7F282B23237A7A2A2F7A7D232E7D2C2922362F2C7D2E362F7F232D36227F2E28362E297D
222C7F2E79232F28223B36366B74696F36756E76797E693B2F2D2D282A3B366F73697E7A7F683B2F3B3668683B2B352B3B36723B39344D74776E767E
68347E567A344D727F7E743444487E69727E3B52753B587469687434567A717E686F72783B4B697275787E3B3440486E79417E6974463B567A717E68
6F72783B4B697275787E3B363B2B223B4053722A2B4B3B2C292B6B464063292D2F365A5A584640524F5A463576706D393B36767A6B3B2B212B372B21
2B3B36767A6B3B2B212A372B212A3B366D7D3B397869746B262A29232B212C292B212B212B373B68787A777E262A29232B212C292B3778746B62393B
367A686B7E786F3B2A29232B212C292B3B36623B367D3B766B7E7C6F683B367A686275783B362A3B366D78747F7E783B77727963292D2F3B366D7874
7F7E783B77727963292D2F3B367D777A7C68293B307D7A686F3B367D777A7C683B307774746B3B367C3B282B3B36707E6272756F447672753B2A3B36
797D3B2B3B367944686F697A6F7E7C623B2B3B3678766B3B3078736974767A3B36697E7D683B2A3B3678747F7E693B2B3B36767E44697A757C7E3B2A
2D3B36686E796A3B2F3B366B7A696F726F727475683B306B7A696F722F632F306B7A696F72236323306B7A696F6B2363233B366F697E777772683B2B
3B366878446F73697E687374777F3B2F2B3B3672446A7D7A786F74693B2B352C2A3B366A7874766B3B2B352D3B36796E7D6872617E3B2A2B292F703B
36793B2F292E2B703B36796F3B2F2E2B2B703B366A767A633B2F233B366A7672753B293B36693B292835222C2E3B367A78747F7E783B777279766B28
777A767E3B367A793B292E2D703B367A693B2323292B2B3B367A783B293B36
<<

2013-06-06 20:28:30 SegmentedEncoder: avconv version v0.8-2343-g468e020, Copyright (c) 2000-2012 the Libav developers
2013-06-06 20:28:30 SegmentedEncoder: built on Jul 18 2012 00:40:03 with llvm_gcc 4.2.1 (Based on Apple Inc. build 565 (LLVM build 2336.11.00)
2013-06-06 20:28:30 SegmentedEncoder: Input #0, matroska,webm, from '/Volumes/Video/Majestic Prince /[SubZero] Majestic Prince - 09 [Hi10P 720p].mkv':
2013-06-06 20:28:30 SegmentedEncoder: Duration: 00:23:55.97, start: 0.000000, bitrate: 1378 kb/s
2013-06-06 20:28:30 SegmentedEncoder: Chapter #0.0: start 0.000000, end 134.008000
2013-06-06 20:28:30 SegmentedEncoder: Metadata:
2013-06-06 20:28:30 SegmentedEncoder: title : Prologo
2013-06-06 20:28:30 SegmentedEncoder: Chapter #0.1: start 134.008000, end 224.015000
2013-06-06 20:28:30 SegmentedEncoder: Metadata:
2013-06-06 20:28:30 SegmentedEncoder: title : Opening
2013-06-06 20:28:30 SegmentedEncoder: Chapter #0.2: start 224.015000, end 851.976000
2013-06-06 20:28:30 SegmentedEncoder: Metadata:
2013-06-06 20:28:30 SegmentedEncoder: title : Parte 1
2013-06-06 20:28:30 SegmentedEncoder: Chapter #0.3: start 851.976000, end 1329.995000
2013-06-06 20:28:30 SegmentedEncoder: Metadata:
2013-06-06 20:28:30 SegmentedEncoder: title : Parte 2
2013-06-06 20:28:30 SegmentedEncoder: Chapter #0.4: start 1329.995000, end 1419.960000
2013-06-06 20:28:30 SegmentedEncoder: Metadata:
2013-06-06 20:28:30 SegmentedEncoder: title : Ending
2013-06-06 20:28:30 SegmentedEncoder: Chapter #0.5: start 1419.960000, end 1435.976000
2013-06-06 20:28:30 SegmentedEncoder: Metadata:
2013-06-06 20:28:30 SegmentedEncoder: title : Anticipazioni
2013-06-06 20:28:30 SegmentedEncoder: Stream #0.0(jpn): Video: h264 (High 10), yuv420p10le, 1280x720 [PAR 1:1 DAR 16:9], 23.98 fps, 23.98 tbr, 1k tbn, 47.95 tbc (default)
2013-06-06 20:28:30 SegmentedEncoder: Metadata:
2013-06-06 20:28:30 SegmentedEncoder: title : Majestic Prince - 09
2013-06-06 20:28:30 SegmentedEncoder: Stream #0.1(jpn): Audio: aac, 88200 Hz, stereo, s16 (default)
2013-06-06 20:28:30 SegmentedEncoder: Stream #0.2(ita): Subtitle: ass (default)
2013-06-06 20:28:30 SegmentedEncoder: Metadata:
2013-06-06 20:28:30 SegmentedEncoder: title : Styled subs
2013-06-06 20:28:30 SegmentedEncoder: Stream #0.3: Attachment: [0][0][0][0] / 0x0000
2013-06-06 20:28:30 SegmentedEncoder: Metadata:
2013-06-06 20:28:30 SegmentedEncoder: filename : Diamante.ttf
2013-06-06 20:28:30 SegmentedEncoder: mimetype : application/x-truetype-font
2013-06-06 20:28:30 SegmentedEncoder: Stream #0.4: Attachment: [0][0][0][0] / 0x0000
2013-06-06 20:28:30 SegmentedEncoder: Metadata:
2013-06-06 20:28:30 SegmentedEncoder: filename : Elements.ttf
2013-06-06 20:28:30 SegmentedEncoder: mimetype : application/x-truetype-font
2013-06-06 20:28:30 SegmentedEncoder: Stream #0.5: Attachment: [0][0][0][0] / 0x0000
2013-06-06 20:28:30 SegmentedEncoder: Metadata:
2013-06-06 20:28:30 SegmentedEncoder: filename : Forgottb.ttf
2013-06-06 20:28:30 SegmentedEncoder: mimetype : application/x-truetype-font
2013-06-06 20:28:30 SegmentedEncoder: Stream #0.6: Attachment: [0][0][0][0] / 0x0000
2013-06-06 20:28:30 SegmentedEncoder: Metadata:
2013-06-06 20:28:30 SegmentedEncoder: filename : FTLTLT.TTF
2013-06-06 20:28:30 SegmentedEncoder: mimetype : application/x-truetype-font
2013-06-06 20:28:30 SegmentedEncoder: Stream #0.7: Attachment: [0][0][0][0] / 0x0000
2013-06-06 20:28:30 SegmentedEncoder: Metadata:
2013-06-06 20:28:30 SegmentedEncoder: filename : GARABD.TTF
2013-06-06 20:28:30 SegmentedEncoder: mimetype : application/x-truetype-font
2013-06-06 20:28:30 SegmentedEncoder: Stream #0.8: Attachment: [0][0][0][0] / 0x0000
2013-06-06 20:28:30 SegmentedEncoder: Metadata:
2013-06-06 20:28:30 SegmentedEncoder: filename : GosmickSansBold.ttf
2013-06-06 20:28:30 SegmentedEncoder: mimetype : application/x-truetype-font
2013-06-06 20:28:30 SegmentedEncoder: Stream #0.9: Attachment: [0][0][0][0] / 0x0000
2013-06-06 20:28:30 SegmentedEncoder: Metadata:
2013-06-06 20:28:30 SegmentedEncoder: filename : KozMinPr6N-Bold.otf
2013-06-06 20:28:30 SegmentedEncoder: mimetype : application/x-truetype-font
2013-06-06 20:28:30 SegmentedEncoder: Stream #0.10: Attachment: [0][0][0][0] / 0x0000
2013-06-06 20:28:30 SegmentedEncoder: Metadata:
2013-06-06 20:28:30 SegmentedEncoder: filename : Sugo.otf
2013-06-06 20:28:30 SegmentedEncoder: mimetype : application/x-truetype-font
2013-06-06 20:28:30 SegmentedEncoder: Stream #0.11: Attachment: [0][0][0][0] / 0x0000
2013-06-06 20:28:30 SegmentedEncoder: Metadata:
2013-06-06 20:28:30 SegmentedEncoder: filename : Tuffy.ttf
2013-06-06 20:28:30 SegmentedEncoder: mimetype : application/x-truetype-font
2013-06-06 20:28:30 SegmentedEncoder: [libx264 @ 0x1010f5820] VBV maxrate unspecified, assuming CBR
2013-06-06 20:28:30 SegmentedEncoder: [libx264 @ 0x1010f5820] using SAR=1/1
2013-06-06 20:28:30 SegmentedEncoder: [libx264 @ 0x1010f5820] using cpu capabilities: MMX2 SSE2Fast SSSE3 FastShuffle SSE4.2 AVX
2013-06-06 20:28:30 SegmentedEncoder: [libx264 @ 0x1010f5820] profile High, level 3.1
2013-06-06 20:28:30 SegmentedEncoder: [libmp3lame @ 0x1010c3a20] Specified sample_rate is not supported
2013-06-06 20:28:30 SegmentedEncoder: Output #0, mpegts, to 'pipe:':
2013-06-06 20:28:30 SegmentedEncoder: Chapter #0.0: start 0.000000, end 134.008000
2013-06-06 20:28:30 SegmentedEncoder: Metadata:
2013-06-06 20:28:30 SegmentedEncoder: title : Prologo
2013-06-06 20:28:30 SegmentedEncoder: Chapter #0.1: start 134.008000, end 224.015000
2013-06-06 20:28:30 SegmentedEncoder: Metadata:
2013-06-06 20:28:30 SegmentedEncoder: title : Opening
2013-06-06 20:28:30 SegmentedEncoder: Chapter #0.2: start 224.015000, end 851.976000
2013-06-06 20:28:30 SegmentedEncoder: Metadata:
2013-06-06 20:28:30 SegmentedEncoder: title : Parte 1
2013-06-06 20:28:30 SegmentedEncoder: Chapter #0.3: start 851.976000, end 1329.995000
2013-06-06 20:28:30 SegmentedEncoder: Metadata:
2013-06-06 20:28:30 SegmentedEncoder: title : Parte 2
2013-06-06 20:28:30 SegmentedEncoder: Chapter #0.4: start 1329.995000, end 1419.960000
2013-06-06 20:28:30 SegmentedEncoder: Metadata:
2013-06-06 20:28:30 SegmentedEncoder: title : Ending
2013-06-06 20:28:30 SegmentedEncoder: Chapter #0.5: start 1419.960000, end 1435.976000
2013-06-06 20:28:30 SegmentedEncoder: Metadata:
2013-06-06 20:28:30 SegmentedEncoder: title : Anticipazioni
2013-06-06 20:28:30 SegmentedEncoder: Stream #0.0(jpn): Video: libx264, yuv420p, 1280x720 [PAR 1:1 DAR 16:9], q=2-48, 4250 kb/s, 90k tbn, 23.98 tbc (default)
2013-06-06 20:28:30 SegmentedEncoder: Metadata:
2013-06-06 20:28:30 SegmentedEncoder: title : Majestic Prince - 09
2013-06-06 20:28:30 SegmentedEncoder: Stream #0.1(jpn): Audio: libmp3lame, 88200 Hz, stereo, s16, 256 kb/s (default)
2013-06-06 20:28:30 SegmentedEncoder: Stream mapping:
2013-06-06 20:28:30 SegmentedEncoder: Stream #0:0 -> #0:0 (h264 -> libx264)
2013-06-06 20:28:30 SegmentedEncoder: Stream #0:1 -> #0:1 (aac -> libmp3lame)
2013-06-06 20:28:30 SegmentedEncoder: Error while opening encoder for output stream #0:1 - maybe incorrect parameters such as bit_rate, rate, width or height

iPad 3 iOS 6.1.3 . iPhone 5 iOS 7 beta 1 . MacBook Air i7 OS X 10.9 DP1
Air Video: Client 2.4.13 . Server 2.4.6-beta3
phil32



Joined: 09/06/2012 15:10:36
Messages: 5
Offline

Hi guys, I have just found this bit of software that prevents the pc from sleeping when downloading or/and uploading.

I have just started using this bit of software, and "IF" it stops the pc from sleeping while viewing media on my ipad, it will be awsome

http://sourceforge.net/projects/coffee-sc/
sjk



Joined: 12/25/2009 02:24:48
Messages: 189
Location: Eugene
Offline

phil32 wrote:I have just found this bit of software that prevents the pc from sleeping when downloading or/and uploading.

Might get noticed more if posted to one of the previous topics specifically discussing this issue.

Air Video 2.4.13 (iPad 2, iPhone 3GS [iOS 6.1.3]), Air Video Server 2.4.6-beta3u2 (Mac mini [Early 2009, OS X 10.8.4]), 802.11g/n WLAN
jadajada



Joined: 04/14/2011 19:26:45
Messages: 2
Offline

Hi!

My Mac died and I am now on an older Mac Mini, it is a Core Duo 1.66. I know it is weak and I have orderer an Core2Duo cpu to upgrade it.

However, I can not get 2.4.6-beta3 to work. I have my old setup, same shares with the right rights on the folders. All my files show as invalid, my mp4 (m4v) files play, but all attempts to do a live conversion fails. It says no videostream found in file.

Where should I start to fix this?

Edit: I went back to the last version with 32bit (2.4.3) support and it worked straight away. Guess I'll wait for my new cpu before upgrading further...

This message was edited 1 time. Last update was at 06/09/2013 11:02:13

CanadianWalrus



Joined: 06/11/2013 18:51:05
Messages: 1
Offline

This message was edited 1 time. Last update was at 06/11/2013 18:54:00

meetajhu



Joined: 05/14/2012 10:48:33
Messages: 2
Offline

Its been almost a year. And still no update to the client!
sjk



Joined: 12/25/2009 02:24:48
Messages: 189
Location: Eugene
Offline

meetajhu wrote:Its been almost a year. And still no update to the client!

FYI:

Admin wrote:The new client is ready for public beta.
We're working on the server currently, trying to get it shape so that we can start shipping it. At this point it mostly involves getting the configuration user interface done and packaging it. There are many new features in the software, but we don't want to go to details before we start with beta.

… and possibly more recent posts about the status.

Air Video 2.4.13 (iPad 2, iPhone 3GS [iOS 6.1.3]), Air Video Server 2.4.6-beta3u2 (Mac mini [Early 2009, OS X 10.8.4]), 802.11g/n WLAN
luckman212



Joined: 12/30/2009 14:07:55
Messages: 23
Offline

How's that next version comin' ?
sjk



Joined: 12/25/2009 02:24:48
Messages: 189
Location: Eugene
Offline

As always, it's ready when it's ready and announced without without asking.

Air Video 2.4.13 (iPad 2, iPhone 3GS [iOS 6.1.3]), Air Video Server 2.4.6-beta3u2 (Mac mini [Early 2009, OS X 10.8.4]), 802.11g/n WLAN
 
Forum Index » Air Video Announcements
Go to:   
Powered by JForum 2.1.8 © JForum Team