[Logo] Air Video Forum
  [Search] Search   [Recent Topics] Recent Topics   [Hottest Topics] Hottest Topics   [Members]  Member Listing   [Groups] Back to home page 
[Moderation Log] Moderation Log   [Register] Register / 
[Login] Login 
AVS Linux - Download links & information  XML
Forum Index » Air Video General
Author Message
unknown_inc



Joined: 06/28/2010 00:02:24
Messages: 33
Offline

Hi guy's!
I'm sorry to inform you that I have now moved away from the Linux Ubuntu system to using Windows 7. I feel that this works better and are less technical if a problem occurs. The base system is still the AsRock ION and it works great!!

I'll hope the thread still keeps on going and hopefully others will find it helpful as well!

AVS Linux - Download & information - http://www.inmethod.com/forum/posts/list/1856.page
pascalw



Joined: 10/27/2010 13:54:02
Messages: 3
Offline

I got the server piece up and running on a Debian Lenny server but it crashes on the server when I browse the media files using my iPhone. Looks like it occurs when it tries to create thumbnails:



Any ideas on a solution?
pascalw



Joined: 10/27/2010 13:54:02
Messages: 3
Offline

pascalw wrote:I got the server piece up and running on a Debian Lenny server but it crashes on the server when I browse the media files using my iPhone. Looks like it occurs when it tries to create thumbnails:



Any ideas on a solution?


SOLVED: Make sure you use the JRE by Sun.
Kyrin



Joined: 06/14/2010 19:38:11
Messages: 20
Offline

So... it's pretty much driving me crazy that the new version and server Alpha4 is working fairly well on my iPhone, but my iPad over the same WiFi connection gives problems, issues browsing directories, the issues with playback are the worst though, with the sound cutting out with no apparent problems on the server output being the most annoying part... Most recently it has lost position somehow and started playing from the beginning again, even though the position bar at the top of the video is still somewhere around the 30min mark... and when I scrubbed forward to around 35min, it went roughly 5mins forward from the beginning of the video... and now the video is stopped and though I've tried to actually stop it, the app appears to be frozen... Here's the only output I have from the server, I had to use 'quote' instead of 'code' because the highlighting script kept locking up Firefox...
DEBUG: Encoder: frame= 60 fps= 0 q=39.0 size= 13kB time=1.20 bitrate= 89.0kbits/s dup=0 drop=80
DEBUG: LiveConversion: Encoder Process Done, closing segmenter.
DEBUG: Segmenter: [mpegts @ 0x8a33120]max_analyze_duration reached
DEBUG: Segmenter: [mpegts @ 0x8a33120]Estimating duration from bitrate, this may be inaccurate
DEBUG: Segmenter: Output #0, mpegts, to '':
DEBUG: Segmenter: Stream #0.0: Video: libx264, yuv420p, 300x170, q=2-31, 90k tbn, 10 tbc
DEBUG: Segmenter: Stream #0.1: Audio: libmp3lame, 48000 Hz, 2 channels, 32 kb/s
DEBUG: Segmenter: [mpegts @ 0x8a403f0]stream 0, bit rate is not set, this will cause problems
DEBUG: Segmenter: Offsetting timestamps by:0.000000
DEBUG: Segmenter: [mpegts @ 0x8a403f0]st:1 error, non monotone timestamps 63000 >= 63000
DEBUG: Segmenter: Wrote segment 0
DEBUG: LiveConversion: Getting segment 1
DEBUG: Encoder: frame= 647 fps=117 q=38.0 size= 692kB time=59.90 bitrate= 94.6kbits/s dup=0 drop=901
DEBUG: Segmenter: Wrote segment 5
DEBUG: LiveConversion: Segmenter thread exception: Stream closed
DEBUG: LiveConversion: Encoder thread exception: IOException - Stream closed
DEBUG: LiveConversion: Encoder Process Done, closing segmenter.
DEBUG: LiveConversion: Getting segment 2
/boot/packages/ffmpeg/ffmpeg --conversion-id ff29a3a5-1cce-488b-a1db-4739d1ba98a3 --port-number 46631 -threads 4 -flags2 +fast -flags +loop -g 30 -keyint_min 1 -bf 0 -b_strategy 0 -flags2 -wpred-dct8x8 -cmp +chroma -deblockalpha 0 -deblockbeta 0 -refs 1 -coder 0 -me_range 16 -subq 5 -partitions +parti4x4+parti8x8+partp8x8 -trellis 0 -sc_threshold 40 -i_qfactor 0.71 -qcomp 0.6 -map 0.0:0.0 -map 0.1:0.1 -ss 20.0 -i "/mnt/user/TV/Hellcats/Season 1/hellcats.s01e02.hdtv.xvid-fqm.avi" -cropleft 0 -cropright 0 -croptop 0 -cropbottom 0 -s 300x170 -aspect 1.7647059 -y -async 1 -f mpegts -vcodec libx264 -bufsize 512k -b 25k -bt 35k -qmax 48 -qmin 2 -r 10.0 -acodec libmp3lame -ab 32k -ar 48000 -ac 2 -
DEBUG: LiveConversion: >>
347974746F346B7A78707A7C7E68347D7D766B7E7C347D7D766B7E7C3B36367874756D7E696872747536727F3B7D7D29227A287A2E362A78787E362F
232379367A2A7F79362F2C28227F2A797A22237A283B36366B74696F36756E76797E693B2F2D2D282A3B366F73697E7A7F683B2F3B367D777A7C6829
3B307D7A686F3B367D777A7C683B307774746B3B367C3B282B3B36707E6272756F447672753B2A3B36797D3B2B3B367944686F697A6F7E7C623B2B3B
367D777A7C68293B366C6B697E7F367F786F2363233B3678766B3B3078736974767A3B367F7E79777478707A776B737A3B2B3B367F7E797774787079
7E6F7A3B2B3B36697E7D683B2A3B3678747F7E693B2B3B36767E44697A757C7E3B2A2D3B36686E796A3B2E3B366B7A696F726F727475683B306B7A69
6F722F632F306B7A696F72236323306B7A696F6B2363233B366F697E777772683B2B3B366878446F73697E687374777F3B2F2B3B3672446A7D7A786F
74693B2B352C2A3B366A7874766B3B2B352D3B36767A6B3B2B352B212B352B3B36767A6B3B2B352A212B352A3B3668683B292B352B3B36723B393476
756F346E687E69344F4D34537E7777787A6F6834487E7A6874753B2A34737E7777787A6F6835682B2A7E2B2935737F6F6D35636D727F367D6A76357A
6D72393B367869746B777E7D6F3B2B3B367869746B69727C736F3B2B3B367869746B6F746B3B2B3B367869746B79746F6F74763B2B3B36683B282B2B
632A2C2B3B367A686B7E786F3B2A352C2D2F2C2B2E223B36623B367A686275783B2A3B367D3B766B7E7C6F683B366D78747F7E783B77727963292D2F
3B36796E7D6872617E3B2E2A29703B36793B292E703B36796F3B282E703B366A767A633B2F233B366A7672753B293B36693B2A2B352B3B367A78747F
7E783B777279766B28777A767E3B367A793B2829703B367A693B2F232B2B2B3B367A783B293B36
<<

DEBUG: Encoder: FFmpeg version UNKNOWN, Copyright (c) 2000-2010 Fabrice Bellard, et al.
DEBUG: Encoder: built on May 20 2010 12:50:54 with gcc 4.2.4
DEBUG: Encoder: configuration: --enable-gpl --enable-nonfree --enable-postproc --enable-pthreads --enable-libfaac --enable-libfaad --enable-libmp3lame --enable-libx264 --enable-libxvid --enable-x11grab --disable-shared --enable-static --disable-decoder=aac
DEBUG: Encoder: libavutil 50. 8. 0 / 50. 8. 0
DEBUG: Encoder: libavcodec 52.52. 0 / 52.52. 0
DEBUG: Encoder: libavformat 52.50. 0 / 52.50. 0
DEBUG: Encoder: libavdevice 52. 2. 0 / 52. 2. 0
DEBUG: Encoder: libswscale 0.10. 0 / 0.10. 0
DEBUG: Encoder: libpostproc 51. 2. 0 / 51. 2. 0
DEBUG: Encoder: Input #0, avi, from '/mnt/user/TV/Hellcats/Season 1/hellcats.s01e02.hdtv.xvid-fqm.avi':
DEBUG: Encoder: Metadata:
DEBUG: Encoder: ISFT : transcode-1.0.4
DEBUG: Encoder: Duration: 00:40:51.96, start: 0.000000, bitrate: 1197 kb/s
DEBUG: Encoder: Stream #0.0: Video: mpeg4, yuv420p, 624x352 [PAR 1:1 DAR 39:22], 23.98 tbr, 23.98 tbn, 23.98 tbc
DEBUG: Encoder: Stream #0.1: Audio: mp3, 48000 Hz, 2 channels, s16, 128 kb/s
DEBUG: Encoder: [libx264 @ 0x8a3f520]VBV maxrate unspecified, assuming CBR
DEBUG: Encoder: [libx264 @ 0x8a3f520]using SAR=1/1
DEBUG: Encoder: [libx264 @ 0x8a3f520]using cpu capabilities: MMX2 SSE2Fast SSSE3 FastShuffle SSE4.1 Cache64
DEBUG: Encoder: [libx264 @ 0x8a3f520]profile Baseline, level 1.2
DEBUG: Encoder: Output #0, mpegts, to 'pipe:':
DEBUG: Encoder: Stream #0.0: Video: libx264, yuv420p, 300x170 [PAR 1:1 DAR 30:17], q=2-48, 25 kb/s, 90k tbn, 10 tbc
DEBUG: Encoder: Stream #0.1: Audio: libmp3lame, 48000 Hz, 2 channels, s16, 32 kb/s
DEBUG: Encoder: Stream mapping:
DEBUG: Encoder: Stream #0.0 -> #0.0
DEBUG: Encoder: Stream #0.1 -> #0.1
DEBUG: Encoder: Press [q] to stop encoding
/boot/packages/ffmpeg/ffmpeg segmenter 10 2
DEBUG: LiveConversion: >>
347974746F346B7A78707A7C7E68347D7D766B7E7C347D7D766B7E7C3B687E7C767E756F7E693B2A2B3B29
<<

DEBUG: Encoder: frame= 60 fps= 0 q=38.0 size= 13kB time=1.20 bitrate= 89.0kbits/s dup=0 drop=92
DEBUG: Segmenter: [mpegts @ 0x8a33120]max_analyze_duration reached
DEBUG: Segmenter: [mpegts @ 0x8a33120]Estimating duration from bitrate, this may be inaccurate
DEBUG: Segmenter: Output #0, mpegts, to '':
DEBUG: Segmenter: Stream #0.0: Video: libx264, yuv420p, 300x170, q=2-31, 90k tbn, 10 tbc
DEBUG: Segmenter: Stream #0.1: Audio: libmp3lame, 48000 Hz, 2 channels, 32 kb/s
DEBUG: Segmenter: [mpegts @ 0x8a403f0]stream 0, bit rate is not set, this will cause problems
DEBUG: Segmenter: Offsetting timestamps by:1800000.000000
DEBUG: Segmenter: [mpegts @ 0x8a403f0]st:1 error, non monotone timestamps 1863000 >= 1863000
DEBUG: LiveConversion: Getting segment 3
DEBUG: Segmenter: Wrote segment 5
DEBUG: LiveConversion: Segmenter thread exception: Stream closed
DEBUG: LiveConversion: Encoder thread exception: IOException - Stream closed
DEBUG: LiveConversion: Getting segment 3
/boot/packages/ffmpeg/ffmpeg --conversion-id ff29a3a5-1cce-488b-a1db-4739d1ba98a3 --port-number 46631 -threads 4 -flags2 +fast -flags +loop -g 30 -keyint_min 1 -bf 0 -b_strategy 0 -flags2 -wpred-dct8x8 -cmp +chroma -deblockalpha 0 -deblockbeta 0 -refs 1 -coder 0 -me_range 16 -subq 5 -partitions +parti4x4+parti8x8+partp8x8 -trellis 0 -sc_threshold 40 -i_qfactor 0.71 -qcomp 0.6 -map 0.0:0.0 -map 0.1:0.1 -ss 30.0 -i "/mnt/user/TV/Hellcats/Season 1/hellcats.s01e02.hdtv.xvid-fqm.avi" -cropleft 0 -cropright 0 -croptop 0 -cropbottom 0 -s 430x242 -aspect 1.7768595 -y -async 1 -f mpegts -vcodec libx264 -bufsize 512k -b 200k -bt 220k -qmax 48 -qmin 2 -r 23.0 -acodec libmp3lame -ab 48k -ar 48000 -ac 2 -
DEBUG: LiveConversion: >>
347974746F346B7A78707A7C7E68347D7D766B7E7C347D7D766B7E7C3B36367874756D7E696872747536727F3B7D7D29227A287A2E362A78787E362F
232379367A2A7F79362F2C28227F2A797A22237A283B36366B74696F36756E76797E693B2F2D2D282A3B366F73697E7A7F683B2F3B367D777A7C6829
3B307D7A686F3B367D777A7C683B307774746B3B367C3B282B3B36707E6272756F447672753B2A3B36797D3B2B3B367944686F697A6F7E7C623B2B3B
367D777A7C68293B366C6B697E7F367F786F2363233B3678766B3B3078736974767A3B367F7E79777478707A776B737A3B2B3B367F7E797774787079
7E6F7A3B2B3B36697E7D683B2A3B3678747F7E693B2B3B36767E44697A757C7E3B2A2D3B36686E796A3B2E3B366B7A696F726F727475683B306B7A69
6F722F632F306B7A696F72236323306B7A696F6B2363233B366F697E777772683B2B3B366878446F73697E687374777F3B2F2B3B3672446A7D7A786F
74693B2B352C2A3B366A7874766B3B2B352D3B36767A6B3B2B352B212B352B3B36767A6B3B2B352A212B352A3B3668683B282B352B3B36723B393476
756F346E687E69344F4D34537E7777787A6F6834487E7A6874753B2A34737E7777787A6F6835682B2A7E2B2935737F6F6D35636D727F367D6A76357A
6D72393B367869746B777E7D6F3B2B3B367869746B69727C736F3B2B3B367869746B6F746B3B2B3B367869746B79746F6F74763B2B3B36683B2F282B
63292F293B367A686B7E786F3B2A352C2C2D232E222E3B36623B367A686275783B2A3B367D3B766B7E7C6F683B366D78747F7E783B77727963292D2F
3B36796E7D6872617E3B2E2A29703B36793B292B2B703B36796F3B29292B703B366A767A633B2F233B366A7672753B293B36693B2928352B3B367A78
747F7E783B777279766B28777A767E3B367A793B2F23703B367A693B2F232B2B2B3B367A783B293B36
<<

DEBUG: Encoder: FFmpeg version UNKNOWN, Copyright (c) 2000-2010 Fabrice Bellard, et al.
DEBUG: Encoder: built on May 20 2010 12:50:54 with gcc 4.2.4
DEBUG: Encoder: configuration: --enable-gpl --enable-nonfree --enable-postproc --enable-pthreads --enable-libfaac --enable-libfaad --enable-libmp3lame --enable-libx264 --enable-libxvid --enable-x11grab --disable-shared --enable-static --disable-decoder=aac
DEBUG: Encoder: libavutil 50. 8. 0 / 50. 8. 0
DEBUG: Encoder: libavcodec 52.52. 0 / 52.52. 0
DEBUG: Encoder: libavformat 52.50. 0 / 52.50. 0
DEBUG: Encoder: libavdevice 52. 2. 0 / 52. 2. 0
DEBUG: Encoder: libswscale 0.10. 0 / 0.10. 0
DEBUG: Encoder: libpostproc 51. 2. 0 / 51. 2. 0
DEBUG: Encoder: Input #0, avi, from '/mnt/user/TV/Hellcats/Season 1/hellcats.s01e02.hdtv.xvid-fqm.avi':
DEBUG: Encoder: Metadata:
DEBUG: Encoder: ISFT : transcode-1.0.4
DEBUG: Encoder: Duration: 00:40:51.96, start: 0.000000, bitrate: 1197 kb/s
DEBUG: Encoder: Stream #0.0: Video: mpeg4, yuv420p, 624x352 [PAR 1:1 DAR 39:22], 23.98 tbr, 23.98 tbn, 23.98 tbc
DEBUG: Encoder: Stream #0.1: Audio: mp3, 48000 Hz, 2 channels, s16, 128 kb/s
DEBUG: Encoder: [libx264 @ 0x8a3f520]VBV maxrate unspecified, assuming CBR
DEBUG: Encoder: [libx264 @ 0x8a3f520]using SAR=1/1
DEBUG: Encoder: [libx264 @ 0x8a3f520]using cpu capabilities: MMX2 SSE2Fast SSSE3 FastShuffle SSE4.1 Cache64
DEBUG: Encoder: [libx264 @ 0x8a3f520]profile Baseline, level 2.1
DEBUG: Encoder: Output #0, mpegts, to 'pipe:':
DEBUG: Encoder: Stream #0.0: Video: libx264, yuv420p, 430x242 [PAR 1:1 DAR 215:121], q=2-48, 200 kb/s, 90k tbn, 23 tbc
DEBUG: Encoder: Stream #0.1: Audio: libmp3lame, 48000 Hz, 2 channels, s16, 48 kb/s
DEBUG: Encoder: Stream mapping:
DEBUG: Encoder: Stream #0.0 -> #0.0
DEBUG: Encoder: Stream #0.1 -> #0.1
DEBUG: Encoder: Press [q] to stop encoding
/boot/packages/ffmpeg/ffmpeg segmenter 10 3
DEBUG: LiveConversion: >>
347974746F346B7A78707A7C7E68347D7D766B7E7C347D7D766B7E7C3B687E7C767E756F7E693B2A2B3B28
<<

DEBUG: LiveConversion: Encoder Process Done, closing segmenter.
DEBUG: Encoder: frame= 103 fps= 0 q=30.0 size= 87kB time=2.39 bitrate= 297.5kbits/s dup=0 drop=4
DEBUG: Segmenter: [mpegts @ 0x8a33120]max_analyze_duration reached
DEBUG: Segmenter: [mpegts @ 0x8a33120]Estimating duration from bitrate, this may be inaccurate
DEBUG: Segmenter: Output #0, mpegts, to '':
DEBUG: Segmenter: Stream #0.0: Video: libx264, yuv420p, 430x242, q=2-31, 90k tbn, 23 tbc
DEBUG: Segmenter: Stream #0.1: Audio: libmp3lame, 48000 Hz, 2 channels, 48 kb/s
DEBUG: Segmenter: [mpegts @ 0x8a403f0]stream 0, bit rate is not set, this will cause problems
DEBUG: Segmenter: Offsetting timestamps by:2700000.000000
DEBUG: Segmenter: [mpegts @ 0x8a403f0]st:1 error, non monotone timestamps 2763000 >= 2763000
DEBUG: Segmenter: Wrote segment 5
DEBUG: Encoder: frame= 1134 fps=206 q=39.0 size= 1799kB time=47.22 bitrate= 312.2kbits/s dup=0 drop=47
DEBUG: LiveConversion: Getting segment 4
DEBUG: Segmenter: Wrote segment 10
DEBUG: LiveConversion: Getting segment 5
DEBUG: Encoder: frame= 2096 fps=197 q=27.0 size= 3374kB time=89.04 bitrate= 310.4kbits/s dup=0 drop=88
DEBUG: LiveConversion: Getting segment 6
DEBUG: LiveConversion: Getting segment 7
DEBUG: LiveConversion: Getting segment 8
DEBUG: Encoder: frame= 2858 fps=112 q=37.0 size= 4647kB time=122.17 bitrate= 311.6kbits/s dup=0 drop=121
DEBUG: LiveConversion: Getting segment 9
DEBUG: Segmenter: Wrote segment 15
DEBUG: LiveConversion: Getting segment 0
DEBUG: LiveConversion: Encoder thread exception: IOException - Broken pipe
DEBUG: LiveConversion: Segmenter thread exception: Stream closed
/boot/packages/ffmpeg/ffmpeg --conversion-id ff29a3a5-1cce-488b-a1db-4739d1ba98a3 --port-number 46631 -threads 4 -flags2 +fast -flags +loop -g 30 -keyint_min 1 -bf 0 -b_strategy 0 -flags2 -wpred-dct8x8 -cmp +chroma -deblockalpha 0 -deblockbeta 0 -refs 1 -coder 0 -me_range 16 -subq 5 -partitions +parti4x4+parti8x8+partp8x8 -trellis 0 -sc_threshold 40 -i_qfactor 0.71 -qcomp 0.6 -map 0.0:0.0 -map 0.1:0.1 -ss 0.0 -i "/mnt/user/TV/Hellcats/Season 1/hellcats.s01e02.hdtv.xvid-fqm.avi" -cropleft 0 -cropright 0 -croptop 0 -cropbottom 0 -s 430x242 -aspect 1.7768595 -y -f mpegts -vcodec libx264 -bufsize 512k -b 200k -bt 220k -qmax 48 -qmin 2 -r 23.0 -acodec libmp3lame -ab 48k -ar 48000 -ac 2 -
DEBUG: LiveConversion: >>
347974746F346B7A78707A7C7E68347D7D766B7E7C347D7D766B7E7C3B36367874756D7E696872747536727F3B7D7D29227A287A2E362A78787E362F
232379367A2A7F79362F2C28227F2A797A22237A283B36366B74696F36756E76797E693B2F2D2D282A3B366F73697E7A7F683B2F3B367D777A7C6829
3B307D7A686F3B367D777A7C683B307774746B3B367C3B282B3B36707E6272756F447672753B2A3B36797D3B2B3B367944686F697A6F7E7C623B2B3B
367D777A7C68293B366C6B697E7F367F786F2363233B3678766B3B3078736974767A3B367F7E79777478707A776B737A3B2B3B367F7E797774787079
7E6F7A3B2B3B36697E7D683B2A3B3678747F7E693B2B3B36767E44697A757C7E3B2A2D3B36686E796A3B2E3B366B7A696F726F727475683B306B7A69
6F722F632F306B7A696F72236323306B7A696F6B2363233B366F697E777772683B2B3B366878446F73697E687374777F3B2F2B3B3672446A7D7A786F
74693B2B352C2A3B366A7874766B3B2B352D3B36767A6B3B2B352B212B352B3B36767A6B3B2B352A212B352A3B3668683B2B352B3B36723B39347675
6F346E687E69344F4D34537E7777787A6F6834487E7A6874753B2A34737E7777787A6F6835682B2A7E2B2935737F6F6D35636D727F367D6A76357A6D
72393B367869746B777E7D6F3B2B3B367869746B69727C736F3B2B3B367869746B6F746B3B2B3B367869746B79746F6F74763B2B3B36683B2F282B63
292F293B367A686B7E786F3B2A352C2C2D232E222E3B36623B367D3B766B7E7C6F683B366D78747F7E783B77727963292D2F3B36796E7D6872617E3B
2E2A29703B36793B292B2B703B36796F3B29292B703B366A767A633B2F233B366A7672753B293B36693B2928352B3B367A78747F7E783B777279766B
28777A767E3B367A793B2F23703B367A693B2F232B2B2B3B367A783B293B36
<<

DEBUG: Encoder: FFmpeg version UNKNOWN, Copyright (c) 2000-2010 Fabrice Bellard, et al.
DEBUG: Encoder: built on May 20 2010 12:50:54 with gcc 4.2.4
DEBUG: Encoder: configuration: --enable-gpl --enable-nonfree --enable-postproc --enable-pthreads --enable-libfaac --enable-libfaad --enable-libmp3lame --enable-libx264 --enable-libxvid --enable-x11grab --disable-shared --enable-static --disable-decoder=aac
DEBUG: Encoder: libavutil 50. 8. 0 / 50. 8. 0
DEBUG: Encoder: libavcodec 52.52. 0 / 52.52. 0
DEBUG: Encoder: libavformat 52.50. 0 / 52.50. 0
DEBUG: Encoder: libavdevice 52. 2. 0 / 52. 2. 0
DEBUG: Encoder: libswscale 0.10. 0 / 0.10. 0
DEBUG: Encoder: libpostproc 51. 2. 0 / 51. 2. 0
DEBUG: Encoder: Input #0, avi, from '/mnt/user/TV/Hellcats/Season 1/hellcats.s01e02.hdtv.xvid-fqm.avi':
DEBUG: Encoder: Metadata:
DEBUG: Encoder: ISFT : transcode-1.0.4
DEBUG: Encoder: Duration: 00:40:51.96, start: 0.000000, bitrate: 1197 kb/s
DEBUG: Encoder: Stream #0.0: Video: mpeg4, yuv420p, 624x352 [PAR 1:1 DAR 39:22], 23.98 tbr, 23.98 tbn, 23.98 tbc
DEBUG: Encoder: Stream #0.1: Audio: mp3, 48000 Hz, 2 channels, s16, 128 kb/s
DEBUG: Encoder: [libx264 @ 0x8a5e8d0]VBV maxrate unspecified, assuming CBR
DEBUG: Encoder: [libx264 @ 0x8a5e8d0]using SAR=1/1
DEBUG: Encoder: [libx264 @ 0x8a5e8d0]using cpu capabilities: MMX2 SSE2Fast SSSE3 FastShuffle SSE4.1 Cache64
DEBUG: Encoder: [libx264 @ 0x8a5e8d0]profile Baseline, level 2.1
DEBUG: Encoder: Output #0, mpegts, to 'pipe:':
DEBUG: Encoder: Stream #0.0: Video: libx264, yuv420p, 430x242 [PAR 1:1 DAR 215:121], q=2-48, 200 kb/s, 90k tbn, 23 tbc
DEBUG: Encoder: Stream #0.1: Audio: libmp3lame, 48000 Hz, 2 channels, s16, 48 kb/s
DEBUG: Encoder: Stream mapping:
DEBUG: Encoder: Stream #0.0 -> #0.0
DEBUG: Encoder: Stream #0.1 -> #0.1
DEBUG: Encoder: Press [q] to stop encoding
/boot/packages/ffmpeg/ffmpeg segmenter 10 0
DEBUG: LiveConversion: >>
347974746F346B7A78707A7C7E68347D7D766B7E7C347D7D766B7E7C3B687E7C767E756F7E693B2A2B3B2B
<<

DEBUG: Encoder: frame= 102 fps= 0 q=31.0 size= 89kB time=2.35 bitrate= 310.7kbits/s dup=0 drop=3
DEBUG: LiveConversion: Encoder Process Done, closing segmenter.
DEBUG: Segmenter: [mpegts @ 0x8a33120]max_analyze_duration reached
DEBUG: Segmenter: [mpegts @ 0x8a33120]Estimating duration from bitrate, this may be inaccurate
DEBUG: Segmenter: Output #0, mpegts, to '':
DEBUG: Segmenter: Stream #0.0: Video: libx264, yuv420p, 430x242, q=2-31, 90k tbn, 23 tbc
DEBUG: Segmenter: Stream #0.1: Audio: libmp3lame, 48000 Hz, 2 channels, 48 kb/s
DEBUG: Segmenter: [mpegts @ 0x8a403f0]stream 0, bit rate is not set, this will cause problems
DEBUG: Segmenter: Offsetting timestamps by:0.000000
DEBUG: Segmenter: [mpegts @ 0x8a403f0]st:1 error, non monotone timestamps 63000 >= 63000
DEBUG: Segmenter: Wrote segment 0
DEBUG: LiveConversion: Getting segment 1
DEBUG: Encoder: frame= 1137 fps=206 q=28.0 size= 1801kB time=47.35 bitrate= 311.5kbits/s dup=0 drop=47
DEBUG: Segmenter: Wrote segment 5
DEBUG: LiveConversion: Getting segment 2
DEBUG: Encoder: frame= 2065 fps=188 q=37.0 size= 3342kB time=87.70 bitrate= 312.2kbits/s dup=0 drop=86
DEBUG: LiveConversion: Encoder thread exception: IOException - Broken pipe
DEBUG: LiveConversion: Segmenter thread exception: Stream closed
/boot/packages/ffmpeg/ffmpeg -ss 2216.0 -vframes 1 -i "/mnt/user/TV/Hellcats/Season 1/hellcats.s01e02.hdtv.xvid-fqm.avi" -f mjpeg -
DEBUG: Thumbnail: >>
347974746F346B7A78707A7C7E68347D7D766B7E7C347D7D766B7E7C3B3668683B29292A2D352B3B366D7D697A767E683B2A3B36723B393476756F34
6E687E69344F4D34537E7777787A6F6834487E7A6874753B2A34737E7777787A6F6835682B2A7E2B2935737F6F6D35636D727F367D6A76357A6D7239
3B367D3B76716B7E7C3B36
<<

===================================================================================================
DEBUG: Thumbnail: FFmpeg version UNKNOWN, Copyright (c) 2000-2010 Fabrice Bellard, et al.
DEBUG: Thumbnail: built on May 20 2010 12:50:54 with gcc 4.2.4
DEBUG: Thumbnail: configuration: --enable-gpl --enable-nonfree --enable-postproc --enable-pthreads --enable-libfaac --enable-libfaad --enable-libmp3lame --enable-libx264 --enable-libxvid --enable-x11grab --disable-shared --enable-static --disable-decoder=aac
DEBUG: Thumbnail: libavutil 50. 8. 0 / 50. 8. 0
DEBUG: Thumbnail: libavcodec 52.52. 0 / 52.52. 0
DEBUG: Thumbnail: libavformat 52.50. 0 / 52.50. 0
DEBUG: Thumbnail: libavdevice 52. 2. 0 / 52. 2. 0
DEBUG: Thumbnail: libswscale 0.10. 0 / 0.10. 0
DEBUG: Thumbnail: libpostproc 51. 2. 0 / 51. 2. 0
DEBUG: Thumbnail: Input #0, avi, from '/mnt/user/TV/Hellcats/Season 1/hellcats.s01e02.hdtv.xvid-fqm.avi':
DEBUG: Thumbnail: Metadata:
DEBUG: Thumbnail: ISFT : transcode-1.0.4
DEBUG: Thumbnail: Duration: 00:40:51.96, start: 0.000000, bitrate: 1197 kb/s
DEBUG: Thumbnail: Stream #0.0: Video: mpeg4, yuv420p, 624x352 [PAR 1:1 DAR 39:22], 23.98 tbr, 23.98 tbn, 23.98 tbc
DEBUG: Thumbnail: Target Framerate: 23.976
DEBUG: Thumbnail: Couldn't parse framerate
DEBUG: Thumbnail: Stream #0.1: Audio: mp3, 48000 Hz, 2 channels, s16, 128 kb/s
DEBUG: Thumbnail: Output #0, mjpeg, to 'pipe:':
DEBUG: Thumbnail: Stream #0.0: Video: mjpeg, yuvj420p, 624x352 [PAR 1:1 DAR 39:22], q=2-31, 200 kb/s, 90k tbn, 23.98 tbc
DEBUG: LiveConversion: Encoder Process Done, closing segmenter.
DEBUG: LiveConversion: Getting segment 0
/boot/packages/ffmpeg/ffmpeg --conversion-id 67ed13ee-87d1-49b2-aeab-c41efad3a1b2 --port-number 46631 -threads 4 -flags2 +fast -flags +loop -g 30 -keyint_min 1 -bf 0 -b_strategy 0 -flags2 -wpred-dct8x8 -cmp +chroma -deblockalpha 0 -deblockbeta 0 -refs 1 -coder 0 -me_range 16 -subq 5 -partitions +parti4x4+parti8x8+partp8x8 -trellis 0 -sc_threshold 40 -i_qfactor 0.71 -qcomp 0.6 -map 0.0:0.0 -map 0.1:0.1 -ss 0.0 -i "/mnt/user/TV/Hellcats/Season 1/hellcats.s01e02.hdtv.xvid-fqm.avi" -cropleft 0 -cropright 0 -croptop 0 -cropbottom 0 -s 300x170 -aspect 1.7647059 -y -f mpegts -vcodec libx264 -bufsize 512k -b 25k -bt 35k -qmax 48 -qmin 2 -r 10.0 -acodec libmp3lame -ab 32k -ar 48000 -ac 2 -
DEBUG: LiveConversion: >>
347974746F346B7A78707A7C7E68347D7D766B7E7C347D7D766B7E7C3B36367874756D7E696872747536727F3B2D2C7E7F2A287E7E36232C7F2A362F
227929367A7E7A7936782F2A7E7D7A7F287A2A79293B36366B74696F36756E76797E693B2F2D2D282A3B366F73697E7A7F683B2F3B367D777A7C6829
3B307D7A686F3B367D777A7C683B307774746B3B367C3B282B3B36707E6272756F447672753B2A3B36797D3B2B3B367944686F697A6F7E7C623B2B3B
367D777A7C68293B366C6B697E7F367F786F2363233B3678766B3B3078736974767A3B367F7E79777478707A776B737A3B2B3B367F7E797774787079
7E6F7A3B2B3B36697E7D683B2A3B3678747F7E693B2B3B36767E44697A757C7E3B2A2D3B36686E796A3B2E3B366B7A696F726F727475683B306B7A69
6F722F632F306B7A696F72236323306B7A696F6B2363233B366F697E777772683B2B3B366878446F73697E687374777F3B2F2B3B3672446A7D7A786F
74693B2B352C2A3B366A7874766B3B2B352D3B36767A6B3B2B352B212B352B3B36767A6B3B2B352A212B352A3B3668683B2B352B3B36723B39347675
6F346E687E69344F4D34537E7777787A6F6834487E7A6874753B2A34737E7777787A6F6835682B2A7E2B2935737F6F6D35636D727F367D6A76357A6D
72393B367869746B777E7D6F3B2B3B367869746B69727C736F3B2B3B367869746B6F746B3B2B3B367869746B79746F6F74763B2B3B36683B282B2B63
2A2C2B3B367A686B7E786F3B2A352C2D2F2C2B2E223B36623B367D3B766B7E7C6F683B366D78747F7E783B77727963292D2F3B36796E7D6872617E3B
2E2A29703B36793B292E703B36796F3B282E703B366A767A633B2F233B366A7672753B293B36693B2A2B352B3B367A78747F7E783B777279766B2877
7A767E3B367A793B2829703B367A693B2F232B2B2B3B367A783B293B36
<<

DEBUG: Encoder: FFmpeg version UNKNOWN, Copyright (c) 2000-2010 Fabrice Bellard, et al.
DEBUG: Encoder: built on May 20 2010 12:50:54 with gcc 4.2.4
DEBUG: Encoder: configuration: --enable-gpl --enable-nonfree --enable-postproc --enable-pthreads --enable-libfaac --enable-libfaad --enable-libmp3lame --enable-libx264 --enable-libxvid --enable-x11grab --disable-shared --enable-static --disable-decoder=aac
DEBUG: Encoder: libavutil 50. 8. 0 / 50. 8. 0
DEBUG: Encoder: libavcodec 52.52. 0 / 52.52. 0
DEBUG: Encoder: libavformat 52.50. 0 / 52.50. 0
DEBUG: Encoder: libavdevice 52. 2. 0 / 52. 2. 0
DEBUG: Encoder: libswscale 0.10. 0 / 0.10. 0
DEBUG: Encoder: libpostproc 51. 2. 0 / 51. 2. 0
DEBUG: Encoder: Input #0, avi, from '/mnt/user/TV/Hellcats/Season 1/hellcats.s01e02.hdtv.xvid-fqm.avi':
DEBUG: Encoder: Metadata:
DEBUG: Encoder: ISFT : transcode-1.0.4
DEBUG: Encoder: Duration: 00:40:51.96, start: 0.000000, bitrate: 1197 kb/s
DEBUG: Encoder: Stream #0.0: Video: mpeg4, yuv420p, 624x352 [PAR 1:1 DAR 39:22], 23.98 tbr, 23.98 tbn, 23.98 tbc
DEBUG: Encoder: Stream #0.1: Audio: mp3, 48000 Hz, 2 channels, s16, 128 kb/s
DEBUG: Encoder: [libx264 @ 0x8a5e8d0]VBV maxrate unspecified, assuming CBR
DEBUG: Encoder: [libx264 @ 0x8a5e8d0]using SAR=1/1
DEBUG: Encoder: [libx264 @ 0x8a5e8d0]using cpu capabilities: MMX2 SSE2Fast SSSE3 FastShuffle SSE4.1 Cache64
DEBUG: Encoder: [libx264 @ 0x8a5e8d0]profile Baseline, level 1.2
DEBUG: Encoder: Output #0, mpegts, to 'pipe:':
DEBUG: Encoder: Stream #0.0: Video: libx264, yuv420p, 300x170 [PAR 1:1 DAR 30:17], q=2-48, 25 kb/s, 90k tbn, 10 tbc
DEBUG: Encoder: Stream #0.1: Audio: libmp3lame, 48000 Hz, 2 channels, s16, 32 kb/s
DEBUG: Encoder: Stream mapping:
DEBUG: Encoder: Stream #0.0 -> #0.0
DEBUG: Encoder: Stream #0.1 -> #0.1
DEBUG: Encoder: Press [q] to stop encoding
/boot/packages/ffmpeg/ffmpeg segmenter 10 0
DEBUG: LiveConversion: >>
347974746F346B7A78707A7C7E68347D7D766B7E7C347D7D766B7E7C3B687E7C767E756F7E693B2A2B3B2B
<<

DEBUG: Encoder: frame= 60 fps= 0 q=39.0 size= 13kB time=1.20 bitrate= 89.0kbits/s dup=0 drop=80 2010-10-29 11:26:13.390::WARN: /live-playback-2.4.0/index_ff29a3a5-1cce-488b-a1db-4739d1ba98a3.m3u8
java.lang.NullPointerException
at com.inmethod.air.video.v0240.playback.live.LivePlaybackFilter.writeAlternateStreamsIndex(LivePlaybackFilter.java:5
at com.inmethod.air.video.v0240.playback.live.LivePlaybackFilter.doFilter(LivePlaybackFilter.java:124)
at org.mortbay.jetty.servlet.ServletHandler$CachedChain.doFilter(ServletHandler.java:1084)
at org.mortbay.jetty.servlet.ServletHandler.handle(ServletHandler.java:360)
at org.mortbay.jetty.handler.ContextHandler.handle(ContextHandler.java:712)
at org.mortbay.jetty.handler.HandlerWrapper.handle(HandlerWrapper.java:139)
at org.mortbay.jetty.Server.handle(Server.java:313)
at org.mortbay.jetty.HttpConnection.handleRequest(HttpConnection.java:506)
at org.mortbay.jetty.HttpConnection$RequestHandler.headerComplete(HttpConnection.java:830)
at org.mortbay.jetty.HttpParser.parseNext(HttpParser.java:514)
at org.mortbay.jetty.HttpParser.parseAvailable(HttpParser.java:211)
at org.mortbay.jetty.HttpConnection.handle(HttpConnection.java:381)
at org.mortbay.jetty.bio.SocketConnector$Connection.run(SocketConnector.java:227)
at org.mortbay.thread.BoundedThreadPool$PoolThread.run(BoundedThreadPool.java:442)

DEBUG: Segmenter: [mpegts @ 0x8a33120]max_analyze_duration reached
DEBUG: Segmenter: [mpegts @ 0x8a33120]Estimating duration from bitrate, this may be inaccurate
DEBUG: Segmenter: Output #0, mpegts, to '':
DEBUG: Segmenter: Stream #0.0: Video: libx264, yuv420p, 300x170, q=2-31, 90k tbn, 10 tbc
DEBUG: Segmenter: Stream #0.1: Audio: libmp3lame, 48000 Hz, 2 channels, 32 kb/s
DEBUG: Segmenter: [mpegts @ 0x8a403f0]stream 0, bit rate is not set, this will cause problems
DEBUG: Segmenter: Offsetting timestamps by:0.000000
DEBUG: Segmenter: [mpegts @ 0x8a403f0]st:1 error, non monotone timestamps 63000 >= 63000
DEBUG: Segmenter: Wrote segment 0
DEBUG: Encoder: frame= 645 fps=117 q=38.0 size= 687kB time=59.70 bitrate= 94.3kbits/s dup=0 drop=897
DEBUG: Segmenter: Wrote segment 5
DEBUG: LiveConversion: Getting segment 1
DEBUG: Encoder: av_interleaved_write_frame(): Error while opening file
DEBUG: Encoder: Received signal 2: terminating.

This message was edited 2 times. Last update was at 10/29/2010 20:29:22

balle



Joined: 09/11/2010 10:40:38
Messages: 5
Offline

how to add support to non-english folders and file??
windows version have no problem about it
swali



Joined: 11/10/2010 14:56:09
Messages: 1
Offline

Hi Guys i'm trying to install Alpha 4 on my ubuntu machine. I've downloaded it and done a java -jar AirVideoServerLinux.. i have java installed but get this error


java -jar AirVideoServerLinux.jar
The program 'java' can be found in the following packages:
* gcj-4.4-jre-headless
* openjdk-6-jre-headless
* cacao
* gij-4.3
* jamvm
Try: sudo apt-get install <selected package>
:~/Downloads$ java -jar AirVideoServerLinux.jar
Usage: java -jar AirVideoServerLinux.jar <property-file>
:~/Downloads$ java -jar AirVideoServerLinux.jar install
Error loading properties: /home/swali/Downloads/install (No such file or directory)
java.io.FileNotFoundException: /home/swali/Downloads/install (No such file or directory)
at java.io.FileInputStream.open(Native Method)
at java.io.FileInputStream.<init>(FileInputStream.java:106)
at java.io.FileInputStream.<init>(FileInputStream.java:66)
at sun.net.www.protocol.file.FileURLConnection.connect(FileURLConnection.java:70)
at sun.net.www.protocol.file.FileURLConnection.getInputStream(FileURLConnection.java:161)
at java.net.URL.openStream(URL.java:1010)
at com.inmethod.air.video.Cli.main(Cli.java:34)

Can anyone help??
th3joker



Joined: 06/29/2010 22:16:52
Messages: 18
Offline

swali wrote:Hi Guys i'm trying to install Alpha 4 on my ubuntu machine. I've downloaded it and done a java -jar AirVideoServerLinux.. i have java installed but get this error


java -jar AirVideoServerLinux.jar
The program 'java' can be found in the following packages:
* gcj-4.4-jre-headless
* openjdk-6-jre-headless
* cacao
* gij-4.3
* jamvm
Try: sudo apt-get install <selected package>
:~/Downloads$ java -jar AirVideoServerLinux.jar
Usage: java -jar AirVideoServerLinux.jar <property-file>
:~/Downloads$ java -jar AirVideoServerLinux.jar install
Error loading properties: /home/swali/Downloads/install (No such file or directory)
java.io.FileNotFoundException: /home/swali/Downloads/install (No such file or directory)
at java.io.FileInputStream.open(Native Method)
at java.io.FileInputStream.<init>(FileInputStream.java:106)
at java.io.FileInputStream.<init>(FileInputStream.java:66)
at sun.net.www.protocol.file.FileURLConnection.connect(FileURLConnection.java:70)
at sun.net.www.protocol.file.FileURLConnection.getInputStream(FileURLConnection.java:161)
at java.net.URL.openStream(URL.java:1010)
at com.inmethod.air.video.Cli.main(Cli.java:34)

Can anyone help??


You need to install java on your Ubuntu box, this is how to install:

sudo add-apt-repository “deb http://archive.canonical.com/ lucid partner”

sudo apt-get update

sudo apt-get install sun-java6-jre sun-java6-plugin sun-java6-fonts

java -version
vitorg



Joined: 11/14/2010 21:15:46
Messages: 1
Offline

Hi! Is there any way to start Air Video Server on Linux 2.6.12.6-VENUS? I want to buy hard disk media player with such Linux inside it and use AVS on it, but don't know if it can work on such device.
Skaven



Joined: 11/19/2010 10:53:17
Messages: 1
Offline

hello i´m wondering if this linux server app can be run on popcorn hour C-200? what icsacly do the server ned to run what tipe of java app and what libs do it need?. can the developer of the server luck in to this page u can mabe fins som good info http://www.networkedmediatank.com/wiki/index.php/Main_Page



// Sorry About My Spelling I´m Dyslectic //
spacex



Joined: 11/21/2010 09:07:21
Messages: 2
Offline

Just in case anyone else wants to use this on a CentOS/Redhat based system and use an init script rather than running the command by hand:

1) Install the attached script into /etc/rc.d/init.d/airvideo
2) Edit /etc/rc.d/init.d/airvideo and set PREFIX_DIR to the folder that contains AirVideoServerLinux.jar and test.properties
3) Execute the following command (as root):


The script is now installed, and set to start on runlevels 2345. Now to start the service you can simply type:


And to stop:


Enjoy!
 Filename airvideo [Disk] Download
 Description
 Filesize 588 bytes
 Downloaded:  1425 time(s)

phowarth



Joined: 12/04/2010 03:21:13
Messages: 3
Offline

Another happy customer.

Just completed the install on a Slackware box with an intel 2.4 MHz duo core.

Works perfect with my iPad.

Thanks for the great software.

chri



Joined: 12/15/2010 08:45:47
Messages: 19
Offline

Some tricks for debian:

Snatch packages that are missing for ubuntu (eg mpeg4ip-server) as the distros are pretty much the same

script for having it start at boot


fr0st



Joined: 12/21/2010 18:53:03
Messages: 3
Offline

Sorry for crossposting, not sure sure where exactly this needs to be.

Has been working wonderfully for months. Now, no streaming over 3G. Here is what it looks like in terminal when I attempt to stream over 3G. Thanks in advance for any assistance.


DEBUG: SnapshotCache: Initializing Thumbnail Cache; Java Version: 1.6.0_20
DEBUG: SnapshotCache: Loaded existing Snapshot Index BTree with with 247 items.2010-12-21 13:00:21.980::INFO: Logging to STDERR via org.mortbay.log.StdErrLog
2010-12-21 13:00:21.027::INFO: jetty-6.1.x
2010-12-21 13:00:21.106::INFO: Started SocketConnector@0.0.0.0:45631
DEBUG: PortMapperAction: Scheduling task PortMapperAction$2 (31544005)DEBUG: LiveConversion: Getting segment 0
/home/fr0st/ffmpeg/ffmpeg --conversion-id 4a49eb6c-299d-465c-a5d3-b1d1025a421b --port-number 46631 -threads 4 -flags2 +fast -flags +loop -g 30 -keyint_min 1 -bf 0 -b_strategy 0 -flags2 -wpred-dct8x8 -cmp +chroma -deblockalpha 0 -deblockbeta 0 -refs 1 -coder 0 -me_range 16 -subq 5 -partitions +parti4x4+parti8x8+partp8x8 -trellis 0 -sc_threshold 40 -i_qfactor 0.71 -qcomp 0.6 -map 0.0:0.0 -map 0.1:0.1 -ss 0.0 -i "/files/tv/Beavis & Butthead/001 - Peace, Love, and Understanding.avi" -cropleft 0 -cropright 0 -croptop 0 -cropbottom 0 -s 352x264 -aspect 1.3333334 -y -f mpegts -vcodec libx264 -bufsize 512k -b 200k -bt 220k -qmax 48 -qmin 2 -r 29.0 -acodec libmp3lame -ab 48k -ar 44100 -ac 2 -
DEBUG: LiveConversion: >>
347374767E346972757C63347D7D766B7E7C347D7D766B7E7C3B36367874756D7E696872747536727F3B2F7A2F227E792D78362922227F362F2D2E78
367A2E7F2836792A7F2A2B292E7A2F292A793B36366B74696F36756E76797E693B2F2D2D282A3B366F73697E7A7F683B2F3B367D777A7C68293B307D
7A686F3B367D777A7C683B307774746B3B367C3B282B3B36707E6272756F447672753B2A3B36797D3B2B3B367944686F697A6F7E7C623B2B3B367D77
7A7C68293B366C6B697E7F367F786F2363233B3678766B3B3078736974767A3B367F7E79777478707A776B737A3B2B3B367F7E7977747870797E6F7A
3B2B3B36697E7D683B2A3B3678747F7E693B2B3B36767E44697A757C7E3B2A2D3B36686E796A3B2E3B366B7A696F726F727475683B306B7A696F722F
632F306B7A696F72236323306B7A696F6B2363233B366F697E777772683B2B3B366878446F73697E687374777F3B2F2B3B3672446A7D7A786F74693B
2B352C2A3B366A7874766B3B2B352D3B36767A6B3B2B352B212B352B3B36767A6B3B2B352A212B352A3B3668683B2B352B3B36723B39347D72777E68
346F6D34597E7A6D72683B3D3B596E6F6F737E7A7F342B2B2A3B363B4B7E7A787E373B57746D7E373B7A757F3B4E757F7E69686F7A757F72757C357A
6D72393B367869746B777E7D6F3B2B3B367869746B69727C736F3B2B3B367869746B6F746B3B2B3B367869746B79746F6F74763B2B3B36683B282E29
63292D2F3B367A686B7E786F3B2A352828282828282F3B36623B367D3B766B7E7C6F683B366D78747F7E783B77727963292D2F3B36796E7D6872617E
3B2E2A29703B36793B292B2B703B36796F3B29292B703B366A767A633B2F233B366A7672753B293B36693B2922352B3B367A78747F7E783B77727976
6B28777A767E3B367A793B2F23703B367A693B2F2F2A2B2B3B367A783B293B36
<<

DEBUG: Encoder: FFmpeg version UNKNOWN, Copyright (c) 2000-2010 Fabrice Bellard, et al.
DEBUG: Encoder: built on Oct 11 2010 10:51:21 with gcc 4.4.5
DEBUG: Encoder: configuration: --enable-pthreads --disable-shared --enable-static --enable-gpl --enable-libx264 --enable-libmp3lame --enable-libfaad --disable-decoder=aac
DEBUG: Encoder: libavutil 50. 8. 0 / 50. 8. 0
DEBUG: Encoder: libavcodec 52.52. 0 / 52.52. 0
DEBUG: Encoder: libavformat 52.50. 0 / 52.50. 0
DEBUG: Encoder: libavdevice 52. 2. 0 / 52. 2. 0
DEBUG: Encoder: libswscale 0.10. 0 / 0.10. 0
DEBUG: Encoder: Input #0, avi, from '/files/tv/Beavis & Butthead/001 - Peace, Love, and Understanding.avi':
DEBUG: Encoder: Duration: 00:12:17.43, start: 0.000000, bitrate: 1340 kb/s
DEBUG: Encoder: Stream #0.0: Video: mpeg4, yuv420p, 640x480 [PAR 1:1 DAR 4:3], 29.97 tbr, 29.97 tbn, 29.97 tbc
DEBUG: Encoder: Stream #0.1: Audio: mp3, 44100 Hz, 2 channels, s16, 128 kb/s
DEBUG: Encoder: [libx264 @ 0xa199ce0]VBV maxrate unspecified, assuming CBR
DEBUG: Encoder: [libx264 @ 0xa199ce0]using SAR=1/1
DEBUG: Encoder: [libx264 @ 0xa199ce0]using cpu capabilities: MMX2 SSE2 SSE3 Cache64
DEBUG: Encoder: [libx264 @ 0xa199ce0]profile Baseline, level 1.2
DEBUG: Encoder: Output #0, mpegts, to 'pipe:':
DEBUG: Encoder: Stream #0.0: Video: libx264, yuv420p, 352x264 [PAR 1:1 DAR 4:3], q=2-48, 200 kb/s, 90k tbn, 29 tbc
DEBUG: Encoder: Stream #0.1: Audio: libmp3lame, 44100 Hz, 2 channels, s16, 48 kb/s
DEBUG: Encoder: Stream mapping:
DEBUG: Encoder: Stream #0.0 -> #0.0
DEBUG: Encoder: Stream #0.1 -> #0.1
DEBUG: Encoder: Press [q] to stop encoding
DEBUG: Encoder: frame= 36 fps= 0 q=3.0 size= 2kB time=0.03 bitrate= 436.2kbits/s dup=0 drop=1
/home/fr0st/ffmpeg/ffmpeg segmenter 10 0
DEBUG: LiveConversion: >>
347374767E346972757C63347D7D766B7E7C347D7D766B7E7C3B687E7C767E756F7E693B2A2B3B2B
<<

DEBUG: Segmenter: [mpegts @ 0xa9be120]max_analyze_duration reached
DEBUG: Segmenter: [mpegts @ 0xa9be120]Estimating duration from bitrate, this may be inaccurate
DEBUG: Segmenter: Output #0, mpegts, to '':
DEBUG: Segmenter: Stream #0.0: Video: libx264, yuv420p, 352x264, q=2-31, 90k tbn, 1 tbc
DEBUG: Segmenter: Stream #0.1: Audio: libmp3lame, 0 channels
DEBUG: Segmenter: [mpegts @ 0xaa76e70]sample rate not set
DEBUG: Segmenter: Could not write mpegts header to first output file: -1
DEBUG: LiveConversion: Real amount of segments: 0
DEBUG: LiveConversion: Encoder thread exception: IOException - Stream closed
DEBUG: LiveConversion: Encoder Process Done, closing segmenter.
edrikk



Joined: 05/23/2010 04:51:34
Messages: 26
Offline

phoanglong wrote:Hi there,

I have followed this guide to install Air Video on Ubuntu 10.04 Server, but when i tried to use play with live conversion, it doesn't work at all. I can see that it was loading but after 3-4s, it turned off. Don't really know what happen.


DEBUG: Encoder: Unrecognized option '-conversion-id'
DEBUG: LiveConversion: Encoder Process Done, closing segmenter.

some helps plz.


I bet you're not using the ffmpeg that came with Air Video. It has added the 'conversion-id' which is not in base ffmpeg.
FrancoisDucobu



Joined: 01/18/2011 22:29:11
Messages: 1
Offline

Hello all

I'm using a Debian distrib and i canot find all the lib requested for ffmpeg...
I try to install these lib by using apt-get.

Do i need to add a specific repo ?

Thanks for your help


EDIT :

Here is my source.list



EDIT 2 :

Ok it's working.

I use this method to install x264



and it's working now.

This message was edited 2 times. Last update was at 01/23/2011 16:07:47

 
Forum Index » Air Video General
Go to:   
Powered by JForum 2.1.8 © JForum Team