[Logo] Air Video Forum
  [Search] Search   [Recent Topics] Recent Topics   [Hottest Topics] Hottest Topics   [Members]  Member Listing   [Groups] Back to home page 
[Moderation Log] Moderation Log   [Register] Register / 
[Login] Login 
New version wont work with folders with many files  XML
Forum Index » Air Video Problems and Solutions
Author Message
jdil



Joined: 06/14/2010 09:58:06
Messages: 10
Offline

DavePDX wrote:I have the same issue on both my iPad and my iPhone, both running 3.x, and also on my old 3G which is running 4.1. The problem isn't as bad on the 3G....it does work, but it's a lot slower than the previous version (2.2.4).

I downgraded the iOS apps to the previous version, and everything started working fine again. So, the problem is not the server app, it's the iOS app.

For me, the problem seems isolated to folders with mp4s, even one with 40 files exhibits the issue.


Hi, how do you downgrade to an older app version ?
Thanks
Admin



Joined: 08/23/2009 08:49:34
Messages: 8705
Offline

What kind of NAS? SMB? (Windows file sharing)
What operating system do you use?
Admin



Joined: 08/23/2009 08:49:34
Messages: 8705
Offline

Can you please try 2.4.3 beta1 (only for OS X so far)

It might be necessary to clear the thumbnail cache

http://inmethod.com/forum/posts/list/2217.page

This message was edited 1 time. Last update was at 09/15/2010 02:07:47

DavePDX



Joined: 09/14/2010 21:38:48
Messages: 18
Offline

Admin wrote:The server uses different approach for loading thumbnails with new client and the old client, so it still can be server side problem. Do you have problems on local folders or remote folders? What is your computer configuration? The new approach loads multiple thumbnails in parallel (so in most situations it is a lot faster than the old approach), however apparently it doesn't work quite well for everyone.


Configuration: MacMini 2GB running 10.5.8, Airport Extreme. iPad 3G- iOS 3.2, iPhone 3Gs- iOS 3.1.3 , iPhone 3G - iOS 4.1.

So I went to test this reinstalled version 2.4, and it works OK now. Is it possible that the server is doing some background caching that just hadn't completed when I first tested this?

While it works 'ok', when running on WiFi it's noticeably slower to start videos and create the thumbnail list than the previous version.
On 3G however, though I rarely use it, performance is noticeably improved.

This message was edited 1 time. Last update was at 09/15/2010 02:40:36

DavePDX



Joined: 09/14/2010 21:38:48
Messages: 18
Offline

jdil wrote:
DavePDX wrote:I have the same issue on both my iPad and my iPhone, both running 3.x, and also on my old 3G which is running 4.1. The problem isn't as bad on the 3G....it does work, but it's a lot slower than the previous version (2.2.4).

I downgraded the iOS apps to the previous version, and everything started working fine again. So, the problem is not the server app, it's the iOS app.

For me, the problem seems isolated to folders with mp4s, even one with 40 files exhibits the issue.


Hi, how do you downgrade to an older app version ?
Thanks


I always save a copy of the previous version when I upgrade apps, for exactly this reason. So it's just a question of deleting the new version, and reinstalling the older one.

This message was edited 1 time. Last update was at 09/15/2010 22:24:51

absolutfab



Joined: 09/14/2010 01:37:56
Messages: 12
Offline

this beta work better, but same issue...

it load the thumbnails faster, but when you scroll for more it stuck again...

so i resume, faster previewing but when you scroll down slowly 3 or 5 files, it's ok..
but when you scroll all the way down, same issue... spinning wheel endlessly..

Sorry man...
And by the way, thank you for your support
DavePDX



Joined: 09/14/2010 21:38:48
Messages: 18
Offline

Admin wrote:Can you please try 2.4.3 beta1 (only for OS X so far)

It might be necessary to clear the thumbnail cache

http://inmethod.com/forum/posts/list/2217.page


I just tried this version, (cleared the thumbnail cache first) and it's quite slow again. So it seems there's a bunch of thumbnail caching that needs to be done before it's usable.

This message was edited 1 time. Last update was at 09/15/2010 02:55:16

theevaluator



Joined: 04/13/2010 21:58:57
Messages: 2
Offline

since updating, the product is just plain broken for me. i've tried clearing the cache, and now just installed the beta after updating to todays earlier release and following the boards here very closely. i still get red "invalid" flags on at least half of my videos, and extremely slow performance. in fact, i don't get any thumbnails at all, and i can't play any videos. i'm running a brand spanking new mac mini with 4 gig of ram, with my media running on a netgear readynas pro connected via ethernet mounted via AFP. this combination used to result in fairly screaming performance, as you could imagine...but something in this latest release is really broken. as i mentioned, latest updates, and clearing the cache don't work. i'm giving this a few more days, and then updating my review to reflect that the app doesn't work any more and moving on to the competition i guess. i'm hoping the developer/s can figure this out quickly.
Admin



Joined: 08/23/2009 08:49:34
Messages: 8705
Offline

Can you post thumbnail generation log here? Preferable after browsing folders with clean cache (or temporary rename the folders), so that Air Video tries to load the thumbnails. We are taking this seriously and want to resolve it as soon as possible.
Admin



Joined: 08/23/2009 08:49:34
Messages: 8705
Offline

Also it would be extremely helpful if someone with problems with thumbnail generation on network drive could copy the files to local drive and try to browse the folder with Air Video. This would narrow the problem down to network drives.
jdil



Joined: 06/14/2010 09:58:06
Messages: 10
Offline

Admin wrote:Also it would be extremely helpful if someone with problems with thumbnail generation on network drive could copy the files to local drive and try to browse the folder with Air Video. This would narrow the problem down to network drives.


Cant' do that unfortunately. Transferring 800GB of files is both undoable (too small local drive) and too time consuming.
If I can summarize from my end.
Air video server 2.4.2. both on windows and mac 10.6.4
Files on two different LaCie networsk space 1T.
using either ipad or iphone 3GS, worked fine until last three versions.
any folder cotaining avi or mp4 will work flawlessly albeit a tad slow. Anything beyond 40 will either freeze or avail only the first 40 files.

Herbelow a copy of the log after clearing the cache
2010-09-15 21:44:59 Thumbnail: >>
39345A6B6B7772787A6F72747568345A72693B4D727F7E743B487E696D7E69357A6B6B345874756F7E756F6834497E68746E69787E68347D7D766B7E
7C393B3668683B222B2B352B3B366D7D697A767E683B2A3B36723B39344D74776E767E6834746B7E7568737A697E34767E7F727A344D727F7E746834
5D72777668345A757C777A7268345A786F7274753459777A7F7E3B696E75757E693B6D74686F446B7A696F2A357A6D72393B367D3B76716B7E7C3B36
<<

===================================================================================================
2010-09-15 21:44:59 Thumbnail: >>
39345A6B6B7772787A6F72747568345A72693B4D727F7E743B487E696D7E69357A6B6B345874756F7E756F6834497E68746E69787E68347D7D766B7E
7C393B3668683B222B2B352B3B366D7D697A767E683B2A3B36723B39344D74776E767E6834746B7E7568737A697E34767E7F727A344D727F7E746834
5D72777668345A757C777A7268345A786F7274753459777A7F7E3B696E75757E693B6D74686F446B7A696F29357A6D72393B367D3B76716B7E7C3B36
<<

===================================================================================================
2010-09-15 21:44:59 Thumbnail: FFmpeg version UNKNOWN, Copyright (c) 2000-2010 Fabrice Bellard, et al.
2010-09-15 21:44:59 Thumbnail: built on Feb 7 2010 11:39:45 with gcc 4.0.1 (Apple Inc. build 5493)
2010-09-15 21:44:59 Thumbnail: configuration: --enable-pthreads --disable-shared --enable-static --enable-gpl --enable-libx264 --enable-libmp3lame --enable-libfaad --disable-decoder=aac
2010-09-15 21:44:59 Thumbnail: libavutil 50. 8. 0 / 50. 8. 0
2010-09-15 21:44:59 Thumbnail: libavcodec 52.52. 0 / 52.52. 0
2010-09-15 21:44:59 Thumbnail: libavformat 52.50. 0 / 52.50. 0
2010-09-15 21:44:59 Thumbnail: libavdevice 52. 2. 0 / 52. 2. 0
2010-09-15 21:44:59 Thumbnail: libswscale 0.10. 0 / 0.10. 0
2010-09-15 21:44:59 Thumbnail: FFmpeg version UNKNOWN, Copyright (c) 2000-2010 Fabrice Bellard, et al.
2010-09-15 21:44:59 Thumbnail: built on Feb 7 2010 11:39:45 with gcc 4.0.1 (Apple Inc. build 5493)
2010-09-15 21:44:59 Thumbnail: configuration: --enable-pthreads --disable-shared --enable-static --enable-gpl --enable-libx264 --enable-libmp3lame --enable-libfaad --disable-decoder=aac
2010-09-15 21:44:59 Thumbnail: libavutil 50. 8. 0 / 50. 8. 0
2010-09-15 21:44:59 Thumbnail: libavcodec 52.52. 0 / 52.52. 0
2010-09-15 21:44:59 Thumbnail: libavformat 52.50. 0 / 52.50. 0
2010-09-15 21:44:59 Thumbnail: libavdevice 52. 2. 0 / 52. 2. 0
2010-09-15 21:44:59 Thumbnail: libswscale 0.10. 0 / 0.10. 0
2010-09-15 21:44:59 Thumbnail: FFmpeg version UNKNOWN, Copyright (c) 2000-2010 Fabrice Bellard, et al.
2010-09-15 21:44:59 Thumbnail: built on Feb 7 2010 11:39:45 with gcc 4.0.1 (Apple Inc. build 5493)
2010-09-15 21:44:59 Thumbnail: configuration: --enable-pthreads --disable-shared --enable-static --enable-gpl --enable-libx264 --enable-libmp3lame --enable-libfaad --disable-decoder=aac
2010-09-15 21:44:59 Thumbnail: libavutil 50. 8. 0 / 50. 8. 0
2010-09-15 21:44:59 Thumbnail: libavcodec 52.52. 0 / 52.52. 0
2010-09-15 21:44:59 Thumbnail: libavformat 52.50. 0 / 52.50. 0
2010-09-15 21:44:59 Thumbnail: libavdevice 52. 2. 0 / 52. 2. 0
2010-09-15 21:44:59 Thumbnail: libswscale 0.10. 0 / 0.10. 0
2010-09-15 21:44:59 Thumbnail: FFmpeg version UNKNOWN, Copyright (c) 2000-2010 Fabrice Bellard, et al.
2010-09-15 21:44:59 Thumbnail: built on Feb 7 2010 11:39:45 with gcc 4.0.1 (Apple Inc. build 5493)
2010-09-15 21:44:59 Thumbnail: configuration: --enable-pthreads --disable-shared --enable-static --enable-gpl --enable-libx264 --enable-libmp3lame --enable-libfaad --disable-decoder=aac
2010-09-15 21:44:59 Thumbnail: libavutil 50. 8. 0 / 50. 8. 0
2010-09-15 21:44:59 Thumbnail: libavcodec 52.52. 0 / 52.52. 0
2010-09-15 21:44:59 Thumbnail: libavformat 52.50. 0 / 52.50. 0
2010-09-15 21:44:59 Thumbnail: libavdevice 52. 2. 0 / 52. 2. 0
2010-09-15 21:44:59 Thumbnail: libswscale 0.10. 0 / 0.10. 0
2010-09-15 21:44:59 Thumbnail: FFmpeg version UNKNOWN, Copyright (c) 2000-2010 Fabrice Bellard, et al.
2010-09-15 21:44:59 Thumbnail: built on Feb 7 2010 11:39:45 with gcc 4.0.1 (Apple Inc. build 5493)
2010-09-15 21:44:59 Thumbnail: configuration: --enable-pthreads --disable-shared --enable-static --enable-gpl --enable-libx264 --enable-libmp3lame --enable-libfaad --disable-decoder=aac
2010-09-15 21:44:59 Thumbnail: libavutil 50. 8. 0 / 50. 8. 0
2010-09-15 21:44:59 Thumbnail: libavcodec 52.52. 0 / 52.52. 0
2010-09-15 21:44:59 Thumbnail: libavformat 52.50. 0 / 52.50. 0
2010-09-15 21:44:59 Thumbnail: libavdevice 52. 2. 0 / 52. 2. 0
2010-09-15 21:44:59 Thumbnail: libswscale 0.10. 0 / 0.10. 0
2010-09-15 21:45:00 Thumbnail: >>
39345A6B6B7772787A6F72747568345A72693B4D727F7E743B487E696D7E69357A6B6B345874756F7E756F6834497E68746E69787E68347D7D766B7E
7C393B3668683B222B2B352B3B366D7D697A767E683B2A3B36723B39344D74776E767E6834746B7E7568737A697E34767E7F727A344D727F7E746834
5D72777668345A757C777A7268345A786F72747534597774747F3B7F727A7674757F357A6D72393B367D3B76716B7E7C3B36
<<

===================================================================================================
2010-09-15 21:45:00 Thumbnail: FFmpeg version UNKNOWN, Copyright (c) 2000-2010 Fabrice Bellard, et al.
2010-09-15 21:45:00 Thumbnail: built on Feb 7 2010 11:39:45 with gcc 4.0.1 (Apple Inc. build 5493)
2010-09-15 21:45:00 Thumbnail: configuration: --enable-pthreads --disable-shared --enable-static --enable-gpl --enable-libx264 --enable-libmp3lame --enable-libfaad --disable-decoder=aac
2010-09-15 21:45:00 Thumbnail: libavutil 50. 8. 0 / 50. 8. 0
2010-09-15 21:45:00 Thumbnail: libavcodec 52.52. 0 / 52.52. 0
2010-09-15 21:45:00 Thumbnail: libavformat 52.50. 0 / 52.50. 0
2010-09-15 21:45:00 Thumbnail: libavdevice 52. 2. 0 / 52. 2. 0
2010-09-15 21:45:00 Thumbnail: libswscale 0.10. 0 / 0.10. 0
2010-09-15 21:45:02 Thumbnail:
2010-09-15 21:45:02 Thumbnail: Seems stream 0 codec frame rate differs from container frame rate: 30000.00 (30000/1) -> 25.00 (25/1)
2010-09-15 21:45:02 Thumbnail: Input #0, avi, from '/Volumes/openshare/media/Videos/Films/Anglais/Action/Apollo 13 vost_part1.avi':
2010-09-15 21:45:02 Thumbnail: Metadata:
2010-09-15 21:45:02 Thumbnail: ISFT : VirtualDubMod 1.5.10.1 (build 2439/release)
2010-09-15 21:45:02 Thumbnail: Duration: 01:06:31.76, start: 0.000000, bitrate: 1351 kb/s
2010-09-15 21:45:02 Thumbnail: Stream #0.0: Video: mpeg4, yuv420p, 640x368 [PAR 1:1 DAR 40:23], 25 fps, 25 tbr, 25 tbn, 30k tbc
2010-09-15 21:45:02 Thumbnail: Target Framerate: 25.0
2010-09-15 21:45:02 Thumbnail: Couldn't parse framerate
2010-09-15 21:45:02 Thumbnail: Stream #0.1: Audio: mp3, 48000 Hz, 2 channels, s16, 128 kb/s
2010-09-15 21:45:02 Thumbnail: Output #0, mjpeg, to 'pipe:':
2010-09-15 21:45:02 Thumbnail: Stream #0.0: Video: mjpeg, yuvj420p, 640x368 [PAR 1:1 DAR 40:23], q=2-31, 200 kb/s, 90k tbn, 25 tbc
2010-09-15 21:45:03 Thumbnail:
2010-09-15 21:45:03 Thumbnail: Seems stream 0 codec frame rate differs from container frame rate: 30000.00 (30000/1) -> 25.00 (25/1)
2010-09-15 21:45:03 Thumbnail: Input #0, avi, from '/Volumes/openshare/media/Videos/Films/Anglais/Action/Apollo 13 vost_part2.avi':
2010-09-15 21:45:03 Thumbnail: Metadata:
2010-09-15 21:45:03 Thumbnail: ISFT : VirtualDubMod 1.5.10.1 (build 2439/release)
2010-09-15 21:45:03 Thumbnail: Duration: 01:07:23.76, start: 0.000000, bitrate: 1338 kb/s
2010-09-15 21:45:03 Thumbnail: Stream #0.0: Video: mpeg4, yuv420p, 640x368 [PAR 1:1 DAR 40:23], 25 fps, 25 tbr, 25 tbn, 30k tbc
2010-09-15 21:45:03 Thumbnail: Target Framerate: 25.0
2010-09-15 21:45:03 Thumbnail: Couldn't parse framerate
2010-09-15 21:45:03 Thumbnail: Stream #0.1: Audio: mp3, 48000 Hz, 2 channels, s16, 128 kb/s
2010-09-15 21:45:03 Thumbnail: Output #0, mjpeg, to 'pipe:':
2010-09-15 21:45:03 Thumbnail: Stream #0.0: Video: mjpeg, yuvj420p, 640x368 [PAR 1:1 DAR 40:23], q=2-31, 200 kb/s, 90k tbn, 25 tbc
2010-09-15 21:45:05 Thumbnail:
2010-09-15 21:45:05 Thumbnail: Seems stream 0 codec frame rate differs from container frame rate: 30000.00 (30000/1) -> 20.00 (20/1)
2010-09-15 21:45:05 Thumbnail: Input #0, avi, from '/Volumes/openshare/media/Videos/Films/Anglais/Action/Blade runner vost_part1.avi':
2010-09-15 21:45:05 Thumbnail: Metadata:
2010-09-15 21:45:05 Thumbnail: ISFT : VirtualDubMod 1.5.10.1 (build 2439/release)
2010-09-15 21:45:05 Thumbnail: Duration: 00:55:30.85, start: 0.000000, bitrate: 1623 kb/s
2010-09-15 21:45:05 Thumbnail: Stream #0.0: Video: mpeg4, yuv420p, 640x368 [PAR 1:1 DAR 40:23], 20 fps, 20 tbr, 20 tbn, 30k tbc
2010-09-15 21:45:05 Thumbnail: Target Framerate: 20.0
2010-09-15 21:45:05 Thumbnail: Couldn't parse framerate
2010-09-15 21:45:05 Thumbnail: Stream #0.1: Audio: mp3, 48000 Hz, 2 channels, s16, 128 kb/s
2010-09-15 21:45:05 Thumbnail: Output #0, mjpeg, to 'pipe:':
2010-09-15 21:45:05 Thumbnail: Stream #0.0: Video: mjpeg, yuvj420p, 640x368 [PAR 1:1 DAR 40:23], q=2-31, 200 kb/s, 90k tbn, 20 tbc
2010-09-15 21:45:07 Thumbnail:
2010-09-15 21:45:07 Thumbnail: Seems stream 0 codec frame rate differs from container frame rate: 30000.00 (30000/1) -> 20.00 (20/1)
2010-09-15 21:45:07 Thumbnail: Input #0, avi, from '/Volumes/openshare/media/Videos/Films/Anglais/Action/Blade runner vost_part2.avi':
2010-09-15 21:45:07 Thumbnail: Metadata:
2010-09-15 21:45:07 Thumbnail: ISFT : VirtualDubMod 1.5.10.1 (build 2439/release)
2010-09-15 21:45:07 Thumbnail: Duration: 00:56:28.40, start: 0.000000, bitrate: 1598 kb/s
2010-09-15 21:45:07 Thumbnail: Stream #0.0: Video: mpeg4, yuv420p, 640x368 [PAR 1:1 DAR 40:23], 20 fps, 20 tbr, 20 tbn, 30k tbc
2010-09-15 21:45:07 Thumbnail: Target Framerate: 20.0
2010-09-15 21:45:07 Thumbnail: Couldn't parse framerate
2010-09-15 21:45:07 Thumbnail: Stream #0.1: Audio: mp3, 48000 Hz, 2 channels, s16, 128 kb/s
2010-09-15 21:45:07 Thumbnail: Output #0, mjpeg, to 'pipe:':
2010-09-15 21:45:07 Thumbnail: Stream #0.0: Video: mjpeg, yuvj420p, 640x368 [PAR 1:1 DAR 40:23], q=2-31, 200 kb/s, 90k tbn, 20 tbc
2010-09-15 21:45:08 Thumbnail: Threads haven't finished in time. Destroying.
2010-09-15 21:45:08 Thumbnail: >>
39345A6B6B7772787A6F72747568345A72693B4D727F7E743B487E696D7E69357A6B6B345874756F7E756F6834497E68746E69787E68347D7D766B7E
7C393B3668683B2B352B3B366D7D697A767E683B2A3B36723B39344D74776E767E6834746B7E7568737A697E34767E7F727A344D727F7E7468345D72
777668345A757C777A7268345A786F727475345A757C7E683B7E6F3B7F7E76747568357A6D72393B367D3B76716B7E7C3B36
<<

===================================================================================================
2010-09-15 21:45:08 Thumbnail: Threads haven't finished in time. Destroying.
2010-09-15 21:45:08 Thumbnail: >>
39345A6B6B7772787A6F72747568345A72693B4D727F7E743B487E696D7E69357A6B6B345874756F7E756F6834497E68746E69787E68347D7D766B7E
7C393B3668683B2B352B3B366D7D697A767E683B2A3B36723B39344D74776E767E6834746B7E7568737A697E34767E7F727A344D727F7E7468345D72
777668345A757C777A7268345A786F727475345A767E6972787A753B7C7A757C686F7E69357A6D72393B367D3B76716B7E7C3B36
<<

===================================================================================================
2010-09-15 21:45:08 Thumbnail: FFmpeg version UNKNOWN, Copyright (c) 2000-2010 Fabrice Bellard, et al.
2010-09-15 21:45:08 Thumbnail: built on Feb 7 2010 11:39:45 with gcc 4.0.1 (Apple Inc. build 5493)
2010-09-15 21:45:08 Thumbnail: configuration: --enable-pthreads --disable-shared --enable-static --enable-gpl --enable-libx264 --enable-libmp3lame --enable-libfaad --disable-decoder=aac
2010-09-15 21:45:08 Thumbnail: libavutil 50. 8. 0 / 50. 8. 0
2010-09-15 21:45:08 Thumbnail: libavcodec 52.52. 0 / 52.52. 0
2010-09-15 21:45:08 Thumbnail: libavformat 52.50. 0 / 52.50. 0
2010-09-15 21:45:08 Thumbnail: libavdevice 52. 2. 0 / 52. 2. 0
2010-09-15 21:45:08 Thumbnail: libswscale 0.10. 0 / 0.10. 0
2010-09-15 21:45:08 Thumbnail: Threads haven't finished in time. Destroying.
2010-09-15 21:45:08 Thumbnail: >>
39345A6B6B7772787A6F72747568345A72693B4D727F7E743B487E696D7E69357A6B6B345874756F7E756F6834497E68746E69787E68347D7D766B7E
7C393B3668683B2B352B3B366D7D697A767E683B2A3B36723B39344D74776E767E6834746B7E7568737A697E34767E7F727A344D727F7E7468345D72
777668345A757C777A7268345A786F727475347A69767A7C7E7F7F74753B6D74686F357A6D72393B367D3B76716B7E7C3B36
<<

===================================================================================================
2010-09-15 21:45:08 Thumbnail: FFmpeg version UNKNOWN, Copyright (c) 2000-2010 Fabrice Bellard, et al.
2010-09-15 21:45:08 Thumbnail: built on Feb 7 2010 11:39:45 with gcc 4.0.1 (Apple Inc. build 5493)
2010-09-15 21:45:08 Thumbnail: configuration: --enable-pthreads --disable-shared --enable-static --enable-gpl --enable-libx264 --enable-libmp3lame --enable-libfaad --disable-decoder=aac
2010-09-15 21:45:08 Thumbnail: libavutil 50. 8. 0 / 50. 8. 0
2010-09-15 21:45:08 Thumbnail: libavcodec 52.52. 0 / 52.52. 0
2010-09-15 21:45:08 Thumbnail: libavformat 52.50. 0 / 52.50. 0
2010-09-15 21:45:08 Thumbnail: libavdevice 52. 2. 0 / 52. 2. 0
2010-09-15 21:45:08 Thumbnail: libswscale 0.10. 0 / 0.10. 0
2010-09-15 21:45:08 Thumbnail: FFmpeg version UNKNOWN, Copyright (c) 2000-2010 Fabrice Bellard, et al.
2010-09-15 21:45:08 Thumbnail: built on Feb 7 2010 11:39:45 with gcc 4.0.1 (Apple Inc. build 5493)
2010-09-15 21:45:08 Thumbnail: configuration: --enable-pthreads --disable-shared --enable-static --enable-gpl --enable-libx264 --enable-libmp3lame --enable-libfaad --disable-decoder=aac
2010-09-15 21:45:08 Thumbnail: libavutil 50. 8. 0 / 50. 8. 0
2010-09-15 21:45:08 Thumbnail: libavcodec 52.52. 0 / 52.52. 0
2010-09-15 21:45:08 Thumbnail: libavformat 52.50. 0 / 52.50. 0
2010-09-15 21:45:08 Thumbnail: libavdevice 52. 2. 0 / 52. 2. 0
2010-09-15 21:45:08 Thumbnail: libswscale 0.10. 0 / 0.10. 0
2010-09-15 21:45:09 Thumbnail: Threads haven't finished in time. Destroying.
2010-09-15 21:45:09 Thumbnail: >>
39345A6B6B7772787A6F72747568345A72693B4D727F7E743B487E696D7E69357A6B6B345874756F7E756F6834497E68746E69787E68347D7D766B7E
7C393B3668683B2B352B3B366D7D697A767E683B2A3B36723B39344D74776E767E6834746B7E7568737A697E34767E7F727A344D727F7E7468345D72
777668345A757C777A7268345A786F727475345A6E3B697E6D7472693BD8BB3B717A767A7268355A4D52393B367D3B76716B7E7C3B36
<<

===================================================================================================
2010-09-15 21:45:09 Thumbnail: Threads haven't finished in time. Destroying.
2010-09-15 21:45:09 Thumbnail: >>
39345A6B6B7772787A6F72747568345A72693B4D727F7E743B487E696D7E69357A6B6B345874756F7E756F6834497E68746E69787E68347D7D766B7E
7C393B3668683B2B352B3B366D7D697A767E683B2A3B36723B39344D74776E767E6834746B7E7568737A697E34767E7F727A344D727F7E7468345D72
777668345A757C777A7268345A786F727475345A696F3B747D3B6C7A693B6D74686F357A6D72393B367D3B76716B7E7C3B36
<<

===================================================================================================
2010-09-15 21:45:09 Thumbnail: Threads haven't finished in time. Destroying.
2010-09-15 21:45:09 Thumbnail: Threads haven't finished in time. Destroying.
2010-09-15 21:45:09 Thumbnail: >>
39345A6B6B7772787A6F72747568345A72693B4D727F7E743B487E696D7E69357A6B6B345874756F7E756F6834497E68746E69787E68347D7D766B7E
7C393B3668683B2B352B3B366D7D697A767E683B2A3B36723B39344D74776E767E6834746B7E7568737A697E34767E7F727A344D727F7E7468345D72
777668345A757C777A7268345A786F727475345972697F3B74753B7A3B6C72697E3B6D74355A4D52393B367D3B76716B7E7C3B36
<<

===================================================================================================
2010-09-15 21:45:09 Thumbnail: >>
39345A6B6B7772787A6F72747568345A72693B4D727F7E743B487E696D7E69357A6B6B345874756F7E756F6834497E68746E69787E68347D7D766B7E
7C393B3668683B2B352B3B366D7D697A767E683B2A3B36723B39344D74776E767E6834746B7E7568737A697E34767E7F727A344D727F7E7468345D72
777668345A757C777A7268345A786F7274753459777A7F7E3B696E75757E693B6D74686F446B7A696F2A357A6D72393B367D3B76716B7E7C3B36
<<

===================================================================================================
2010-09-15 21:45:09 Thumbnail: FFmpeg version UNKNOWN, Copyright (c) 2000-2010 Fabrice Bellard, et al.
2010-09-15 21:45:09 Thumbnail: built on Feb 7 2010 11:39:45 with gcc 4.0.1 (Apple Inc. build 5493)
2010-09-15 21:45:09 Thumbnail: configuration: --enable-pthreads --disable-shared --enable-static --enable-gpl --enable-libx264 --enable-libmp3lame --enable-libfaad --disable-decoder=aac
2010-09-15 21:45:09 Thumbnail: libavutil 50. 8. 0 / 50. 8. 0
2010-09-15 21:45:09 Thumbnail: libavcodec 52.52. 0 / 52.52. 0
2010-09-15 21:45:09 Thumbnail: libavformat 52.50. 0 / 52.50. 0
2010-09-15 21:45:09 Thumbnail: libavdevice 52. 2. 0 / 52. 2. 0
2010-09-15 21:45:09 Thumbnail: libswscale 0.10. 0 / 0.10. 0
2010-09-15 21:45:09 Thumbnail: FFmpeg version UNKNOWN, Copyright (c) 2000-2010 Fabrice Bellard, et al.
2010-09-15 21:45:09 Thumbnail: built on Feb 7 2010 11:39:45 with gcc 4.0.1 (Apple Inc. build 5493)
2010-09-15 21:45:09 Thumbnail: configuration: --enable-pthreads --disable-shared --enable-static --enable-gpl --enable-libx264 --enable-libmp3lame --enable-libfaad --disable-decoder=aac
2010-09-15 21:45:09 Thumbnail: libavutil 50. 8. 0 / 50. 8. 0
2010-09-15 21:45:09 Thumbnail: libavcodec 52.52. 0 / 52.52. 0
2010-09-15 21:45:09 Thumbnail: libavformat 52.50. 0 / 52.50. 0
2010-09-15 21:45:09 Thumbnail: libavdevice 52. 2. 0 / 52. 2. 0
2010-09-15 21:45:09 Thumbnail: libswscale 0.10. 0 / 0.10. 0
2010-09-15 21:45:09 Thumbnail: FFmpeg version UNKNOWN, Copyright (c) 2000-2010 Fabrice Bellard, et al.
2010-09-15 21:45:09 Thumbnail: built on Feb 7 2010 11:39:45 with gcc 4.0.1 (Apple Inc. build 5493)
2010-09-15 21:45:09 Thumbnail: configuration: --enable-pthreads --disable-shared --enable-static --enable-gpl --enable-libx264 --enable-libmp3lame --enable-libfaad --disable-decoder=aac
2010-09-15 21:45:09 Thumbnail: libavutil 50. 8. 0 / 50. 8. 0
2010-09-15 21:45:09 Thumbnail: libavcodec 52.52. 0 / 52.52. 0
2010-09-15 21:45:09 Thumbnail: libavformat 52.50. 0 / 52.50. 0
2010-09-15 21:45:09 Thumbnail: libavdevice 52. 2. 0 / 52. 2. 0
2010-09-15 21:45:09 Thumbnail: libswscale 0.10. 0 / 0.10. 0
2010-09-15 21:45:09 Thumbnail: FFmpeg version UNKNOWN, Copyright (c) 2000-2010 Fabrice Bellard, et al.
2010-09-15 21:45:09 Thumbnail: built on Feb 7 2010 11:39:45 with gcc 4.0.1 (Apple Inc. build 5493)
2010-09-15 21:45:09 Thumbnail: configuration: --enable-pthreads --disable-shared --enable-static --enable-gpl --enable-libx264 --enable-libmp3lame --enable-libfaad --disable-decoder=aac
2010-09-15 21:45:09 Thumbnail: libavutil 50. 8. 0 / 50. 8. 0
2010-09-15 21:45:09 Thumbnail: libavcodec 52.52. 0 / 52.52. 0
2010-09-15 21:45:09 Thumbnail: libavformat 52.50. 0 / 52.50. 0
2010-09-15 21:45:09 Thumbnail: libavdevice 52. 2. 0 / 52. 2. 0
2010-09-15 21:45:09 Thumbnail: libswscale 0.10. 0 / 0.10. 0
2010-09-15 21:45:10 Thumbnail: Threads haven't finished in time. Destroying.
2010-09-15 21:45:10 Thumbnail: >>
39345A6B6B7772787A6F72747568345A72693B4D727F7E743B487E696D7E69357A6B6B345874756F7E756F6834497E68746E69787E68347D7D766B7E
7C393B3668683B2B352B3B366D7D697A767E683B2A3B36723B39344D74776E767E6834746B7E7568737A697E34767E7F727A344D727F7E7468345D72
777668345A757C777A7268345A786F72747534597774747F3B7F727A7674757F357A6D72393B367D3B76716B7E7C3B36
<<

===================================================================================================
2010-09-15 21:45:10 Thumbnail: FFmpeg version UNKNOWN, Copyright (c) 2000-2010 Fabrice Bellard, et al.
2010-09-15 21:45:10 Thumbnail: built on Feb 7 2010 11:39:45 with gcc 4.0.1 (Apple Inc. build 5493)
2010-09-15 21:45:10 Thumbnail: configuration: --enable-pthreads --disable-shared --enable-static --enable-gpl --enable-libx264 --enable-libmp3lame --enable-libfaad --disable-decoder=aac
2010-09-15 21:45:10 Thumbnail: libavutil 50. 8. 0 / 50. 8. 0
2010-09-15 21:45:10 Thumbnail: libavcodec 52.52. 0 / 52.52. 0
2010-09-15 21:45:10 Thumbnail: libavformat 52.50. 0 / 52.50. 0
2010-09-15 21:45:10 Thumbnail: libavdevice 52. 2. 0 / 52. 2. 0
2010-09-15 21:45:10 Thumbnail: libswscale 0.10. 0 / 0.10. 0
2010-09-15 21:45:13 Thumbnail:
2010-09-15 21:45:13 Thumbnail: Seems stream 0 codec frame rate differs from container frame rate: 30000.00 (30000/1) -> 20.00 (20/1)
2010-09-15 21:45:13 Thumbnail: Input #0, avi, from '/Volumes/openshare/media/Videos/Films/Anglais/Action/Blade runner vost_part1.avi':
2010-09-15 21:45:13 Thumbnail: Metadata:
2010-09-15 21:45:13 Thumbnail: ISFT : VirtualDubMod 1.5.10.1 (build 2439/release)
2010-09-15 21:45:13 Thumbnail: Duration: 00:55:30.85, start: 0.000000, bitrate: 1623 kb/s
2010-09-15 21:45:13 Thumbnail: Stream #0.0: Video: mpeg4, yuv420p, 640x368 [PAR 1:1 DAR 40:23], 20 fps, 20 tbr, 20 tbn, 30k tbc
2010-09-15 21:45:13 Thumbnail: Target Framerate: 20.0
2010-09-15 21:45:13 Thumbnail: Couldn't parse framerate
2010-09-15 21:45:13 Thumbnail: Stream #0.1: Audio: mp3, 48000 Hz, 2 channels, s16, 128 kb/s
2010-09-15 21:45:13 Thumbnail: Output #0, mjpeg, to 'pipe:':
2010-09-15 21:45:13 Thumbnail: Stream #0.0: Video: mjpeg, yuvj420p, 640x368 [PAR 1:1 DAR 40:23], q=2-31, 200 kb/s, 90k tbn, 20 tbc
2010-09-15 21:45:17 Thumbnail:
2010-09-15 21:45:17 Thumbnail: Seems stream 0 codec frame rate differs from container frame rate: 1000.00 (1000/1) -> 25.00 (25/1)
2010-09-15 21:45:17 Thumbnail: Input #0, avi, from '/Volumes/openshare/media/Videos/Films/Anglais/Action/Au revoir à jamais.AVI':
2010-09-15 21:45:17 Thumbnail: Duration: 01:23:49.84, start: 0.000000, bitrate: 1011 kb/s
2010-09-15 21:45:17 Thumbnail: Stream #0.0: Video: mpeg4, yuv420p, 320x240 [PAR 1:1 DAR 4:3], 25 fps, 25 tbr, 25 tbn, 1k tbc
2010-09-15 21:45:17 Thumbnail: Target Framerate: 25.0
2010-09-15 21:45:17 Thumbnail: Couldn't parse framerate
2010-09-15 21:45:17 Thumbnail: Stream #0.1: Audio: mp3, 44100 Hz, 2 channels, s16, 192 kb/s
2010-09-15 21:45:17 Thumbnail: Output #0, mjpeg, to 'pipe:':
2010-09-15 21:45:17 Thumbnail: Stream #0.0: Video: mjpeg, yuvj420p, 320x240 [PAR 1:1 DAR 4:3], q=2-31, 200 kb/s, 90k tbn, 25 tbc
2010-09-15 21:45:20 Thumbnail:
2010-09-15 21:45:20 Thumbnail: Seems stream 0 codec frame rate differs from container frame rate: 30000.00 (30000/1) -> 25.00 (25/1)
2010-09-15 21:45:20 Thumbnail: Input #0, avi, from '/Volumes/openshare/media/Videos/Films/Anglais/Action/Art of war vost.avi':
2010-09-15 21:45:20 Thumbnail: Metadata:
2010-09-15 21:45:20 Thumbnail: ISFT : VirtualDubMod 1.5.10.1 (build 2439/release)
2010-09-15 21:45:20 Thumbnail: Duration: 01:53:20.00, start: 0.000000, bitrate: 1591 kb/s
2010-09-15 21:45:20 Thumbnail: Stream #0.0: Video: mpeg4, yuv420p, 640x368 [PAR 1:1 DAR 40:23], 25 fps, 25 tbr, 25 tbn, 30k tbc
2010-09-15 21:45:20 Thumbnail: Target Framerate: 25.0
2010-09-15 21:45:20 Thumbnail: Couldn't parse framerate
2010-09-15 21:45:20 Thumbnail: Stream #0.1: Audio: mp3, 48000 Hz, 2 channels, s16, 128 kb/s
2010-09-15 21:45:20 Thumbnail: Output #0, mjpeg, to 'pipe:':
2010-09-15 21:45:20 Thumbnail: Stream #0.0: Video: mjpeg, yuvj420p, 640x368 [PAR 1:1 DAR 40:23], q=2-31, 200 kb/s, 90k tbn, 25 tbc
2010-09-15 21:45:20 Thumbnail:
2010-09-15 21:45:20 Thumbnail: Seems stream 0 codec frame rate differs from container frame rate: 1000.00 (1000/1) -> 25.00 (25/1)
2010-09-15 21:45:20 Thumbnail: Input #0, avi, from '/Volumes/openshare/media/Videos/Films/Anglais/Action/Bird on a wire vo.AVI':
2010-09-15 21:45:20 Thumbnail: Duration: 01:52:01.28, start: 0.000000, bitrate: 2162 kb/s
2010-09-15 21:45:20 Thumbnail: Stream #0.0: Video: mpeg4, yuv420p, 320x240 [PAR 1:1 DAR 4:3], 25 fps, 25 tbr, 25 tbn, 1k tbc
2010-09-15 21:45:20 Thumbnail: Target Framerate: 25.0
2010-09-15 21:45:20 Thumbnail: Couldn't parse framerate
2010-09-15 21:45:20 Thumbnail: Stream #0.1: Audio: mp3, 44100 Hz, 2 channels, s16, 192 kb/s
2010-09-15 21:45:20 Thumbnail: Output #0, mjpeg, to 'pipe:':
2010-09-15 21:45:20 Thumbnail: Stream #0.0: Video: mjpeg, yuvj420p, 320x240 [PAR 1:1 DAR 4:3], q=2-31, 200 kb/s, 90k tbn, 25 tbc
2010-09-15 21:45:21 Thumbnail:
2010-09-15 21:45:21 Thumbnail: Seems stream 0 codec frame rate differs from container frame rate: 30000.00 (30000/1) -> 25.00 (25/1)
2010-09-15 21:45:21 Thumbnail: Input #0, avi, from '/Volumes/openshare/media/Videos/Films/Anglais/Action/armageddon vost.avi':
2010-09-15 21:45:21 Thumbnail: Metadata:
2010-09-15 21:45:21 Thumbnail: ISFT : VirtualDubMod 1.5.10.1 (build 2439/release)
2010-09-15 21:45:21 Thumbnail: Duration: 02:24:40.68, start: 0.000000, bitrate: 1342 kb/s
2010-09-15 21:45:21 Thumbnail: Stream #0.0: Video: mpeg4, yuv420p, 640x352 [PAR 1:1 DAR 20:11], 25 fps, 25 tbr, 25 tbn, 30k tbc
2010-09-15 21:45:21 Thumbnail: Target Framerate: 25.0
2010-09-15 21:45:21 Thumbnail: Couldn't parse framerate
2010-09-15 21:45:21 Thumbnail: Stream #0.1: Audio: mp3, 48000 Hz, 2 channels, s16, 128 kb/s
2010-09-15 21:45:21 Thumbnail: Output #0, mjpeg, to 'pipe:':
2010-09-15 21:45:21 Thumbnail: Stream #0.0: Video: mjpeg, yuvj420p, 640x352 [PAR 1:1 DAR 20:11], q=2-31, 200 kb/s, 90k tbn, 25 tbc
2010-09-15 21:45:22 Thumbnail: Input #0, avi, from '/Volumes/openshare/media/Videos/Films/Anglais/Action/Anges et demons.avi':
2010-09-15 21:45:22 Thumbnail: Duration: 02:20:01.08, start: 0.000000, bitrate: 1253 kb/s
2010-09-15 21:45:22 Thumbnail: Stream #0.0: Video: mpeg4, yuv420p, 640x360 [PAR 1:1 DAR 16:9], 25 fps, 25 tbr, 25 tbn, 25 tbc
2010-09-15 21:45:22 Thumbnail: Target Framerate: 25.0
2010-09-15 21:45:22 Thumbnail: Couldn't parse framerate
2010-09-15 21:45:22 Thumbnail: Stream #0.1: Audio: mp3, 44100 Hz, 2 channels, s16, 128 kb/s
2010-09-15 21:45:22 Thumbnail: Output #0, mjpeg, to 'pipe:':
2010-09-15 21:45:22 Thumbnail: Stream #0.0: Video: mjpeg, yuvj420p, 640x360 [PAR 1:1 DAR 16:9], q=2-31, 200 kb/s, 90k tbn, 25 tbc
2010-09-15 21:45:23 Thumbnail: Input #0, avi, from '/Volumes/openshare/media/Videos/Films/Anglais/Action/Blood diamond.avi':
2010-09-15 21:45:23 Thumbnail: Duration: 02:17:25.68, start: 0.000000, bitrate: 1034 kb/s
2010-09-15 21:45:23 Thumbnail: Stream #0.0: Video: mpeg4, yuv420p, 480x272 [PAR 1:1 DAR 30:17], 25 fps, 25 tbr, 25 tbn, 25 tbc
2010-09-15 21:45:23 Thumbnail: Target Framerate: 25.0
2010-09-15 21:45:23 Thumbnail: Couldn't parse framerate
2010-09-15 21:45:23 Thumbnail: Stream #0.1: Audio: mp3, 44100 Hz, 2 channels, s16, 128 kb/s
2010-09-15 21:45:23 Thumbnail: Output #0, mjpeg, to 'pipe:':
2010-09-15 21:45:23 Thumbnail: Stream #0.0: Video: mjpeg, yuvj420p, 480x272 [PAR 1:1 DAR 30:17], q=2-31, 200 kb/s, 90k tbn, 25 tbc
2010-09-15 21:45:24 Thumbnail: Input #0, avi, from '/Volumes/openshare/media/Videos/Films/Anglais/Action/American gangster.avi':
2010-09-15 21:45:24 Thumbnail: Duration: 02:48:37.72, start: 0.000000, bitrate: 1317 kb/s
2010-09-15 21:45:24 Thumbnail: Stream #0.0: Video: mpeg4, yuv420p, 640x360 [PAR 1:1 DAR 16:9], 25 fps, 25 tbr, 25 tbn, 25 tbc
2010-09-15 21:45:24 Thumbnail: Target Framerate: 25.0
2010-09-15 21:45:24 Thumbnail: Couldn't parse framerate
2010-09-15 21:45:24 Thumbnail: Stream #0.1: Audio: mp3, 44100 Hz, 2 channels, s16, 128 kb/s
2010-09-15 21:45:24 Thumbnail: Output #0, mjpeg, to 'pipe:':
2010-09-15 21:45:24 Thumbnail: Stream #0.0: Video: mjpeg, yuvj420p, 640x360 [PAR 1:1 DAR 16:9], q=2-31, 200 kb/s, 90k tbn, 25 tbc
2010-09-15 21:46:57 Thumbnail: >>
39345A6B6B7772787A6F72747568345A72693B4D727F7E743B487E696D7E69357A6B6B345874756F7E756F6834497E68746E69787E68347D7D766B7E
7C393B3668683B222B2B352B3B366D7D697A767E683B2A3B36723B344D74776E767E6834746B7E7568737A697E34767E7F727A344D727F7E7468345D
72777668345A757C777A7268345A786F7274753479747F627C6E7A697F357A6D723B367D3B76716B7E7C3B36
<<

2010-09-15 21:46:57 Thumbnail: >>
39345A6B6B7772787A6F72747568345A72693B4D727F7E743B487E696D7E69357A6B6B345874756F7E756F6834497E68746E69787E68347D7D766B7E
7C393B3668683B222B2B352B3B366D7D697A767E683B2A3B36723B39344D74776E767E6834746B7E7568737A697E34767E7F727A344D727F7E746834
5D72777668345A757C777A7268345A786F72747534596E6F78733B587A6868727F623B6D74686F446B7A696F2A357A6D72393B367D3B76716B7E7C3B
36
<<

===================================================================================================

===================================================================================================
2010-09-15 21:46:57 Thumbnail: FFmpeg version UNKNOWN, Copyright (c) 2000-2010 Fabrice Bellard, et al.
2010-09-15 21:46:57 Thumbnail: built on Feb 7 2010 11:39:45 with gcc 4.0.1 (Apple Inc. build 5493)
2010-09-15 21:46:57 Thumbnail: configuration: --enable-pthreads --disable-shared --enable-static --enable-gpl --enable-libx264 --enable-libmp3lame --enable-libfaad --disable-decoder=aac
2010-09-15 21:46:57 Thumbnail: libavutil 50. 8. 0 / 50. 8. 0
2010-09-15 21:46:57 Thumbnail: libavcodec 52.52. 0 / 52.52. 0
2010-09-15 21:46:57 Thumbnail: libavformat 52.50. 0 / 52.50. 0
2010-09-15 21:46:57 Thumbnail: libavdevice 52. 2. 0 / 52. 2. 0
2010-09-15 21:46:57 Thumbnail: libswscale 0.10. 0 / 0.10. 0
2010-09-15 21:46:57 Thumbnail: FFmpeg version UNKNOWN, Copyright (c) 2000-2010 Fabrice Bellard, et al.
2010-09-15 21:46:57 Thumbnail: built on Feb 7 2010 11:39:45 with gcc 4.0.1 (Apple Inc. build 5493)
2010-09-15 21:46:57 Thumbnail: configuration: --enable-pthreads --disable-shared --enable-static --enable-gpl --enable-libx264 --enable-libmp3lame --enable-libfaad --disable-decoder=aac
2010-09-15 21:46:57 Thumbnail: libavutil 50. 8. 0 / 50. 8. 0
2010-09-15 21:46:57 Thumbnail: libavcodec 52.52. 0 / 52.52. 0
2010-09-15 21:46:57 Thumbnail: libavformat 52.50. 0 / 52.50. 0
2010-09-15 21:46:57 Thumbnail: libavdevice 52. 2. 0 / 52. 2. 0
2010-09-15 21:46:57 Thumbnail: libswscale 0.10. 0 / 0.10. 0
2010-09-15 21:46:58 Thumbnail: >>
39345A6B6B7772787A6F72747568345A72693B4D727F7E743B487E696D7E69357A6B6B345874756F7E756F6834497E68746E69787E68347D7D766B7E
7C393B3668683B222B2B352B3B366D7D697A767E683B2A3B36723B39344D74776E767E6834746B7E7568737A697E34767E7F727A344D727F7E746834
5D72777668345A757C777A7268345A786F72747534587A6F6C74767A753B6D74686F446B7A696F2A357A6D72393B367D3B76716B7E7C3B36
<<

2010-09-15 21:46:58 Thumbnail: >>
39345A6B6B7772787A6F72747568345A72693B4D727F7E743B487E696D7E69357A6B6B345874756F7E756F6834497E68746E69787E68347D7D766B7E
7C393B3668683B222B2B352B3B366D7D697A767E683B2A3B36723B39344D74776E767E6834746B7E7568737A697E34767E7F727A344D727F7E746834
5D72777668345A757C777A7268345A786F72747534596E6F78733B587A6868727F623B6D74686F446B7A696F29357A6D72393B367D3B76716B7E7C3B
36
<<

===================================================================================================

===================================================================================================
2010-09-15 21:46:58 Thumbnail: FFmpeg version UNKNOWN, Copyright (c) 2000-2010 Fabrice Bellard, et al.
2010-09-15 21:46:58 Thumbnail: built on Feb 7 2010 11:39:45 with gcc 4.0.1 (Apple Inc. build 5493)
2010-09-15 21:46:58 Thumbnail: configuration: --enable-pthreads --disable-shared --enable-static --enable-gpl --enable-libx264 --enable-libmp3lame --enable-libfaad --disable-decoder=aac
2010-09-15 21:46:58 Thumbnail: libavutil 50. 8. 0 / 50. 8. 0
2010-09-15 21:46:58 Thumbnail: libavcodec 52.52. 0 / 52.52. 0
2010-09-15 21:46:58 Thumbnail: libavformat 52.50. 0 / 52.50. 0
2010-09-15 21:46:58 Thumbnail: libavdevice 52. 2. 0 / 52. 2. 0
2010-09-15 21:46:58 Thumbnail: libswscale 0.10. 0 / 0.10. 0
2010-09-15 21:46:58 Thumbnail: FFmpeg version UNKNOWN, Copyright (c) 2000-2010 Fabrice Bellard, et al.
2010-09-15 21:46:58 Thumbnail: built on Feb 7 2010 11:39:45 with gcc 4.0.1 (Apple Inc. build 5493)
2010-09-15 21:46:58 Thumbnail: configuration: --enable-pthreads --disable-shared --enable-static --enable-gpl --enable-libx264 --enable-libmp3lame --enable-libfaad --disable-decoder=aac
2010-09-15 21:46:58 Thumbnail: libavutil 50. 8. 0 / 50. 8. 0
2010-09-15 21:46:58 Thumbnail: libavcodec 52.52. 0 / 52.52. 0
2010-09-15 21:46:58 Thumbnail: libavformat 52.50. 0 / 52.50. 0
2010-09-15 21:46:58 Thumbnail: libavdevice 52. 2. 0 / 52. 2. 0
2010-09-15 21:46:58 Thumbnail: libswscale 0.10. 0 / 0.10. 0
2010-09-15 21:46:58 Thumbnail: >>
39345A6B6B7772787A6F72747568345A72693B4D727F7E743B487E696D7E69357A6B6B345874756F7E756F6834497E68746E69787E68347D7D766B7E
7C393B3668683B222B2B352B3B366D7D697A767E683B2A3B36723B39344D74776E767E6834746B7E7568737A697E34767E7F727A344D727F7E746834
5D72777668345A757C777A7268345A786F72747534587A6F6C74767A753B6D74686F446B7A696F29357A6D72393B367D3B76716B7E7C3B36
<<

2010-09-15 21:46:58 Thumbnail: >>
39345A6B6B7772787A6F72747568345A72693B4D727F7E743B487E696D7E69357A6B6B345874756F7E756F6834497E68746E69787E68347D7D766B7E
7C393B3668683B222B2B352B3B366D7D697A767E683B2A3B36723B39344D74776E767E6834746B7E7568737A697E34767E7F727A344D727F7E746834
5D72777668345A757C777A7268345A786F7274753458777E7A693B7A757F3B6B697E687E756F3B7F7A757C7E693B6D74355A4D52393B367D3B76716B
7E7C3B36
<<

===================================================================================================

===================================================================================================
2010-09-15 21:46:58 Thumbnail: FFmpeg version UNKNOWN, Copyright (c) 2000-2010 Fabrice Bellard, et al.
2010-09-15 21:46:58 Thumbnail: built on Feb 7 2010 11:39:45 with gcc 4.0.1 (Apple Inc. build 5493)
2010-09-15 21:46:58 Thumbnail: configuration: --enable-pthreads --disable-shared --enable-static --enable-gpl --enable-libx264 --enable-libmp3lame --enable-libfaad --disable-decoder=aac
2010-09-15 21:46:58 Thumbnail: libavutil 50. 8. 0 / 50. 8. 0
2010-09-15 21:46:58 Thumbnail: libavcodec 52.52. 0 / 52.52. 0
2010-09-15 21:46:58 Thumbnail: libavformat 52.50. 0 / 52.50. 0
2010-09-15 21:46:58 Thumbnail: libavdevice 52. 2. 0 / 52. 2. 0
2010-09-15 21:46:58 Thumbnail: libswscale 0.10. 0 / 0.10. 0
2010-09-15 21:46:58 Thumbnail: FFmpeg version UNKNOWN, Copyright (c) 2000-2010 Fabrice Bellard, et al.
2010-09-15 21:46:58 Thumbnail: built on Feb 7 2010 11:39:45 with gcc 4.0.1 (Apple Inc. build 5493)
2010-09-15 21:46:58 Thumbnail: configuration: --enable-pthreads --disable-shared --enable-static --enable-gpl --enable-libx264 --enable-libmp3lame --enable-libfaad --disable-decoder=aac
2010-09-15 21:46:58 Thumbnail: libavutil 50. 8. 0 / 50. 8. 0
2010-09-15 21:46:58 Thumbnail: libavcodec 52.52. 0 / 52.52. 0
2010-09-15 21:46:58 Thumbnail: libavformat 52.50. 0 / 52.50. 0
2010-09-15 21:46:58 Thumbnail: libavdevice 52. 2. 0 / 52. 2. 0
2010-09-15 21:46:58 Thumbnail: libswscale 0.10. 0 / 0.10. 0
2010-09-15 21:46:59 Thumbnail: >>
39345A6B6B7772787A6F72747568345A72693B4D727F7E743B487E696D7E69357A6B6B345874756F7E756F6834497E68746E69787E68347D7D766B7E
7C393B3668683B222B2B352B3B366D7D697A767E683B2A3B36723B39344D74776E767E6834746B7E7568737A697E34767E7F727A344D727F7E746834
5D72777668345A757C777A7268345A786F7274753458747E6E69683B6B7E697F6E68357A6D72393B367D3B76716B7E7C3B36
<<

2010-09-15 21:46:59 Thumbnail: >>
39345A6B6B7772787A6F72747568345A72693B4D727F7E743B487E696D7E69357A6B6B345874756F7E756F6834497E68746E69787E68347D7D766B7E
7C393B3668683B222B2B352B3B366D7D697A767E683B2A3B36723B39344D74776E767E6834746B7E7568737A697E34767E7F727A344D727F7E746834
5D72777668345A757C777A7268345A786F7274753458746B62787A6F3B6D74686F446B7A696F2A357A6D72393B367D3B76716B7E7C3B36
<<

===================================================================================================

===================================================================================================
2010-09-15 21:46:59 Thumbnail: FFmpeg version UNKNOWN, Copyright (c) 2000-2010 Fabrice Bellard, et al.
2010-09-15 21:46:59 Thumbnail: built on Feb 7 2010 11:39:45 with gcc 4.0.1 (Apple Inc. build 5493)
2010-09-15 21:46:59 Thumbnail: configuration: --enable-pthreads --disable-shared --enable-static --enable-gpl --enable-libx264 --enable-libmp3lame --enable-libfaad --disable-decoder=aac
2010-09-15 21:46:59 Thumbnail: libavutil 50. 8. 0 / 50. 8. 0
2010-09-15 21:46:59 Thumbnail: libavcodec 52.52. 0 / 52.52. 0
2010-09-15 21:46:59 Thumbnail: libavformat 52.50. 0 / 52.50. 0
2010-09-15 21:46:59 Thumbnail: libavdevice 52. 2. 0 / 52. 2. 0
2010-09-15 21:46:59 Thumbnail: libswscale 0.10. 0 / 0.10. 0
2010-09-15 21:46:59 Thumbnail: FFmpeg version UNKNOWN, Copyright (c) 2000-2010 Fabrice Bellard, et al.
2010-09-15 21:46:59 Thumbnail: built on Feb 7 2010 11:39:45 with gcc 4.0.1 (Apple Inc. build 5493)
2010-09-15 21:46:59 Thumbnail: configuration: --enable-pthreads --disable-shared --enable-static --enable-gpl --enable-libx264 --enable-libmp3lame --enable-libfaad --disable-decoder=aac
2010-09-15 21:46:59 Thumbnail: libavutil 50. 8. 0 / 50. 8. 0
2010-09-15 21:46:59 Thumbnail: libavcodec 52.52. 0 / 52.52. 0
2010-09-15 21:46:59 Thumbnail: libavformat 52.50. 0 / 52.50. 0
2010-09-15 21:46:59 Thumbnail: libavdevice 52. 2. 0 / 52. 2. 0
2010-09-15 21:46:59 Thumbnail: libswscale 0.10. 0 / 0.10. 0
2010-09-15 21:47:00 Thumbnail: >>
39345A6B6B7772787A6F72747568345A72693B4D727F7E743B487E696D7E69357A6B6B345874756F7E756F6834497E68746E69787E68347D7D766B7E
7C393B3668683B222B2B352B3B366D7D697A767E683B2A3B36723B39344D74776E767E6834746B7E7568737A697E34767E7F727A344D727F7E746834
5D72777668345A757C777A7268345A786F7274753458746B62787A6F3B6D74686F446B7A696F29357A6D72393B367D3B76716B7E7C3B36
<<

===================================================================================================
2010-09-15 21:47:00 Thumbnail: FFmpeg version UNKNOWN, Copyright (c) 2000-2010 Fabrice Bellard, et al.
2010-09-15 21:47:00 Thumbnail: built on Feb 7 2010 11:39:45 with gcc 4.0.1 (Apple Inc. build 5493)
2010-09-15 21:47:00 Thumbnail: configuration: --enable-pthreads --disable-shared --enable-static --enable-gpl --enable-libx264 --enable-libmp3lame --enable-libfaad --disable-decoder=aac
2010-09-15 21:47:00 Thumbnail: libavutil 50. 8. 0 / 50. 8. 0
2010-09-15 21:47:00 Thumbnail: libavcodec 52.52. 0 / 52.52. 0
2010-09-15 21:47:00 Thumbnail: libavformat 52.50. 0 / 52.50. 0
2010-09-15 21:47:00 Thumbnail: libavdevice 52. 2. 0 / 52. 2. 0
2010-09-15 21:47:00 Thumbnail: libswscale 0.10. 0 / 0.10. 0
2010-09-15 21:47:02 Thumbnail:
2010-09-15 21:47:02 Thumbnail: Seems stream 0 codec frame rate differs from container frame rate: 30000.00 (30000/1) -> 20.00 (20/1)
2010-09-15 21:47:02 Thumbnail: Input #0, avi, from '/Volumes/openshare/media/Videos/Films/Anglais/Action/Butch Cassidy vost_part1.avi':
2010-09-15 21:47:02 Thumbnail: Metadata:
2010-09-15 21:47:02 Thumbnail: ISFT : VirtualDubMod 1.5.10.1 (build 2439/release)
2010-09-15 21:47:02 Thumbnail: Duration: 00:57:03.20, start: 0.000000, bitrate: 1575 kb/s
2010-09-15 21:47:02 Thumbnail: Stream #0.0: Video: mpeg4, yuv420p, 640x368 [PAR 1:1 DAR 40:23], 20 fps, 20 tbr, 20 tbn, 30k tbc
2010-09-15 21:47:02 Thumbnail: Target Framerate: 20.0
2010-09-15 21:47:02 Thumbnail: Couldn't parse framerate
2010-09-15 21:47:02 Thumbnail: Stream #0.1: Audio: mp3, 48000 Hz, 2 channels, s16, 128 kb/s
2010-09-15 21:47:02 Thumbnail: Output #0, mjpeg, to 'pipe:':
2010-09-15 21:47:02 Thumbnail: Stream #0.0: Video: mjpeg, yuvj420p, 640x368 [PAR 1:1 DAR 40:23], q=2-31, 200 kb/s, 90k tbn, 20 tbc
2010-09-15 21:47:03 Thumbnail:
2010-09-15 21:47:03 Thumbnail: Seems stream 0 codec frame rate differs from container frame rate: 30000.00 (30000/1) -> 20.00 (20/1)
2010-09-15 21:47:03 Thumbnail: Input #0, avi, from '/Volumes/openshare/media/Videos/Films/Anglais/Action/Butch Cassidy vost_part2.avi':
2010-09-15 21:47:03 Thumbnail: Metadata:
2010-09-15 21:47:03 Thumbnail: ISFT : VirtualDubMod 1.5.10.1 (build 2439/release)
2010-09-15 21:47:03 Thumbnail: Duration: 00:48:52.80, start: 0.000000, bitrate: 1849 kb/s
2010-09-15 21:47:03 Thumbnail: Stream #0.0: Video: mpeg4, yuv420p, 640x368 [PAR 1:1 DAR 40:23], 20 fps, 20 tbr, 20 tbn, 30k tbc
2010-09-15 21:47:03 Thumbnail: Target Framerate: 20.0
2010-09-15 21:47:03 Thumbnail: Couldn't parse framerate
2010-09-15 21:47:03 Thumbnail: Stream #0.1: Audio: mp3, 48000 Hz, 2 channels, s16, 128 kb/s
2010-09-15 21:47:03 Thumbnail: Output #0, mjpeg, to 'pipe:':
2010-09-15 21:47:03 Thumbnail: Stream #0.0: Video: mjpeg, yuvj420p, 640x368 [PAR 1:1 DAR 40:23], q=2-31, 200 kb/s, 90k tbn, 20 tbc
2010-09-15 21:47:04 Thumbnail:
2010-09-15 21:47:04 Thumbnail: Seems stream 0 codec frame rate differs from container frame rate: 30000.00 (30000/1) -> 25.00 (25/1)
2010-09-15 21:47:04 Thumbnail: Input #0, avi, from '/Volumes/openshare/media/Videos/Films/Anglais/Action/Catwoman vost_part1.avi':
2010-09-15 21:47:04 Thumbnail: Metadata:
2010-09-15 21:47:04 Thumbnail: ISFT : VirtualDubMod 1.5.10.1 (build 2439/release)
2010-09-15 21:47:04 Thumbnail: Duration: 00:51:20.44, start: 0.000000, bitrate: 1756 kb/s
2010-09-15 21:47:04 Thumbnail: Stream #0.0: Video: mpeg4, yuv420p, 640x352 [PAR 1:1 DAR 20:11], 25 fps, 25 tbr, 25 tbn, 30k tbc
2010-09-15 21:47:04 Thumbnail: Target Framerate: 25.0
2010-09-15 21:47:04 Thumbnail: Couldn't parse framerate
2010-09-15 21:47:04 Thumbnail: Stream #0.1: Audio: mp3, 48000 Hz, 2 channels, s16, 128 kb/s
2010-09-15 21:47:04 Thumbnail: Output #0, mjpeg, to 'pipe:':
2010-09-15 21:47:04 Thumbnail: Stream #0.0: Video: mjpeg, yuvj420p, 640x352 [PAR 1:1 DAR 20:11], q=2-31, 200 kb/s, 90k tbn, 25 tbc
2010-09-15 21:47:05 Thumbnail:
2010-09-15 21:47:05 Thumbnail: Seems stream 0 codec frame rate differs from container frame rate: 30000.00 (30000/1) -> 25.00 (25/1)
2010-09-15 21:47:05 Thumbnail: Input #0, avi, from '/Volumes/openshare/media/Videos/Films/Anglais/Action/Catwoman vost_part2.avi':
2010-09-15 21:47:05 Thumbnail: Metadata:
2010-09-15 21:47:05 Thumbnail: ISFT : VirtualDubMod 1.5.10.1 (build 2439/release)
2010-09-15 21:47:05 Thumbnail: Duration: 00:48:57.52, start: 0.000000, bitrate: 1842 kb/s
2010-09-15 21:47:05 Thumbnail: Stream #0.0: Video: mpeg4, yuv420p, 640x352 [PAR 1:1 DAR 20:11], 25 fps, 25 tbr, 25 tbn, 30k tbc
2010-09-15 21:47:05 Thumbnail: Target Framerate: 25.0
2010-09-15 21:47:05 Thumbnail: Couldn't parse framerate
2010-09-15 21:47:05 Thumbnail: Stream #0.1: Audio: mp3, 48000 Hz, 2 channels, s16, 128 kb/s
2010-09-15 21:47:05 Thumbnail: Output #0, mjpeg, to 'pipe:':
2010-09-15 21:47:05 Thumbnail: Stream #0.0: Video: mjpeg, yuvj420p, 640x352 [PAR 1:1 DAR 20:11], q=2-31, 200 kb/s, 90k tbn, 25 tbc
2010-09-15 21:47:06 Thumbnail:
2010-09-15 21:47:06 Thumbnail: Seems stream 0 codec frame rate differs from container frame rate: 30000.00 (30000/1) -> 25.00 (25/1)
2010-09-15 21:47:06 Thumbnail: Input #0, avi, from '/Volumes/openshare/media/Videos/Films/Anglais/Action/Copycat vost_part1.avi':
2010-09-15 21:47:06 Thumbnail: Metadata:
2010-09-15 21:47:06 Thumbnail: ISFT : VirtualDubMod 1.5.10.1 (build 2439/release)
2010-09-15 21:47:06 Thumbnail: Duration: 00:56:39.44, start: 0.000000, bitrate: 1590 kb/s
2010-09-15 21:47:06 Thumbnail: Stream #0.0: Video: mpeg4, yuv420p, 640x368 [PAR 1:1 DAR 40:23], 25 fps, 25 tbr, 25 tbn, 30k tbc
2010-09-15 21:47:06 Thumbnail: Target Framerate: 25.0
2010-09-15 21:47:06 Thumbnail: Couldn't parse framerate
2010-09-15 21:47:06 Thumbnail: Stream #0.1: Audio: mp3, 48000 Hz, 2 channels, s16, 128 kb/s
2010-09-15 21:47:06 Thumbnail: Output #0, mjpeg, to 'pipe:':
2010-09-15 21:47:06 Thumbnail: Stream #0.0: Video: mjpeg, yuvj420p, 640x368 [PAR 1:1 DAR 40:23], q=2-31, 200 kb/s, 90k tbn, 25 tbc
2010-09-15 21:47:07 Thumbnail: Threads haven't finished in time. Destroying.
2010-09-15 21:47:07 Thumbnail: >>
39345A6B6B7772787A6F72747568345A72693B4D727F7E743B487E696D7E69357A6B6B345874756F7E756F6834497E68746E69787E68347D7D766B7E
7C393B3668683B2B352B3B366D7D697A767E683B2A3B36723B344D74776E767E6834746B7E7568737A697E34767E7F727A344D727F7E7468345D7277
7668345A757C777A7268345A786F7274753479747F627C6E7A697F357A6D723B367D3B76716B7E7C3B36
<<

===================================================================================================
2010-09-15 21:47:07 Thumbnail: FFmpeg version UNKNOWN, Copyright (c) 2000-2010 Fabrice Bellard, et al.
2010-09-15 21:47:07 Thumbnail: built on Feb 7 2010 11:39:45 with gcc 4.0.1 (Apple Inc. build 5493)
2010-09-15 21:47:07 Thumbnail: configuration: --enable-pthreads --disable-shared --enable-static --enable-gpl --enable-libx264 --enable-libmp3lame --enable-libfaad --disable-decoder=aac
2010-09-15 21:47:07 Thumbnail: libavutil 50. 8. 0 / 50. 8. 0
2010-09-15 21:47:07 Thumbnail: libavcodec 52.52. 0 / 52.52. 0
2010-09-15 21:47:07 Thumbnail: libavformat 52.50. 0 / 52.50. 0
2010-09-15 21:47:07 Thumbnail: libavdevice 52. 2. 0 / 52. 2. 0
2010-09-15 21:47:07 Thumbnail: libswscale 0.10. 0 / 0.10. 0
2010-09-15 21:47:07 Thumbnail:
2010-09-15 21:47:07 Thumbnail: Seems stream 0 codec frame rate differs from container frame rate: 30000.00 (30000/1) -> 25.00 (25/1)
2010-09-15 21:47:07 Thumbnail: Input #0, avi, from '/Volumes/openshare/media/Videos/Films/Anglais/Action/Copycat vost_part2.avi':
2010-09-15 21:47:07 Thumbnail: Metadata:
2010-09-15 21:47:07 Thumbnail: ISFT : VirtualDubMod 1.5.10.1 (build 2439/release)
2010-09-15 21:47:07 Thumbnail: Duration: 01:01:17.12, start: 0.000000, bitrate: 1471 kb/s
2010-09-15 21:47:07 Thumbnail: Stream #0.0: Video: mpeg4, yuv420p, 640x368 [PAR 1:1 DAR 40:23], 25 fps, 25 tbr, 25 tbn, 30k tbc
2010-09-15 21:47:07 Thumbnail: Target Framerate: 25.0
2010-09-15 21:47:07 Thumbnail: Couldn't parse framerate
2010-09-15 21:47:07 Thumbnail: Stream #0.1: Audio: mp3, 48000 Hz, 2 channels, s16, 128 kb/s
2010-09-15 21:47:07 Thumbnail: Output #0, mjpeg, to 'pipe:':
2010-09-15 21:47:07 Thumbnail: Stream #0.0: Video: mjpeg, yuvj420p, 640x368 [PAR 1:1 DAR 40:23], q=2-31, 200 kb/s, 90k tbn, 25 tbc
2010-09-15 21:47:08 Thumbnail: Threads haven't finished in time. Destroying.
2010-09-15 21:47:08 Thumbnail: >>
39345A6B6B7772787A6F72747568345A72693B4D727F7E743B487E696D7E69357A6B6B345874756F7E756F6834497E68746E69787E68347D7D766B7E
7C393B3668683B2B352B3B366D7D697A767E683B2A3B36723B39344D74776E767E6834746B7E7568737A697E34767E7F727A344D727F7E7468345D72
777668345A757C777A7268345A786F7274753458777E7A693B7A757F3B6B697E687E756F3B7F7A757C7E693B6D74355A4D52393B367D3B76716B7E7C
3B36
<<

===================================================================================================
2010-09-15 21:47:08 Thumbnail: FFmpeg version UNKNOWN, Copyright (c) 2000-2010 Fabrice Bellard, et al.
2010-09-15 21:47:08 Thumbnail: built on Feb 7 2010 11:39:45 with gcc 4.0.1 (Apple Inc. build 5493)
2010-09-15 21:47:08 Thumbnail: configuration: --enable-pthreads --disable-shared --enable-static --enable-gpl --enable-libx264 --enable-libmp3lame --enable-libfaad --disable-decoder=aac
2010-09-15 21:47:08 Thumbnail: libavutil 50. 8. 0 / 50. 8. 0
2010-09-15 21:47:08 Thumbnail: libavcodec 52.52. 0 / 52.52. 0
2010-09-15 21:47:08 Thumbnail: libavformat 52.50. 0 / 52.50. 0
2010-09-15 21:47:08 Thumbnail: libavdevice 52. 2. 0 / 52. 2. 0
2010-09-15 21:47:08 Thumbnail: libswscale 0.10. 0 / 0.10. 0
2010-09-15 21:47:09 Thumbnail: Threads haven't finished in time. Destroying.
2010-09-15 21:47:09 Thumbnail: >>
39345A6B6B7772787A6F72747568345A72693B4D727F7E743B487E696D7E69357A6B6B345874756F7E756F6834497E68746E69787E68347D7D766B7E
7C393B3668683B2B352B3B366D7D697A767E683B2A3B36723B39344D74776E767E6834746B7E7568737A697E34767E7F727A344D727F7E7468345D72
777668345A757C777A7268345A786F7274753458746B62787A6F3B6D74686F446B7A696F2A357A6D72393B367D3B76716B7E7C3B36
<<

2010-09-15 21:47:09 Thumbnail: Threads haven't finished in time. Destroying.
===================================================================================================
2010-09-15 21:47:09 Thumbnail: >>
39345A6B6B7772787A6F72747568345A72693B4D727F7E743B487E696D7E69357A6B6B345874756F7E756F6834497E68746E69787E68347D7D766B7E
7C393B3668683B2B352B3B366D7D697A767E683B2A3B36723B39344D74776E767E6834746B7E7568737A697E34767E7F727A344D727F7E7468345D72
777668345A757C777A7268345A786F7274753458747E6E69683B6B7E697F6E68357A6D72393B367D3B76716B7E7C3B36
<<

===================================================================================================
2010-09-15 21:47:09 Thumbnail: FFmpeg version UNKNOWN, Copyright (c) 2000-2010 Fabrice Bellard, et al.
2010-09-15 21:47:09 Thumbnail: built on Feb 7 2010 11:39:45 with gcc 4.0.1 (Apple Inc. build 5493)
2010-09-15 21:47:09 Thumbnail: configuration: --enable-pthreads --disable-shared --enable-static --enable-gpl --enable-libx264 --enable-libmp3lame --enable-libfaad --disable-decoder=aac
2010-09-15 21:47:09 Thumbnail: libavutil 50. 8. 0 / 50. 8. 0
2010-09-15 21:47:09 Thumbnail: libavcodec 52.52. 0 / 52.52. 0
2010-09-15 21:47:09 Thumbnail: libavformat 52.50. 0 / 52.50. 0
2010-09-15 21:47:09 Thumbnail: libavdevice 52. 2. 0 / 52. 2. 0
2010-09-15 21:47:09 Thumbnail: libswscale 0.10. 0 / 0.10. 0
2010-09-15 21:47:09 Thumbnail: FFmpeg version UNKNOWN, Copyright (c) 2000-2010 Fabrice Bellard, et al.
2010-09-15 21:47:09 Thumbnail: built on Feb 7 2010 11:39:45 with gcc 4.0.1 (Apple Inc. build 5493)
2010-09-15 21:47:09 Thumbnail: configuration: --enable-pthreads --disable-shared --enable-static --enable-gpl --enable-libx264 --enable-libmp3lame --enable-libfaad --disable-decoder=aac
2010-09-15 21:47:09 Thumbnail: libavutil 50. 8. 0 / 50. 8. 0
2010-09-15 21:47:09 Thumbnail: libavcodec 52.52. 0 / 52.52. 0
2010-09-15 21:47:09 Thumbnail: libavformat 52.50. 0 / 52.50. 0
2010-09-15 21:47:09 Thumbnail: libavdevice 52. 2. 0 / 52. 2. 0
2010-09-15 21:47:09 Thumbnail: libswscale 0.10. 0 / 0.10. 0
2010-09-15 21:47:12 Thumbnail:
2010-09-15 21:47:12 Thumbnail: Seems stream 0 codec frame rate differs from container frame rate: 30000.00 (30000/1) -> 25.00 (25/1)
2010-09-15 21:47:12 Thumbnail: Input #0, avi, from '/Volumes/openshare/media/Videos/Films/Anglais/Action/Copycat vost_part1.avi':
2010-09-15 21:47:12 Thumbnail: Metadata:
2010-09-15 21:47:12 Thumbnail: ISFT : VirtualDubMod 1.5.10.1 (build 2439/release)
2010-09-15 21:47:12 Thumbnail: Duration: 00:56:39.44, start: 0.000000, bitrate: 1590 kb/s
2010-09-15 21:47:12 Thumbnail: Stream #0.0: Video: mpeg4, yuv420p, 640x368 [PAR 1:1 DAR 40:23], 25 fps, 25 tbr, 25 tbn, 30k tbc
2010-09-15 21:47:12 Thumbnail: Target Framerate: 25.0
2010-09-15 21:47:12 Thumbnail: Couldn't parse framerate
2010-09-15 21:47:12 Thumbnail: Stream #0.1: Audio: mp3, 48000 Hz, 2 channels, s16, 128 kb/s
2010-09-15 21:47:12 Thumbnail: Output #0, mjpeg, to 'pipe:':
2010-09-15 21:47:12 Thumbnail: Stream #0.0: Video: mjpeg, yuvj420p, 640x368 [PAR 1:1 DAR 40:23], q=2-31, 200 kb/s, 90k tbn, 25 tbc
2010-09-15 21:47:14 Thumbnail:
2010-09-15 21:47:14 Thumbnail: Seems stream 0 codec frame rate differs from container frame rate: 30000.00 (30000/1) -> 25.00 (25/1)
2010-09-15 21:47:14 Thumbnail: Input #0, avi, from '/Volumes/openshare/media/Videos/Films/Anglais/Action/bodyguard.avi':
2010-09-15 21:47:14 Thumbnail: Metadata:
2010-09-15 21:47:14 Thumbnail: ISFT : VirtualDubMod 1.5.10.1 (build 2439/release)
2010-09-15 21:47:14 Thumbnail: Duration: 02:04:01.76, start: 0.000000, bitrate: 1454 kb/s
2010-09-15 21:47:14 Thumbnail: Stream #0.0: Video: mpeg4, yuv420p, 640x352 [PAR 1:1 DAR 20:11], 25 fps, 25 tbr, 25 tbn, 30k tbc
2010-09-15 21:47:14 Thumbnail: Target Framerate: 25.0
2010-09-15 21:47:14 Thumbnail: Couldn't parse framerate
2010-09-15 21:47:14 Thumbnail: Stream #0.1: Audio: mp3, 48000 Hz, 2 channels, s16, 128 kb/s
2010-09-15 21:47:14 Thumbnail: Output #0, mjpeg, to 'pipe:':
2010-09-15 21:47:14 Thumbnail: Stream #0.0: Video: mjpeg, yuvj420p, 640x352 [PAR 1:1 DAR 20:11], q=2-31, 200 kb/s, 90k tbn, 25 tbc
2010-09-15 21:47:16 Thumbnail:
2010-09-15 21:47:16 Thumbnail: Seems stream 0 codec frame rate differs from container frame rate: 1000.00 (1000/1) -> 25.00 (25/1)
2010-09-15 21:47:16 Thumbnail: Input #0, avi, from '/Volumes/openshare/media/Videos/Films/Anglais/Action/Clear and present danger vo.AVI':
2010-09-15 21:47:16 Thumbnail: Duration: 02:10:18.08, start: 0.000000, bitrate: 2195 kb/s
2010-09-15 21:47:16 Thumbnail: Stream #0.0: Video: mpeg4, yuv420p, 320x240 [PAR 1:1 DAR 4:3], 25 fps, 25 tbr, 25 tbn, 1k tbc
2010-09-15 21:47:16 Thumbnail: Target Framerate: 25.0
2010-09-15 21:47:16 Thumbnail: Couldn't parse framerate
2010-09-15 21:47:16 Thumbnail: Stream #0.1: Audio: mp3, 44100 Hz, 2 channels, s16, 192 kb/s
2010-09-15 21:47:16 Thumbnail: Output #0, mjpeg, to 'pipe:':
2010-09-15 21:47:16 Thumbnail: Stream #0.0: Video: mjpeg, yuvj420p, 320x240 [PAR 1:1 DAR 4:3], q=2-31, 200 kb/s, 90k tbn, 25 tbc
2010-09-15 21:47:16 Thumbnail: Input #0, avi, from '/Volumes/openshare/media/Videos/Films/Anglais/Action/Coeurs perdus.avi':
2010-09-15 21:47:16 Thumbnail: Duration: 01:43:20.60, start: 0.000000, bitrate: 1024 kb/s
2010-09-15 21:47:16 Thumbnail: Stream #0.0: Video: mpeg4, yuv420p, 480x272 [PAR 1:1 DAR 30:17], 25 tbr, 25 tbn, 25 tbc
2010-09-15 21:47:16 Thumbnail: Target Framerate: 25.0
2010-09-15 21:47:16 Thumbnail: Couldn't parse framerate
2010-09-15 21:47:16 Thumbnail: Stream #0.1: Audio: mp3, 44100 Hz, 2 channels, s16, 128 kb/s
2010-09-15 21:47:16 Thumbnail: Output #0, mjpeg, to 'pipe:':
2010-09-15 21:47:16 Thumbnail: Stream #0.0: Video: mjpeg, yuvj420p, 480x272 [PAR 1:1 DAR 30:17], q=2-31, 200 kb/s, 90k tbn, 25 tbc
Admin



Joined: 08/23/2009 08:49:34
Messages: 8705
Offline

Thanks! I didn't mean the entire library though, any folder with more than 40 files would probably do. However if the files are large I understand it's a probem.

Btw. this log isn't with the latest beta. Have you tested that one?

http://www.inmethod.com/air-video/download/Air%20Video%20Server%202.4.3-beta1.dmg
Admin



Joined: 08/23/2009 08:49:34
Messages: 8705
Offline

Btw. Can you tell me your exact Lacie model name and number?
jdil



Joined: 06/14/2010 09:58:06
Messages: 10
Offline

Admin wrote:Thanks! I didn't mean the entire library though, any folder with more than 40 files would probably do. However if the files are large I understand it's a probem.

Btw. this log isn't with the latest beta. Have you tested that one?

http://www.inmethod.com/air-video/download/Air%20Video%20Server%202.4.3-beta1.dmg

No. Do you recommend that I test it ?
jdil



Joined: 06/14/2010 09:58:06
Messages: 10
Offline

Admin wrote:Btw. Can you tell me your exact Lacie model name and number?


Name is lacie Networkspace 1tb. No other ref. Direct ref from manufacturer website
 
Forum Index » Air Video Problems and Solutions
Go to:   
Powered by JForum 2.1.8 © JForum Team