[Logo] Air Video Forum
  [Search] Search   [Recent Topics] Recent Topics   [Hottest Topics] Hottest Topics   [Members]  Member Listing   [Groups] Back to home page 
[Moderation Log] Moderation Log   [Register] Register / 
[Login] Login 
New version wont work with folders with many files  XML
Forum Index » Air Video Problems and Solutions
Author Message
DavePDX



Joined: 09/14/2010 21:38:48
Messages: 18
Offline

FWIW, I copied a folder with 43 mp4s from a network drive to a local drive and it made no difference that I could see.

Server 2.4.3 beta 1
Mac Mini Intel 2GB RAM
variety of iDevices

previous versions worked great, reverting to an older client still seems to work fine
Admin



Joined: 08/23/2009 08:49:34
Messages: 8705
Offline

So the thumbnails were not generated even on local drive?
Admin



Joined: 08/23/2009 08:49:34
Messages: 8705
Offline

jdil wrote:
Admin wrote:Thanks! I didn't mean the entire library though, any folder with more than 40 files would probably do. However if the files are large I understand it's a probem.

Btw. this log isn't with the latest beta. Have you tested that one?

http://www.inmethod.com/air-video/download/Air%20Video%20Server%202.4.3-beta1.dmg

No. Do you recommend that I test it ?

You can give it a try. Though you might need to reset thumbnail cache first.

http://www.inmethod.com/forum/posts/list/2217.page
DavePDX



Joined: 09/14/2010 21:38:48
Messages: 18
Offline

for me, some thumbnails do get generated in all cases, but VERY slowly and it often hangs in the middle of the process. Often when I try to play OR stream a conversion it simply doesn't play at all. I get the busy wheel for a few minutes and then it just goes back to the screen as if I had never tried to play the file.
Admin



Joined: 08/23/2009 08:49:34
Messages: 8705
Offline

Once the thumbnails are cached, do they load more quickly? (They should get cached after first time they are generated)
DavePDX



Joined: 09/14/2010 21:38:48
Messages: 18
Offline

Yes, but the whole process just seems much slower and less reliable than the previous versions. It seems that now the thumbnails don't get generated until I actually have that section of the list on screen.

The bigger issues is that playing movies just takes forever now, if they play at all. Previously, they played almost instantly when I was on my local network, certainly never longer than 15 - 20 seconds.
Admin



Joined: 08/23/2009 08:49:34
Messages: 8705
Offline

Well, we have changed that couple of versions back - we don't pregenerate thumbnails, they are generated on demand.
I do suspect that the problem is elsewhere. That hasn't been any change to actual playback, yet you get slower playback with the new version. And it doesn't seem to be isolated case. Sorry if you have already mentioned that, does this happen with iPhone or iPad?
jdil



Joined: 06/14/2010 09:58:06
Messages: 10
Offline

Admin wrote:
jdil wrote:
Admin wrote:Thanks! I didn't mean the entire library though, any folder with more than 40 files would probably do. However if the files are large I understand it's a probem.

Btw. this log isn't with the latest beta. Have you tested that one?

http://www.inmethod.com/air-video/download/Air%20Video%20Server%202.4.3-beta1.dmg

No. Do you recommend that I test it ?

You can give it a try. Though you might need to reset thumbnail cache first.

http://www.inmethod.com/forum/posts/list/2217.page


Been there, done that.
In a 191 avi file folder, airserver hangs up and freezes after exactly 40 files, starts over again, declares some files as invalid.
Same things happens with folder containing 411 mp4 files.

Enclosed below is thumbnail generation : sorry I dont know which part is relevant to you so I enclose the entire file.


2010-09-15 22:59:00 Thumbnail: FFmpeg version UNKNOWN, Copyright (c) 2000-2010 Fabrice Bellard, et al.
2010-09-15 22:59:00 Thumbnail: built on Feb 7 2010 11:39:45 with gcc 4.0.1 (Apple Inc. build 5493)
2010-09-15 22:59:00 Thumbnail: configuration: --enable-pthreads --disable-shared --enable-static --enable-gpl --enable-libx264 --enable-libmp3lame --enable-libfaad --disable-decoder=aac
2010-09-15 22:59:00 Thumbnail: libavutil 50. 8. 0 / 50. 8. 0
2010-09-15 22:59:00 Thumbnail: libavcodec 52.52. 0 / 52.52. 0
2010-09-15 22:59:00 Thumbnail: libavformat 52.50. 0 / 52.50. 0
2010-09-15 22:59:00 Thumbnail: libavdevice 52. 2. 0 / 52. 2. 0
2010-09-15 22:59:00 Thumbnail: libswscale 0.10. 0 / 0.10. 0
2010-09-15 22:59:01 Thumbnail:
2010-09-15 22:59:01 Thumbnail: Seems stream 0 codec frame rate differs from container frame rate: 30000.00 (30000/1) -> 20.00 (20/1)
2010-09-15 22:59:01 Thumbnail: Input #0, avi, from '/Volumes/openshare/media/Videos/Films/Anglais/Action/Butch Cassidy vost_part2.avi':
2010-09-15 22:59:01 Thumbnail: Metadata:
2010-09-15 22:59:01 Thumbnail: ISFT : VirtualDubMod 1.5.10.1 (build 2439/release)
2010-09-15 22:59:01 Thumbnail: Duration: 00:48:52.80, start: 0.000000, bitrate: 1849 kb/s
2010-09-15 22:59:01 Thumbnail: Stream #0.0: Video: mpeg4, yuv420p, 640x368 [PAR 1:1 DAR 40:23], 20 fps, 20 tbr, 20 tbn, 30k tbc
2010-09-15 22:59:01 Thumbnail: Target Framerate: 20.0
2010-09-15 22:59:01 Thumbnail: Couldn't parse framerate
2010-09-15 22:59:01 Thumbnail: Stream #0.1: Audio: mp3, 48000 Hz, 2 channels, s16, 128 kb/s
2010-09-15 22:59:01 Thumbnail: Output #0, mjpeg, to 'pipe:':
2010-09-15 22:59:01 Thumbnail: Stream #0.0: Video: mjpeg, yuvj420p, 640x368 [PAR 1:1 DAR 40:23], q=2-31, 200 kb/s, 90k tbn, 20 tbc
2010-09-15 22:59:02 Thumbnail: >>
39344D74776E767E68345A72693B4D727F7E743B487E696D7E693B29352F352836797E6F7A2A345A72693B4D727F7E743B487E696D7E69357A6B6B34
5874756F7E756F6834497E68746E69787E68347D7D766B7E7C393B3668683B2E352B3B366D7D697A767E683B2A3B36723B39344D74776E767E683474
6B7E7568737A697E34767E7F727A344D727F7E7468345D72777668345A757C777A7268345A786F72747534596E6F78733B587A6868727F623B6D7468
6F446B7A696F29357A6D72393B367D3B76716B7E7C3B36
<<

===================================================================================================
2010-09-15 22:59:02 Thumbnail: FFmpeg version UNKNOWN, Copyright (c) 2000-2010 Fabrice Bellard, et al.
2010-09-15 22:59:02 Thumbnail: built on Feb 7 2010 11:39:45 with gcc 4.0.1 (Apple Inc. build 5493)
2010-09-15 22:59:02 Thumbnail: configuration: --enable-pthreads --disable-shared --enable-static --enable-gpl --enable-libx264 --enable-libmp3lame --enable-libfaad --disable-decoder=aac
2010-09-15 22:59:02 Thumbnail: libavutil 50. 8. 0 / 50. 8. 0
2010-09-15 22:59:02 Thumbnail: libavcodec 52.52. 0 / 52.52. 0
2010-09-15 22:59:02 Thumbnail: libavformat 52.50. 0 / 52.50. 0
2010-09-15 22:59:02 Thumbnail: libavdevice 52. 2. 0 / 52. 2. 0
2010-09-15 22:59:02 Thumbnail: libswscale 0.10. 0 / 0.10. 0
2010-09-15 22:59:02 Thumbnail:
2010-09-15 22:59:02 Thumbnail: Seems stream 0 codec frame rate differs from container frame rate: 30000.00 (30000/1) -> 20.00 (20/1)
2010-09-15 22:59:02 Thumbnail: Input #0, avi, from '/Volumes/openshare/media/Videos/Films/Anglais/Action/Butch Cassidy vost_part2.avi':
2010-09-15 22:59:02 Thumbnail: Metadata:
2010-09-15 22:59:02 Thumbnail: ISFT : VirtualDubMod 1.5.10.1 (build 2439/release)
2010-09-15 22:59:02 Thumbnail: Duration: 00:48:52.80, start: 0.000000, bitrate: 1849 kb/s
2010-09-15 22:59:02 Thumbnail: Stream #0.0: Video: mpeg4, yuv420p, 640x368 [PAR 1:1 DAR 40:23], 20 fps, 20 tbr, 20 tbn, 30k tbc
2010-09-15 22:59:02 Thumbnail: Target Framerate: 20.0
2010-09-15 22:59:02 Thumbnail: Couldn't parse framerate
2010-09-15 22:59:02 Thumbnail: Stream #0.1: Audio: mp3, 48000 Hz, 2 channels, s16, 128 kb/s
2010-09-15 22:59:02 Thumbnail: Output #0, mjpeg, to 'pipe:':
2010-09-15 22:59:02 Thumbnail: Stream #0.0: Video: mjpeg, yuvj420p, 640x368 [PAR 1:1 DAR 40:23], q=2-31, 200 kb/s, 90k tbn, 20 tbc
2010-09-15 22:59:19 Thumbnail: >>
39344D74776E767E68345A72693B4D727F7E743B487E696D7E693B29352F352836797E6F7A2A345A72693B4D727F7E743B487E696D7E69357A6B6B34
5874756F7E756F6834497E68746E69787E68347D7D766B7E7C393B3668683B222B2B352B3B366D7D697A767E683B2A3B36723B39344D74776E767E68
34746B7E7568737A697E34767E7F727A344D727F7E7468345D72777668345A757C777A7268345A786F72747534283B737E6E697E683B6B746E693B62
6E767A357A6D72393B367D3B76716B7E7C3B36
<<

===================================================================================================
2010-09-15 22:59:19 Thumbnail: FFmpeg version UNKNOWN, Copyright (c) 2000-2010 Fabrice Bellard, et al.
2010-09-15 22:59:19 Thumbnail: built on Feb 7 2010 11:39:45 with gcc 4.0.1 (Apple Inc. build 5493)
2010-09-15 22:59:19 Thumbnail: configuration: --enable-pthreads --disable-shared --enable-static --enable-gpl --enable-libx264 --enable-libmp3lame --enable-libfaad --disable-decoder=aac
2010-09-15 22:59:19 Thumbnail: libavutil 50. 8. 0 / 50. 8. 0
2010-09-15 22:59:19 Thumbnail: libavcodec 52.52. 0 / 52.52. 0
2010-09-15 22:59:19 Thumbnail: libavformat 52.50. 0 / 52.50. 0
2010-09-15 22:59:19 Thumbnail: libavdevice 52. 2. 0 / 52. 2. 0
2010-09-15 22:59:19 Thumbnail: libswscale 0.10. 0 / 0.10. 0
2010-09-15 22:59:19 Thumbnail: >>
39344D74776E767E68345A72693B4D727F7E743B487E696D7E693B29352F352836797E6F7A2A345A72693B4D727F7E743B487E696D7E69357A6B6B34
5874756F7E756F6834497E68746E69787E68347D7D766B7E7C393B3668683B222B2B352B3B366D7D697A767E683B2A3B36723B39344D74776E767E68
34746B7E7568737A697E34767E7F727A344D727F7E7468345D72777668345A757C777A7268345A786F72747534292F3B737E6E697E683B7A6D7A756F
3B777A3B756E726F3B6D74686F446B7A696F2A357A6D72393B367D3B76716B7E7C3B36
<<

===================================================================================================
2010-09-15 22:59:19 Thumbnail: FFmpeg version UNKNOWN, Copyright (c) 2000-2010 Fabrice Bellard, et al.
2010-09-15 22:59:19 Thumbnail: built on Feb 7 2010 11:39:45 with gcc 4.0.1 (Apple Inc. build 5493)
2010-09-15 22:59:19 Thumbnail: configuration: --enable-pthreads --disable-shared --enable-static --enable-gpl --enable-libx264 --enable-libmp3lame --enable-libfaad --disable-decoder=aac
2010-09-15 22:59:19 Thumbnail: libavutil 50. 8. 0 / 50. 8. 0
2010-09-15 22:59:19 Thumbnail: libavcodec 52.52. 0 / 52.52. 0
2010-09-15 22:59:19 Thumbnail: libavformat 52.50. 0 / 52.50. 0
2010-09-15 22:59:19 Thumbnail: libavdevice 52. 2. 0 / 52. 2. 0
2010-09-15 22:59:19 Thumbnail: libswscale 0.10. 0 / 0.10. 0
2010-09-15 22:59:20 Thumbnail: >>
39344D74776E767E68345A72693B4D727F7E743B487E696D7E693B29352F352836797E6F7A2A345A72693B4D727F7E743B487E696D7E69357A6B6B34
5874756F7E756F6834497E68746E69787E68347D7D766B7E7C393B3668683B222B2B352B3B366D7D697A767E683B2A3B36723B39344D74776E767E68
34746B7E7568737A697E34767E7F727A344D727F7E7468345D72777668345A757C777A7268345A786F72747534292F3B737E6E697E683B7A6D7A756F
3B777A3B756E726F3B6D74686F446B7A696F29357A6D72393B367D3B76716B7E7C3B36
<<

===================================================================================================
2010-09-15 22:59:20 Thumbnail: Input #0, avi, from '/Volumes/openshare/media/Videos/Films/Anglais/Action/3 heures pour yuma.avi':
2010-09-15 22:59:20 Thumbnail: Duration: 01:57:38.39, start: 0.000000, bitrate: 1031 kb/s
2010-09-15 22:59:20 Thumbnail: Stream #0.0: Video: mpeg4, yuv420p, 480x272 [PAR 1:1 DAR 30:17], 25 fps, 25 tbr, 25 tbn, 25 tbc
2010-09-15 22:59:20 Thumbnail: Target Framerate: 25.0
2010-09-15 22:59:20 Thumbnail: Couldn't parse framerate
2010-09-15 22:59:20 Thumbnail: Stream #0.1: Audio: mp3, 44100 Hz, 2 channels, s16, 128 kb/s
2010-09-15 22:59:20 Thumbnail: FFmpeg version UNKNOWN, Copyright (c) 2000-2010 Fabrice Bellard, et al.
2010-09-15 22:59:20 Thumbnail: built on Feb 7 2010 11:39:45 with gcc 4.0.1 (Apple Inc. build 5493)
2010-09-15 22:59:20 Thumbnail: configuration: --enable-pthreads --disable-shared --enable-static --enable-gpl --enable-libx264 --enable-libmp3lame --enable-libfaad --disable-decoder=aac
2010-09-15 22:59:20 Thumbnail: libavutil 50. 8. 0 / 50. 8. 0
2010-09-15 22:59:20 Thumbnail: libavcodec 52.52. 0 / 52.52. 0
2010-09-15 22:59:20 Thumbnail: libavformat 52.50. 0 / 52.50. 0
2010-09-15 22:59:20 Thumbnail: libavdevice 52. 2. 0 / 52. 2. 0
2010-09-15 22:59:20 Thumbnail: libswscale 0.10. 0 / 0.10. 0
2010-09-15 22:59:20 Thumbnail: Output #0, mjpeg, to 'pipe:':
2010-09-15 22:59:20 Thumbnail: Stream #0.0: Video: mjpeg, yuvj420p, 480x272 [PAR 1:1 DAR 30:17], q=2-31, 200 kb/s, 90k tbn, 25 tbc
2010-09-15 22:59:20 Thumbnail:
2010-09-15 22:59:20 Thumbnail: Seems stream 0 codec frame rate differs from container frame rate: 30000.00 (30000/1) -> 25.00 (25/1)
2010-09-15 22:59:20 Thumbnail: Input #0, avi, from '/Volumes/openshare/media/Videos/Films/Anglais/Action/24 heures avant la nuit vost_part1.avi':
2010-09-15 22:59:20 Thumbnail: Metadata:
2010-09-15 22:59:20 Thumbnail: ISFT : VirtualDubMod 1.5.10.1 (build 2439/release)
2010-09-15 22:59:20 Thumbnail: Duration: 01:02:56.52, start: 0.000000, bitrate: 1432 kb/s
2010-09-15 22:59:20 Thumbnail: Stream #0.0: Video: mpeg4, yuv420p, 640x368 [PAR 1:1 DAR 40:23], 25 fps, 25 tbr, 25 tbn, 30k tbc
2010-09-15 22:59:20 Thumbnail: Target Framerate: 25.0
2010-09-15 22:59:20 Thumbnail: Couldn't parse framerate
2010-09-15 22:59:20 Thumbnail: Stream #0.1: Audio: mp3, 48000 Hz, 2 channels, s16, 128 kb/s
2010-09-15 22:59:20 Thumbnail: Output #0, mjpeg, to 'pipe:':
2010-09-15 22:59:20 Thumbnail: Stream #0.0: Video: mjpeg, yuvj420p, 640x368 [PAR 1:1 DAR 40:23], q=2-31, 200 kb/s, 90k tbn, 25 tbc
2010-09-15 22:59:21 Thumbnail: >>
39344D74776E767E68345A72693B4D727F7E743B487E696D7E693B29352F352836797E6F7A2A345A72693B4D727F7E743B487E696D7E69357A6B6B34
5874756F7E756F6834497E68746E69787E68347D7D766B7E7C393B3668683B222B2B352B3B366D7D697A767E683B2A3B36723B39344D74776E767E68
34746B7E7568737A697E34767E7F727A344D727F7E7468345D72777668345A757C777A7268345A786F727475345A796874776E6F7E3B6B746C7E693B
6D74686F357A6D72393B367D3B76716B7E7C3B36
<<

===================================================================================================
2010-09-15 22:59:21 Thumbnail: FFmpeg version UNKNOWN, Copyright (c) 2000-2010 Fabrice Bellard, et al.
2010-09-15 22:59:21 Thumbnail: built on Feb 7 2010 11:39:45 with gcc 4.0.1 (Apple Inc. build 5493)
2010-09-15 22:59:21 Thumbnail: configuration: --enable-pthreads --disable-shared --enable-static --enable-gpl --enable-libx264 --enable-libmp3lame --enable-libfaad --disable-decoder=aac
2010-09-15 22:59:21 Thumbnail: libavutil 50. 8. 0 / 50. 8. 0
2010-09-15 22:59:21 Thumbnail: libavcodec 52.52. 0 / 52.52. 0
2010-09-15 22:59:21 Thumbnail: libavformat 52.50. 0 / 52.50. 0
2010-09-15 22:59:21 Thumbnail: libavdevice 52. 2. 0 / 52. 2. 0
2010-09-15 22:59:21 Thumbnail: libswscale 0.10. 0 / 0.10. 0
2010-09-15 22:59:21 Thumbnail:
2010-09-15 22:59:21 Thumbnail: Seems stream 0 codec frame rate differs from container frame rate: 30000.00 (30000/1) -> 25.00 (25/1)
2010-09-15 22:59:21 Thumbnail: Input #0, avi, from '/Volumes/openshare/media/Videos/Films/Anglais/Action/24 heures avant la nuit vost_part2.avi':
2010-09-15 22:59:21 Thumbnail: Metadata:
2010-09-15 22:59:21 Thumbnail: ISFT : VirtualDubMod 1.5.10.1 (build 2439/release)
2010-09-15 22:59:21 Thumbnail: Duration: 01:06:20.68, start: 0.000000, bitrate: 1359 kb/s
2010-09-15 22:59:21 Thumbnail: Stream #0.0: Video: mpeg4, yuv420p, 640x368 [PAR 1:1 DAR 40:23], 25 fps, 25 tbr, 25 tbn, 30k tbc
2010-09-15 22:59:21 Thumbnail: Target Framerate: 25.0
2010-09-15 22:59:21 Thumbnail: Couldn't parse framerate
2010-09-15 22:59:21 Thumbnail: Stream #0.1: Audio: mp3, 48000 Hz, 2 channels, s16, 128 kb/s
2010-09-15 22:59:21 Thumbnail: Output #0, mjpeg, to 'pipe:':
2010-09-15 22:59:21 Thumbnail: Stream #0.0: Video: mjpeg, yuvj420p, 640x368 [PAR 1:1 DAR 40:23], q=2-31, 200 kb/s, 90k tbn, 25 tbc
2010-09-15 22:59:22 Thumbnail: >>
39344D74776E767E68345A72693B4D727F7E743B487E696D7E693B29352F352836797E6F7A2A345A72693B4D727F7E743B487E696D7E69357A6B6B34
5874756F7E756F6834497E68746E69787E68347D7D766B7E7C393B3668683B222B2B352B3B366D7D697A767E683B2A3B36723B39344D74776E767E68
34746B7E7568737A697E34767E7F727A344D727F7E7468345D72777668345A757C777A7268345A786F727475345A72693B7A767E6972787A3B6D7468
6F357A6D72393B367D3B76716B7E7C3B36
<<

===================================================================================================
2010-09-15 22:59:22 Thumbnail: FFmpeg version UNKNOWN, Copyright (c) 2000-2010 Fabrice Bellard, et al.
2010-09-15 22:59:22 Thumbnail: built on Feb 7 2010 11:39:45 with gcc 4.0.1 (Apple Inc. build 5493)
2010-09-15 22:59:22 Thumbnail: configuration: --enable-pthreads --disable-shared --enable-static --enable-gpl --enable-libx264 --enable-libmp3lame --enable-libfaad --disable-decoder=aac
2010-09-15 22:59:22 Thumbnail: libavutil 50. 8. 0 / 50. 8. 0
2010-09-15 22:59:22 Thumbnail: libavcodec 52.52. 0 / 52.52. 0
2010-09-15 22:59:22 Thumbnail: libavformat 52.50. 0 / 52.50. 0
2010-09-15 22:59:22 Thumbnail: libavdevice 52. 2. 0 / 52. 2. 0
2010-09-15 22:59:22 Thumbnail: libswscale 0.10. 0 / 0.10. 0
2010-09-15 22:59:22 Thumbnail: >>
39344D74776E767E68345A72693B4D727F7E743B487E696D7E693B29352F352836797E6F7A2A345A72693B4D727F7E743B487E696D7E69357A6B6B34
5874756F7E756F6834497E68746E69787E68347D7D766B7E7C393B3668683B222B2B352B3B366D7D697A767E683B2A3B36723B39344D74776E767E68
34746B7E7568737A697E34767E7F727A344D727F7E7468345D72777668345A757C777A7268345A786F727475345A72693B5D7469787E3B54757E3B6D
74686F357A6D72393B367D3B76716B7E7C3B36
<<

===================================================================================================
2010-09-15 22:59:22 Thumbnail: FFmpeg version UNKNOWN, Copyright (c) 2000-2010 Fabrice Bellard, et al.
2010-09-15 22:59:22 Thumbnail: built on Feb 7 2010 11:39:45 with gcc 4.0.1 (Apple Inc. build 5493)
2010-09-15 22:59:22 Thumbnail: configuration: --enable-pthreads --disable-shared --enable-static --enable-gpl --enable-libx264 --enable-libmp3lame --enable-libfaad --disable-decoder=aac
2010-09-15 22:59:22 Thumbnail: libavutil 50. 8. 0 / 50. 8. 0
2010-09-15 22:59:22 Thumbnail: libavcodec 52.52. 0 / 52.52. 0
2010-09-15 22:59:22 Thumbnail: libavformat 52.50. 0 / 52.50. 0
2010-09-15 22:59:22 Thumbnail: libavdevice 52. 2. 0 / 52. 2. 0
2010-09-15 22:59:22 Thumbnail: libswscale 0.10. 0 / 0.10. 0
2010-09-15 22:59:23 Thumbnail:
2010-09-15 22:59:23 Thumbnail: Seems stream 0 codec frame rate differs from container frame rate: 30000.00 (30000/1) -> 23.98 (24000/1001)
2010-09-15 22:59:23 Thumbnail: Input #0, avi, from '/Volumes/openshare/media/Videos/Films/Anglais/Action/Absolute power vost.avi':
2010-09-15 22:59:23 Thumbnail: Metadata:
2010-09-15 22:59:23 Thumbnail: ISFT : VirtualDubMod 1.5.10.1 (build 2439/release)
2010-09-15 22:59:23 Thumbnail: Duration: 02:01:13.27, start: 0.000000, bitrate: 1488 kb/s
2010-09-15 22:59:23 Thumbnail: Stream #0.0: Video: mpeg4, yuv420p, 640x336 [PAR 1:1 DAR 40:21], 23.98 fps, 23.98 tbr, 23.98 tbn, 30k tbc
2010-09-15 22:59:23 Thumbnail: Target Framerate: 23.976
2010-09-15 22:59:23 Thumbnail: Couldn't parse framerate
2010-09-15 22:59:23 Thumbnail: Stream #0.1: Audio: mp3, 48000 Hz, 2 channels, s16, 128 kb/s
2010-09-15 22:59:23 Thumbnail: Output #0, mjpeg, to 'pipe:':
2010-09-15 22:59:23 Thumbnail: Stream #0.0: Video: mjpeg, yuvj420p, 640x336 [PAR 1:1 DAR 40:21], q=2-31, 200 kb/s, 90k tbn, 23.98 tbc
2010-09-15 22:59:23 Thumbnail:
2010-09-15 22:59:23 Thumbnail: Seems stream 0 codec frame rate differs from container frame rate: 30000.00 (30000/1) -> 25.00 (25/1)
2010-09-15 22:59:23 Thumbnail: Input #0, avi, from '/Volumes/openshare/media/Videos/Films/Anglais/Action/Air america vost.avi':
2010-09-15 22:59:23 Thumbnail: Metadata:
2010-09-15 22:59:23 Thumbnail: ISFT : VirtualDubMod 1.5.10.1 (build 2439/release)
2010-09-15 22:59:23 Thumbnail: Duration: 01:47:33.80, start: 0.000000, bitrate: 1676 kb/s
2010-09-15 22:59:23 Thumbnail: Stream #0.0: Video: mpeg4, yuv420p, 640x352 [PAR 1:1 DAR 20:11], 25 fps, 25 tbr, 25 tbn, 30k tbc
2010-09-15 22:59:23 Thumbnail: Target Framerate: 25.0
2010-09-15 22:59:23 Thumbnail: Couldn't parse framerate
2010-09-15 22:59:23 Thumbnail: Stream #0.1: Audio: mp3, 48000 Hz, 2 channels, s16, 128 kb/s
2010-09-15 22:59:23 Thumbnail: Output #0, mjpeg, to 'pipe:':
2010-09-15 22:59:23 Thumbnail: Stream #0.0: Video: mjpeg, yuvj420p, 640x352 [PAR 1:1 DAR 20:11], q=2-31, 200 kb/s, 90k tbn, 25 tbc
2010-09-15 22:59:23 Thumbnail: >>
39344D74776E767E68345A72693B4D727F7E743B487E696D7E693B29352F352836797E6F7A2A345A72693B4D727F7E743B487E696D7E69357A6B6B34
5874756F7E756F6834497E68746E69787E68347D7D766B7E7C393B3668683B222B2B352B3B366D7D697A767E683B2A3B36723B39344D74776E767E68
34746B7E7568737A697E34767E7F727A344D727F7E7468345D72777668345A757C777A7268345A786F727475345A77777A753B4A6E7A696F7E69767A
72753B6D74686F442A446B7A696F2A357A6D72393B367D3B76716B7E7C3B36
<<

===================================================================================================
2010-09-15 22:59:23 Thumbnail: FFmpeg version UNKNOWN, Copyright (c) 2000-2010 Fabrice Bellard, et al.
2010-09-15 22:59:23 Thumbnail: built on Feb 7 2010 11:39:45 with gcc 4.0.1 (Apple Inc. build 5493)
2010-09-15 22:59:23 Thumbnail: configuration: --enable-pthreads --disable-shared --enable-static --enable-gpl --enable-libx264 --enable-libmp3lame --enable-libfaad --disable-decoder=aac
2010-09-15 22:59:23 Thumbnail: libavutil 50. 8. 0 / 50. 8. 0
2010-09-15 22:59:23 Thumbnail: libavcodec 52.52. 0 / 52.52. 0
2010-09-15 22:59:23 Thumbnail: libavformat 52.50. 0 / 52.50. 0
2010-09-15 22:59:23 Thumbnail: libavdevice 52. 2. 0 / 52. 2. 0
2010-09-15 22:59:23 Thumbnail: libswscale 0.10. 0 / 0.10. 0
2010-09-15 22:59:24 Thumbnail: >>
39344D74776E767E68345A72693B4D727F7E743B487E696D7E693B29352F352836797E6F7A2A345A72693B4D727F7E743B487E696D7E69357A6B6B34
5874756F7E756F6834497E68746E69787E68347D7D766B7E7C393B3668683B222B2B352B3B366D7D697A767E683B2A3B36723B39344D74776E767E68
34746B7E7568737A697E34767E7F727A344D727F7E7468345D72777668345A757C777A7268345A786F727475345A77777A753B4A6E7A696F7E69767A
72753B6D74686F442A446B7A696F29357A6D72393B367D3B76716B7E7C3B36
<<

===================================================================================================
2010-09-15 22:59:24 Thumbnail: FFmpeg version UNKNOWN, Copyright (c) 2000-2010 Fabrice Bellard, et al.
2010-09-15 22:59:24 Thumbnail: built on Feb 7 2010 11:39:45 with gcc 4.0.1 (Apple Inc. build 5493)
2010-09-15 22:59:24 Thumbnail: configuration: --enable-pthreads --disable-shared --enable-static --enable-gpl --enable-libx264 --enable-libmp3lame --enable-libfaad --disable-decoder=aac
2010-09-15 22:59:24 Thumbnail: libavutil 50. 8. 0 / 50. 8. 0
2010-09-15 22:59:24 Thumbnail: libavcodec 52.52. 0 / 52.52. 0
2010-09-15 22:59:24 Thumbnail: libavformat 52.50. 0 / 52.50. 0
2010-09-15 22:59:24 Thumbnail: libavdevice 52. 2. 0 / 52. 2. 0
2010-09-15 22:59:24 Thumbnail: libswscale 0.10. 0 / 0.10. 0
2010-09-15 22:59:24 Thumbnail:
2010-09-15 22:59:24 Thumbnail: Seems stream 0 codec frame rate differs from container frame rate: 30000.00 (30000/1) -> 23.98 (24000/1001)
2010-09-15 22:59:24 Thumbnail: Input #0, avi, from '/Volumes/openshare/media/Videos/Films/Anglais/Action/Air Force One vost.avi':
2010-09-15 22:59:24 Thumbnail: Metadata:
2010-09-15 22:59:24 Thumbnail: ISFT : VirtualDubMod 1.5.10.1 (build 2439/release)
2010-09-15 22:59:24 Thumbnail: Duration: 02:04:33.47, start: 0.000000, bitrate: 1560 kb/s
2010-09-15 22:59:24 Thumbnail: Stream #0.0: Video: mpeg4, yuv420p, 640x464 [PAR 1:1 DAR 40:29], 23.98 fps, 23.98 tbr, 23.98 tbn, 30k tbc
2010-09-15 22:59:24 Thumbnail: Target Framerate: 23.976
2010-09-15 22:59:24 Thumbnail: Couldn't parse framerate
2010-09-15 22:59:24 Thumbnail: Stream #0.1: Audio: mp3, 48000 Hz, 2 channels, s16, 128 kb/s
2010-09-15 22:59:24 Thumbnail: Output #0, mjpeg, to 'pipe:':
2010-09-15 22:59:24 Thumbnail: Stream #0.0: Video: mjpeg, yuvj420p, 640x464 [PAR 1:1 DAR 40:29], q=2-31, 200 kb/s, 90k tbn, 23.98 tbc
2010-09-15 22:59:25 Thumbnail:
2010-09-15 22:59:25 Thumbnail: Seems stream 0 codec frame rate differs from container frame rate: 30000.00 (30000/1) -> 25.00 (25/1)
2010-09-15 22:59:25 Thumbnail: Input #0, avi, from '/Volumes/openshare/media/Videos/Films/Anglais/Action/Allan Quartermain vost_1_part1.avi':
2010-09-15 22:59:25 Thumbnail: Metadata:
2010-09-15 22:59:25 Thumbnail: ISFT : VirtualDubMod 1.5.10.1 (build 2439/release)
2010-09-15 22:59:25 Thumbnail: Duration: 01:26:57.32, start: 0.000000, bitrate: 1125 kb/s
2010-09-15 22:59:25 Thumbnail: Stream #0.0: Video: mpeg4, yuv420p, 640x352 [PAR 1:1 DAR 20:11], 25 fps, 25 tbr, 25 tbn, 30k tbc
2010-09-15 22:59:25 Thumbnail: Target Framerate: 25.0
2010-09-15 22:59:25 Thumbnail: Couldn't parse framerate
2010-09-15 22:59:25 Thumbnail: Stream #0.1: Audio: mp3, 48000 Hz, 2 channels, s16, 128 kb/s
2010-09-15 22:59:25 Thumbnail: Output #0, mjpeg, to 'pipe:':
2010-09-15 22:59:25 Thumbnail: Stream #0.0: Video: mjpeg, yuvj420p, 640x352 [PAR 1:1 DAR 20:11], q=2-31, 200 kb/s, 90k tbn, 25 tbc
2010-09-15 22:59:25 Thumbnail:
2010-09-15 22:59:25 Thumbnail: Seems stream 0 codec frame rate differs from container frame rate: 30000.00 (30000/1) -> 25.00 (25/1)
2010-09-15 22:59:25 Thumbnail: Input #0, avi, from '/Volumes/openshare/media/Videos/Films/Anglais/Action/Allan Quartermain vost_1_part2.avi':
2010-09-15 22:59:25 Thumbnail: Metadata:
2010-09-15 22:59:25 Thumbnail: ISFT : VirtualDubMod 1.5.10.1 (build 2439/release)
2010-09-15 22:59:25 Thumbnail: Duration: 01:21:47.72, start: 0.000000, bitrate: 1196 kb/s
2010-09-15 22:59:25 Thumbnail: Stream #0.0: Video: mpeg4, yuv420p, 640x352 [PAR 1:1 DAR 20:11], 25 fps, 25 tbr, 25 tbn, 30k tbc
2010-09-15 22:59:25 Thumbnail: Target Framerate: 25.0
2010-09-15 22:59:25 Thumbnail: Couldn't parse framerate
2010-09-15 22:59:25 Thumbnail: Stream #0.1: Audio: mp3, 48000 Hz, 2 channels, s16, 128 kb/s
2010-09-15 22:59:25 Thumbnail: Output #0, mjpeg, to 'pipe:':
2010-09-15 22:59:25 Thumbnail: Stream #0.0: Video: mjpeg, yuvj420p, 640x352 [PAR 1:1 DAR 20:11], q=2-31, 200 kb/s, 90k tbn, 25 tbc
2010-09-15 22:59:33 Thumbnail: >>
39344D74776E767E68345A72693B4D727F7E743B487E696D7E693B29352F352836797E6F7A2A345A72693B4D727F7E743B487E696D7E69357A6B6B34
5874756F7E756F6834497E68746E69787E68347D7D766B7E7C393B3668683B222B2B352B3B366D7D697A767E683B2A3B36723B39344D74776E767E68
34746B7E7568737A697E34767E7F727A344D727F7E7468345D72777668345A757C777A7268345A786F727475345A767E6972787A753B7C7A757C686F
7E69357A6D72393B367D3B76716B7E7C3B36
<<

===================================================================================================
2010-09-15 22:59:33 Thumbnail: FFmpeg version UNKNOWN, Copyright (c) 2000-2010 Fabrice Bellard, et al.
2010-09-15 22:59:33 Thumbnail: built on Feb 7 2010 11:39:45 with gcc 4.0.1 (Apple Inc. build 5493)
2010-09-15 22:59:33 Thumbnail: configuration: --enable-pthreads --disable-shared --enable-static --enable-gpl --enable-libx264 --enable-libmp3lame --enable-libfaad --disable-decoder=aac
2010-09-15 22:59:33 Thumbnail: libavutil 50. 8. 0 / 50. 8. 0
2010-09-15 22:59:33 Thumbnail: libavcodec 52.52. 0 / 52.52. 0
2010-09-15 22:59:33 Thumbnail: libavformat 52.50. 0 / 52.50. 0
2010-09-15 22:59:33 Thumbnail: libavdevice 52. 2. 0 / 52. 2. 0
2010-09-15 22:59:33 Thumbnail: libswscale 0.10. 0 / 0.10. 0
2010-09-15 22:59:34 Thumbnail: >>
39344D74776E767E68345A72693B4D727F7E743B487E696D7E693B29352F352836797E6F7A2A345A72693B4D727F7E743B487E696D7E69357A6B6B34
5874756F7E756F6834497E68746E69787E68347D7D766B7E7C393B3668683B222B2B352B3B366D7D697A767E683B2A3B36723B39344D74776E767E68
34746B7E7568737A697E34767E7F727A344D727F7E7468345D72777668345A757C777A7268345A786F727475345A757C7E683B7E6F3B7F7E76747568
357A6D72393B367D3B76716B7E7C3B36
<<

===================================================================================================
2010-09-15 22:59:34 Thumbnail: FFmpeg version UNKNOWN, Copyright (c) 2000-2010 Fabrice Bellard, et al.
2010-09-15 22:59:34 Thumbnail: built on Feb 7 2010 11:39:45 with gcc 4.0.1 (Apple Inc. build 5493)
2010-09-15 22:59:34 Thumbnail: configuration: --enable-pthreads --disable-shared --enable-static --enable-gpl --enable-libx264 --enable-libmp3lame --enable-libfaad --disable-decoder=aac
2010-09-15 22:59:34 Thumbnail: libavutil 50. 8. 0 / 50. 8. 0
2010-09-15 22:59:34 Thumbnail: libavcodec 52.52. 0 / 52.52. 0
2010-09-15 22:59:34 Thumbnail: libavformat 52.50. 0 / 52.50. 0
2010-09-15 22:59:34 Thumbnail: libavdevice 52. 2. 0 / 52. 2. 0
2010-09-15 22:59:34 Thumbnail: libswscale 0.10. 0 / 0.10. 0
2010-09-15 22:59:35 Thumbnail: >>
39344D74776E767E68345A72693B4D727F7E743B487E696D7E693B29352F352836797E6F7A2A345A72693B4D727F7E743B487E696D7E69357A6B6B34
5874756F7E756F6834497E68746E69787E68347D7D766B7E7C393B3668683B222B2B352B3B366D7D697A767E683B2A3B36723B39344D74776E767E68
34746B7E7568737A697E34767E7F727A344D727F7E7468345D72777668345A757C777A7268345A786F727475345A6B747777743B2A283B6D74686F44
6B7A696F2A357A6D72393B367D3B76716B7E7C3B36
<<

===================================================================================================
2010-09-15 22:59:35 Thumbnail: FFmpeg version UNKNOWN, Copyright (c) 2000-2010 Fabrice Bellard, et al.
2010-09-15 22:59:35 Thumbnail: built on Feb 7 2010 11:39:45 with gcc 4.0.1 (Apple Inc. build 5493)
2010-09-15 22:59:35 Thumbnail: configuration: --enable-pthreads --disable-shared --enable-static --enable-gpl --enable-libx264 --enable-libmp3lame --enable-libfaad --disable-decoder=aac
2010-09-15 22:59:35 Thumbnail: libavutil 50. 8. 0 / 50. 8. 0
2010-09-15 22:59:35 Thumbnail: libavcodec 52.52. 0 / 52.52. 0
2010-09-15 22:59:35 Thumbnail: libavformat 52.50. 0 / 52.50. 0
2010-09-15 22:59:35 Thumbnail: libavdevice 52. 2. 0 / 52. 2. 0
2010-09-15 22:59:35 Thumbnail: libswscale 0.10. 0 / 0.10. 0
2010-09-15 22:59:36 Thumbnail: >>
39344D74776E767E68345A72693B4D727F7E743B487E696D7E693B29352F352836797E6F7A2A345A72693B4D727F7E743B487E696D7E69357A6B6B34
5874756F7E756F6834497E68746E69787E68347D7D766B7E7C393B3668683B222B2B352B3B366D7D697A767E683B2A3B36723B39344D74776E767E68
34746B7E7568737A697E34767E7F727A344D727F7E7468345D72777668345A757C777A7268345A786F727475345A6B747777743B2A283B6D74686F44
6B7A696F29357A6D72393B367D3B76716B7E7C3B36
<<

===================================================================================================
2010-09-15 22:59:36 Thumbnail: Input #0, avi, from '/Volumes/openshare/media/Videos/Films/Anglais/Action/American gangster.avi':
2010-09-15 22:59:36 Thumbnail: Duration: 02:48:37.72, start: 0.000000, bitrate: 1317 kb/s
2010-09-15 22:59:36 Thumbnail: Stream #0.0: Video: mpeg4, yuv420p, 640x360 [PAR 1:1 DAR 16:9], 25 fps, 25 tbr, 25 tbn, 25 tbc
2010-09-15 22:59:36 Thumbnail: Target Framerate: 25.0
2010-09-15 22:59:36 Thumbnail: Couldn't parse framerate
2010-09-15 22:59:36 Thumbnail: Stream #0.1: Audio: mp3, 44100 Hz, 2 channels, s16, 128 kb/s
2010-09-15 22:59:36 Thumbnail: Output #0, mjpeg, to 'pipe:':
2010-09-15 22:59:36 Thumbnail: Stream #0.0: Video: mjpeg, yuvj420p, 640x360 [PAR 1:1 DAR 16:9], q=2-31, 200 kb/s, 90k tbn, 25 tbc
2010-09-15 22:59:36 Thumbnail: FFmpeg version UNKNOWN, Copyright (c) 2000-2010 Fabrice Bellard, et al.
2010-09-15 22:59:36 Thumbnail: built on Feb 7 2010 11:39:45 with gcc 4.0.1 (Apple Inc. build 5493)
2010-09-15 22:59:36 Thumbnail: configuration: --enable-pthreads --disable-shared --enable-static --enable-gpl --enable-libx264 --enable-libmp3lame --enable-libfaad --disable-decoder=aac
2010-09-15 22:59:36 Thumbnail: libavutil 50. 8. 0 / 50. 8. 0
2010-09-15 22:59:36 Thumbnail: libavcodec 52.52. 0 / 52.52. 0
2010-09-15 22:59:36 Thumbnail: libavformat 52.50. 0 / 52.50. 0
2010-09-15 22:59:36 Thumbnail: libavdevice 52. 2. 0 / 52. 2. 0
2010-09-15 22:59:36 Thumbnail: libswscale 0.10. 0 / 0.10. 0
2010-09-15 22:59:36 Thumbnail: >>
39344D74776E767E68345A72693B4D727F7E743B487E696D7E693B29352F352836797E6F7A2A345A72693B4D727F7E743B487E696D7E69357A6B6B34
5874756F7E756F6834497E68746E69787E68347D7D766B7E7C393B3668683B222B2B352B3B366D7D697A767E683B2A3B36723B39344D74776E767E68
34746B7E7568737A697E34767E7F727A344D727F7E7468345D72777668345A757C777A7268345A786F727475347A69767A7C7E7F7F74753B6D74686F
357A6D72393B367D3B76716B7E7C3B36
<<

===================================================================================================
2010-09-15 22:59:36 Thumbnail: FFmpeg version UNKNOWN, Copyright (c) 2000-2010 Fabrice Bellard, et al.
2010-09-15 22:59:36 Thumbnail: built on Feb 7 2010 11:39:45 with gcc 4.0.1 (Apple Inc. build 5493)
2010-09-15 22:59:36 Thumbnail: configuration: --enable-pthreads --disable-shared --enable-static --enable-gpl --enable-libx264 --enable-libmp3lame --enable-libfaad --disable-decoder=aac
2010-09-15 22:59:36 Thumbnail: libavutil 50. 8. 0 / 50. 8. 0
2010-09-15 22:59:36 Thumbnail: libavcodec 52.52. 0 / 52.52. 0
2010-09-15 22:59:36 Thumbnail: libavformat 52.50. 0 / 52.50. 0
2010-09-15 22:59:36 Thumbnail: libavdevice 52. 2. 0 / 52. 2. 0
2010-09-15 22:59:36 Thumbnail: libswscale 0.10. 0 / 0.10. 0
2010-09-15 22:59:36 Thumbnail:
2010-09-15 22:59:36 Thumbnail: Seems stream 0 codec frame rate differs from container frame rate: 30000.00 (30000/1) -> 25.00 (25/1)
2010-09-15 22:59:36 Thumbnail: Input #0, avi, from '/Volumes/openshare/media/Videos/Films/Anglais/Action/Apollo 13 vost_part1.avi':
2010-09-15 22:59:36 Thumbnail: Metadata:
2010-09-15 22:59:36 Thumbnail: ISFT : VirtualDubMod 1.5.10.1 (build 2439/release)
2010-09-15 22:59:36 Thumbnail: Duration: 01:06:31.76, start: 0.000000, bitrate: 1351 kb/s
2010-09-15 22:59:36 Thumbnail: Stream #0.0: Video: mpeg4, yuv420p, 640x368 [PAR 1:1 DAR 40:23], 25 fps, 25 tbr, 25 tbn, 30k tbc
2010-09-15 22:59:36 Thumbnail: Target Framerate: 25.0
2010-09-15 22:59:36 Thumbnail: Couldn't parse framerate
2010-09-15 22:59:36 Thumbnail: Stream #0.1: Audio: mp3, 48000 Hz, 2 channels, s16, 128 kb/s
2010-09-15 22:59:36 Thumbnail: Output #0, mjpeg, to 'pipe:':
2010-09-15 22:59:36 Thumbnail: Stream #0.0: Video: mjpeg, yuvj420p, 640x368 [PAR 1:1 DAR 40:23], q=2-31, 200 kb/s, 90k tbn, 25 tbc
2010-09-15 22:59:37 Thumbnail: >>
39344D74776E767E68345A72693B4D727F7E743B487E696D7E693B29352F352836797E6F7A2A345A72693B4D727F7E743B487E696D7E69357A6B6B34
5874756F7E756F6834497E68746E69787E68347D7D766B7E7C393B3668683B222B2B352B3B366D7D697A767E683B2A3B36723B39344D74776E767E68
34746B7E7568737A697E34767E7F727A344D727F7E7468345D72777668345A757C777A7268345A786F727475345A696F3B747D3B6C7A693B6D74686F
357A6D72393B367D3B76716B7E7C3B36
<<

===================================================================================================
2010-09-15 22:59:37 Thumbnail: FFmpeg version UNKNOWN, Copyright (c) 2000-2010 Fabrice Bellard, et al.
2010-09-15 22:59:37 Thumbnail: built on Feb 7 2010 11:39:45 with gcc 4.0.1 (Apple Inc. build 5493)
2010-09-15 22:59:37 Thumbnail: configuration: --enable-pthreads --disable-shared --enable-static --enable-gpl --enable-libx264 --enable-libmp3lame --enable-libfaad --disable-decoder=aac
2010-09-15 22:59:37 Thumbnail: libavutil 50. 8. 0 / 50. 8. 0
2010-09-15 22:59:37 Thumbnail: libavcodec 52.52. 0 / 52.52. 0
2010-09-15 22:59:37 Thumbnail: libavformat 52.50. 0 / 52.50. 0
2010-09-15 22:59:37 Thumbnail: libavdevice 52. 2. 0 / 52. 2. 0
2010-09-15 22:59:37 Thumbnail: libswscale 0.10. 0 / 0.10. 0
2010-09-15 22:59:37 Thumbnail:
2010-09-15 22:59:37 Thumbnail: Seems stream 0 codec frame rate differs from container frame rate: 30000.00 (30000/1) -> 25.00 (25/1)
2010-09-15 22:59:37 Thumbnail: Input #0, avi, from '/Volumes/openshare/media/Videos/Films/Anglais/Action/Apollo 13 vost_part2.avi':
2010-09-15 22:59:37 Thumbnail: Metadata:
2010-09-15 22:59:37 Thumbnail: ISFT : VirtualDubMod 1.5.10.1 (build 2439/release)
2010-09-15 22:59:37 Thumbnail: Duration: 01:07:23.76, start: 0.000000, bitrate: 1338 kb/s
2010-09-15 22:59:37 Thumbnail: Stream #0.0: Video: mpeg4, yuv420p, 640x368 [PAR 1:1 DAR 40:23], 25 fps, 25 tbr, 25 tbn, 30k tbc
2010-09-15 22:59:37 Thumbnail: Target Framerate: 25.0
2010-09-15 22:59:37 Thumbnail: Couldn't parse framerate
2010-09-15 22:59:37 Thumbnail: Stream #0.1: Audio: mp3, 48000 Hz, 2 channels, s16, 128 kb/s
2010-09-15 22:59:37 Thumbnail: Output #0, mjpeg, to 'pipe:':
2010-09-15 22:59:37 Thumbnail: Stream #0.0: Video: mjpeg, yuvj420p, 640x368 [PAR 1:1 DAR 40:23], q=2-31, 200 kb/s, 90k tbn, 25 tbc
2010-09-15 22:59:37 Thumbnail: Input #0, avi, from '/Volumes/openshare/media/Videos/Films/Anglais/Action/Anges et demons.avi':
2010-09-15 22:59:37 Thumbnail: Duration: 02:20:01.08, start: 0.000000, bitrate: 1253 kb/s
2010-09-15 22:59:37 Thumbnail: Stream #0.0: Video: mpeg4, yuv420p, 640x360 [PAR 1:1 DAR 16:9], 25 fps, 25 tbr, 25 tbn, 25 tbc
2010-09-15 22:59:37 Thumbnail: Target Framerate: 25.0
2010-09-15 22:59:37 Thumbnail: Couldn't parse framerate
2010-09-15 22:59:37 Thumbnail: Stream #0.1: Audio: mp3, 44100 Hz, 2 channels, s16, 128 kb/s
2010-09-15 22:59:37 Thumbnail: Output #0, mjpeg, to 'pipe:':
2010-09-15 22:59:37 Thumbnail: Stream #0.0: Video: mjpeg, yuvj420p, 640x360 [PAR 1:1 DAR 16:9], q=2-31, 200 kb/s, 90k tbn, 25 tbc
2010-09-15 22:59:39 Thumbnail:
2010-09-15 22:59:39 Thumbnail: Seems stream 0 codec frame rate differs from container frame rate: 30000.00 (30000/1) -> 25.00 (25/1)
2010-09-15 22:59:39 Thumbnail: Input #0, avi, from '/Volumes/openshare/media/Videos/Films/Anglais/Action/armageddon vost.avi':
2010-09-15 22:59:39 Thumbnail: Metadata:
2010-09-15 22:59:39 Thumbnail: ISFT : VirtualDubMod 1.5.10.1 (build 2439/release)
2010-09-15 22:59:39 Thumbnail: Duration: 02:24:40.68, start: 0.000000, bitrate: 1342 kb/s
2010-09-15 22:59:39 Thumbnail: Stream #0.0: Video: mpeg4, yuv420p, 640x352 [PAR 1:1 DAR 20:11], 25 fps, 25 tbr, 25 tbn, 30k tbc
2010-09-15 22:59:39 Thumbnail: Target Framerate: 25.0
2010-09-15 22:59:39 Thumbnail: Couldn't parse framerate
2010-09-15 22:59:39 Thumbnail: Stream #0.1: Audio: mp3, 48000 Hz, 2 channels, s16, 128 kb/s
2010-09-15 22:59:39 Thumbnail: Output #0, mjpeg, to 'pipe:':
2010-09-15 22:59:39 Thumbnail: Stream #0.0: Video: mjpeg, yuvj420p, 640x352 [PAR 1:1 DAR 20:11], q=2-31, 200 kb/s, 90k tbn, 25 tbc
2010-09-15 22:59:39 Thumbnail:
2010-09-15 22:59:39 Thumbnail: Seems stream 0 codec frame rate differs from container frame rate: 30000.00 (30000/1) -> 25.00 (25/1)
2010-09-15 22:59:39 Thumbnail: Input #0, avi, from '/Volumes/openshare/media/Videos/Films/Anglais/Action/Art of war vost.avi':
2010-09-15 22:59:39 Thumbnail: Metadata:
2010-09-15 22:59:39 Thumbnail: ISFT : VirtualDubMod 1.5.10.1 (build 2439/release)
2010-09-15 22:59:39 Thumbnail: Duration: 01:53:20.00, start: 0.000000, bitrate: 1591 kb/s
2010-09-15 22:59:39 Thumbnail: Stream #0.0: Video: mpeg4, yuv420p, 640x368 [PAR 1:1 DAR 40:23], 25 fps, 25 tbr, 25 tbn, 30k tbc
2010-09-15 22:59:39 Thumbnail: Target Framerate: 25.0
2010-09-15 22:59:39 Thumbnail: Couldn't parse framerate
2010-09-15 22:59:39 Thumbnail: Stream #0.1: Audio: mp3, 48000 Hz, 2 channels, s16, 128 kb/s
2010-09-15 22:59:39 Thumbnail: Output #0, mjpeg, to 'pipe:':
2010-09-15 22:59:39 Thumbnail: Stream #0.0: Video: mjpeg, yuvj420p, 640x368 [PAR 1:1 DAR 40:23], q=2-31, 200 kb/s, 90k tbn, 25 tbc
2010-09-15 22:59:49 Thumbnail: >>
39344D74776E767E68345A72693B4D727F7E743B487E696D7E693B29352F352836797E6F7A2A345A72693B4D727F7E743B487E696D7E69357A6B6B34
5874756F7E756F6834497E68746E69787E68347D7D766B7E7C393B3668683B222B2B352B3B366D7D697A767E683B2A3B36723B39344D74776E767E68
34746B7E7568737A697E34767E7F727A344D727F7E7468345D72777668345A757C777A7268345A786F727475345A6E3B697E6D7472693BD8BB3B717A
767A7268355A4D52393B367D3B76716B7E7C3B36
<<

===================================================================================================
2010-09-15 22:59:49 Thumbnail: FFmpeg version UNKNOWN, Copyright (c) 2000-2010 Fabrice Bellard, et al.
2010-09-15 22:59:49 Thumbnail: built on Feb 7 2010 11:39:45 with gcc 4.0.1 (Apple Inc. build 5493)
2010-09-15 22:59:49 Thumbnail: configuration: --enable-pthreads --disable-shared --enable-static --enable-gpl --enable-libx264 --enable-libmp3lame --enable-libfaad --disable-decoder=aac
2010-09-15 22:59:49 Thumbnail: libavutil 50. 8. 0 / 50. 8. 0
2010-09-15 22:59:49 Thumbnail: libavcodec 52.52. 0 / 52.52. 0
2010-09-15 22:59:49 Thumbnail: libavformat 52.50. 0 / 52.50. 0
2010-09-15 22:59:49 Thumbnail: libavdevice 52. 2. 0 / 52. 2. 0
2010-09-15 22:59:49 Thumbnail: libswscale 0.10. 0 / 0.10. 0
2010-09-15 22:59:50 Thumbnail:
2010-09-15 22:59:50 Thumbnail: Seems stream 0 codec frame rate differs from container frame rate: 1000.00 (1000/1) -> 25.00 (25/1)
2010-09-15 22:59:50 Thumbnail: Input #0, avi, from '/Volumes/openshare/media/Videos/Films/Anglais/Action/Au revoir à jamais.AVI':
2010-09-15 22:59:50 Thumbnail: Duration: 01:23:49.84, start: 0.000000, bitrate: 1011 kb/s
2010-09-15 22:59:50 Thumbnail: Stream #0.0: Video: mpeg4, yuv420p, 320x240 [PAR 1:1 DAR 4:3], 25 fps, 25 tbr, 25 tbn, 1k tbc
2010-09-15 22:59:50 Thumbnail: Target Framerate: 25.0
2010-09-15 22:59:50 Thumbnail: Couldn't parse framerate
2010-09-15 22:59:50 Thumbnail: Stream #0.1: Audio: mp3, 44100 Hz, 2 channels, s16, 192 kb/s
2010-09-15 22:59:50 Thumbnail: Output #0, mjpeg, to 'pipe:':
2010-09-15 22:59:50 Thumbnail: Stream #0.0: Video: mjpeg, yuvj420p, 320x240 [PAR 1:1 DAR 4:3], q=2-31, 200 kb/s, 90k tbn, 25 tbc
2010-09-15 22:59:50 Thumbnail: >>
39344D74776E767E68345A72693B4D727F7E743B487E696D7E693B29352F352836797E6F7A2A345A72693B4D727F7E743B487E696D7E69357A6B6B34
5874756F7E756F6834497E68746E69787E68347D7D766B7E7C393B3668683B222B2B352B3B366D7D697A767E683B2A3B36723B39344D74776E767E68
34746B7E7568737A697E34767E7F727A344D727F7E7468345D72777668345A757C777A7268345A786F727475345972697F3B74753B7A3B6C72697E3B
6D74355A4D52393B367D3B76716B7E7C3B36
<<

===================================================================================================
2010-09-15 22:59:50 Thumbnail: FFmpeg version UNKNOWN, Copyright (c) 2000-2010 Fabrice Bellard, et al.
2010-09-15 22:59:50 Thumbnail: built on Feb 7 2010 11:39:45 with gcc 4.0.1 (Apple Inc. build 5493)
2010-09-15 22:59:50 Thumbnail: configuration: --enable-pthreads --disable-shared --enable-static --enable-gpl --enable-libx264 --enable-libmp3lame --enable-libfaad --disable-decoder=aac
2010-09-15 22:59:50 Thumbnail: libavutil 50. 8. 0 / 50. 8. 0
2010-09-15 22:59:50 Thumbnail: libavcodec 52.52. 0 / 52.52. 0
2010-09-15 22:59:50 Thumbnail: libavformat 52.50. 0 / 52.50. 0
2010-09-15 22:59:50 Thumbnail: libavdevice 52. 2. 0 / 52. 2. 0
2010-09-15 22:59:50 Thumbnail: libswscale 0.10. 0 / 0.10. 0
2010-09-15 22:59:51 Thumbnail:
2010-09-15 22:59:51 Thumbnail: Seems stream 0 codec frame rate differs from container frame rate: 1000.00 (1000/1) -> 25.00 (25/1)
2010-09-15 22:59:51 Thumbnail: Input #0, avi, from '/Volumes/openshare/media/Videos/Films/Anglais/Action/Bird on a wire vo.AVI':
2010-09-15 22:59:51 Thumbnail: Duration: 01:52:01.28, start: 0.000000, bitrate: 2162 kb/s
2010-09-15 22:59:51 Thumbnail: Stream #0.0: Video: mpeg4, yuv420p, 320x240 [PAR 1:1 DAR 4:3], 25 fps, 25 tbr, 25 tbn, 1k tbc
2010-09-15 22:59:51 Thumbnail: Target Framerate: 25.0
2010-09-15 22:59:51 Thumbnail: Couldn't parse framerate
2010-09-15 22:59:51 Thumbnail: Stream #0.1: Audio: mp3, 44100 Hz, 2 channels, s16, 192 kb/s
2010-09-15 22:59:51 Thumbnail: Output #0, mjpeg, to 'pipe:':
2010-09-15 22:59:51 Thumbnail: Stream #0.0: Video: mjpeg, yuvj420p, 320x240 [PAR 1:1 DAR 4:3], q=2-31, 200 kb/s, 90k tbn, 25 tbc
2010-09-15 22:59:51 Thumbnail: >>
39344D74776E767E68345A72693B4D727F7E743B487E696D7E693B29352F352836797E6F7A2A345A72693B4D727F7E743B487E696D7E69357A6B6B34
5874756F7E756F6834497E68746E69787E68347D7D766B7E7C393B3668683B222B2B352B3B366D7D697A767E683B2A3B36723B39344D74776E767E68
34746B7E7568737A697E34767E7F727A344D727F7E7468345D72777668345A757C777A7268345A786F7274753459777A7F7E3B696E75757E693B6D74
686F446B7A696F2A357A6D72393B367D3B76716B7E7C3B36
<<

===================================================================================================
2010-09-15 22:59:51 Thumbnail: FFmpeg version UNKNOWN, Copyright (c) 2000-2010 Fabrice Bellard, et al.
2010-09-15 22:59:51 Thumbnail: built on Feb 7 2010 11:39:45 with gcc 4.0.1 (Apple Inc. build 5493)
2010-09-15 22:59:51 Thumbnail: configuration: --enable-pthreads --disable-shared --enable-static --enable-gpl --enable-libx264 --enable-libmp3lame --enable-libfaad --disable-decoder=aac
2010-09-15 22:59:51 Thumbnail: libavutil 50. 8. 0 / 50. 8. 0
2010-09-15 22:59:51 Thumbnail: libavcodec 52.52. 0 / 52.52. 0
2010-09-15 22:59:51 Thumbnail: libavformat 52.50. 0 / 52.50. 0
2010-09-15 22:59:51 Thumbnail: libavdevice 52. 2. 0 / 52. 2. 0
2010-09-15 22:59:51 Thumbnail: libswscale 0.10. 0 / 0.10. 0
2010-09-15 22:59:52 Thumbnail:
2010-09-15 22:59:52 Thumbnail: Seems stream 0 codec frame rate differs from container frame rate: 30000.00 (30000/1) -> 20.00 (20/1)
2010-09-15 22:59:52 Thumbnail: Input #0, avi, from '/Volumes/openshare/media/Videos/Films/Anglais/Action/Blade runner vost_part1.avi':
2010-09-15 22:59:52 Thumbnail: Metadata:
2010-09-15 22:59:52 Thumbnail: ISFT : VirtualDubMod 1.5.10.1 (build 2439/release)
2010-09-15 22:59:52 Thumbnail: Duration: 00:55:30.85, start: 0.000000, bitrate: 1623 kb/s
2010-09-15 22:59:52 Thumbnail: Stream #0.0: Video: mpeg4, yuv420p, 640x368 [PAR 1:1 DAR 40:23], 20 fps, 20 tbr, 20 tbn, 30k tbc
2010-09-15 22:59:52 Thumbnail: Target Framerate: 20.0
2010-09-15 22:59:52 Thumbnail: Couldn't parse framerate
2010-09-15 22:59:52 Thumbnail: Stream #0.1: Audio: mp3, 48000 Hz, 2 channels, s16, 128 kb/s
2010-09-15 22:59:52 Thumbnail: Output #0, mjpeg, to 'pipe:':
2010-09-15 22:59:52 Thumbnail: Stream #0.0: Video: mjpeg, yuvj420p, 640x368 [PAR 1:1 DAR 40:23], q=2-31, 200 kb/s, 90k tbn, 20 tbc
2010-09-15 22:59:54 Thumbnail: >>
39344D74776E767E68345A72693B4D727F7E743B487E696D7E693B29352F352836797E6F7A2A345A72693B4D727F7E743B487E696D7E69357A6B6B34
5874756F7E756F6834497E68746E69787E68347D7D766B7E7C393B3668683B222B2B352B3B366D7D697A767E683B2A3B36723B39344D74776E767E68
34746B7E7568737A697E34767E7F727A344D727F7E7468345D72777668345A757C777A7268345A786F7274753459777A7F7E3B696E75757E693B6D74
686F446B7A696F29357A6D72393B367D3B76716B7E7C3B36
<<

===================================================================================================
2010-09-15 22:59:54 Thumbnail: FFmpeg version UNKNOWN, Copyright (c) 2000-2010 Fabrice Bellard, et al.
2010-09-15 22:59:54 Thumbnail: built on Feb 7 2010 11:39:45 with gcc 4.0.1 (Apple Inc. build 5493)
2010-09-15 22:59:54 Thumbnail: configuration: --enable-pthreads --disable-shared --enable-static --enable-gpl --enable-libx264 --enable-libmp3lame --enable-libfaad --disable-decoder=aac
2010-09-15 22:59:54 Thumbnail: libavutil 50. 8. 0 / 50. 8. 0
2010-09-15 22:59:54 Thumbnail: libavcodec 52.52. 0 / 52.52. 0
2010-09-15 22:59:54 Thumbnail: libavformat 52.50. 0 / 52.50. 0
2010-09-15 22:59:54 Thumbnail: libavdevice 52. 2. 0 / 52. 2. 0
2010-09-15 22:59:54 Thumbnail: libswscale 0.10. 0 / 0.10. 0
2010-09-15 22:59:54 Thumbnail:
2010-09-15 22:59:54 Thumbnail: Seems stream 0 codec frame rate differs from container frame rate: 30000.00 (30000/1) -> 20.00 (20/1)
2010-09-15 22:59:54 Thumbnail: Input #0, avi, from '/Volumes/openshare/media/Videos/Films/Anglais/Action/Blade runner vost_part2.avi':
2010-09-15 22:59:54 Thumbnail: Metadata:
2010-09-15 22:59:54 Thumbnail: ISFT : VirtualDubMod 1.5.10.1 (build 2439/release)
2010-09-15 22:59:54 Thumbnail: Duration: 00:56:28.40, start: 0.000000, bitrate: 1598 kb/s
2010-09-15 22:59:54 Thumbnail: Stream #0.0: Video: mpeg4, yuv420p, 640x368 [PAR 1:1 DAR 40:23], 20 fps, 20 tbr, 20 tbn, 30k tbc
2010-09-15 22:59:54 Thumbnail: Target Framerate: 20.0
2010-09-15 22:59:54 Thumbnail: Couldn't parse framerate
2010-09-15 22:59:54 Thumbnail: Stream #0.1: Audio: mp3, 48000 Hz, 2 channels, s16, 128 kb/s
2010-09-15 22:59:54 Thumbnail: Output #0, mjpeg, to 'pipe:':
2010-09-15 22:59:54 Thumbnail: Stream #0.0: Video: mjpeg, yuvj420p, 640x368 [PAR 1:1 DAR 40:23], q=2-31, 200 kb/s, 90k tbn, 20 tbc
2010-09-15 22:59:54 Thumbnail: >>
39344D74776E767E68345A72693B4D727F7E743B487E696D7E693B29352F352836797E6F7A2A345A72693B4D727F7E743B487E696D7E69357A6B6B34
5874756F7E756F6834497E68746E69787E68347D7D766B7E7C393B3668683B222B2B352B3B366D7D697A767E683B2A3B36723B39344D74776E767E68
34746B7E7568737A697E34767E7F727A344D727F7E7468345D72777668345A757C777A7268345A786F72747534597774747F3B7F727A7674757F357A
6D72393B367D3B76716B7E7C3B36
<<

===================================================================================================
2010-09-15 22:59:54 Thumbnail: FFmpeg version UNKNOWN, Copyright (c) 2000-2010 Fabrice Bellard, et al.
2010-09-15 22:59:54 Thumbnail: built on Feb 7 2010 11:39:45 with gcc 4.0.1 (Apple Inc. build 5493)
2010-09-15 22:59:54 Thumbnail: configuration: --enable-pthreads --disable-shared --enable-static --enable-gpl --enable-libx264 --enable-libmp3lame --enable-libfaad --disable-decoder=aac
2010-09-15 22:59:54 Thumbnail: libavutil 50. 8. 0 / 50. 8. 0
2010-09-15 22:59:54 Thumbnail: libavcodec 52.52. 0 / 52.52. 0
2010-09-15 22:59:54 Thumbnail: libavformat 52.50. 0 / 52.50. 0
2010-09-15 22:59:54 Thumbnail: libavdevice 52. 2. 0 / 52. 2. 0
2010-09-15 22:59:54 Thumbnail: libswscale 0.10. 0 / 0.10. 0
2010-09-15 22:59:55 Thumbnail: >>
39344D74776E767E68345A72693B4D727F7E743B487E696D7E693B29352F352836797E6F7A2A345A72693B4D727F7E743B487E696D7E69357A6B6B34
5874756F7E756F6834497E68746E69787E68347D7D766B7E7C393B3668683B222B2B352B3B366D7D697A767E683B2A3B36723B344D74776E767E6834
746B7E7568737A697E34767E7F727A344D727F7E7468345D72777668345A757C777A7268345A786F7274753479747F627C6E7A697F357A6D723B367D
3B76716B7E7C3B36
<<

===================================================================================================
2010-09-15 22:59:55 Thumbnail: FFmpeg version UNKNOWN, Copyright (c) 2000-2010 Fabrice Bellard, et al.
2010-09-15 22:59:55 Thumbnail: built on Feb 7 2010 11:39:45 with gcc 4.0.1 (Apple Inc. build 5493)
2010-09-15 22:59:55 Thumbnail: configuration: --enable-pthreads --disable-shared --enable-static --enable-gpl --enable-libx264 --enable-libmp3lame --enable-libfaad --disable-decoder=aac
2010-09-15 22:59:55 Thumbnail: libavutil 50. 8. 0 / 50. 8. 0
2010-09-15 22:59:55 Thumbnail: libavcodec 52.52. 0 / 52.52. 0
2010-09-15 22:59:55 Thumbnail: libavformat 52.50. 0 / 52.50. 0
2010-09-15 22:59:55 Thumbnail: libavdevice 52. 2. 0 / 52. 2. 0
2010-09-15 22:59:55 Thumbnail: libswscale 0.10. 0 / 0.10. 0
2010-09-15 22:59:56 Thumbnail: Input #0, avi, from '/Volumes/openshare/media/Videos/Films/Anglais/Action/Blood diamond.avi':
2010-09-15 22:59:56 Thumbnail: Duration: 02:17:25.68, start: 0.000000, bitrate: 1034 kb/s
2010-09-15 22:59:56 Thumbnail: Stream #0.0: Video: mpeg4, yuv420p, 480x272 [PAR 1:1 DAR 30:17], 25 fps, 25 tbr, 25 tbn, 25 tbc
2010-09-15 22:59:56 Thumbnail: Target Framerate: 25.0
2010-09-15 22:59:56 Thumbnail: Couldn't parse framerate
2010-09-15 22:59:56 Thumbnail: Stream #0.1: Audio: mp3, 44100 Hz, 2 channels, s16, 128 kb/s
2010-09-15 22:59:56 Thumbnail: Output #0, mjpeg, to 'pipe:':
2010-09-15 22:59:56 Thumbnail: Stream #0.0: Video: mjpeg, yuvj420p, 480x272 [PAR 1:1 DAR 30:17], q=2-31, 200 kb/s, 90k tbn, 25 tbc
2010-09-15 22:59:57 Thumbnail: >>
39344D74776E767E68345A72693B4D727F7E743B487E696D7E693B29352F352836797E6F7A2A345A72693B4D727F7E743B487E696D7E69357A6B6B34
5874756F7E756F6834497E68746E69787E68347D7D766B7E7C393B3668683B222B2B352B3B366D7D697A767E683B2A3B36723B39344D74776E767E68
34746B7E7568737A697E34767E7F727A344D727F7E7468345D72777668345A757C777A7268345A786F72747534596E6F78733B587A6868727F623B6D
74686F446B7A696F2A357A6D72393B367D3B76716B7E7C3B36
<<

===================================================================================================
2010-09-15 22:59:57 Thumbnail: FFmpeg version UNKNOWN, Copyright (c) 2000-2010 Fabrice Bellard, et al.
2010-09-15 22:59:57 Thumbnail: built on Feb 7 2010 11:39:45 with gcc 4.0.1 (Apple Inc. build 5493)
2010-09-15 22:59:57 Thumbnail: configuration: --enable-pthreads --disable-shared --enable-static --enable-gpl --enable-libx264 --enable-libmp3lame --enable-libfaad --disable-decoder=aac
2010-09-15 22:59:57 Thumbnail: libavutil 50. 8. 0 / 50. 8. 0
2010-09-15 22:59:57 Thumbnail: libavcodec 52.52. 0 / 52.52. 0
2010-09-15 22:59:57 Thumbnail: libavformat 52.50. 0 / 52.50. 0
2010-09-15 22:59:57 Thumbnail: libavdevice 52. 2. 0 / 52. 2. 0
2010-09-15 22:59:57 Thumbnail: libswscale 0.10. 0 / 0.10. 0
2010-09-15 22:59:57 Thumbnail:
2010-09-15 22:59:57 Thumbnail: Seems stream 0 codec frame rate differs from container frame rate: 30000.00 (30000/1) -> 25.00 (25/1)
2010-09-15 22:59:57 Thumbnail: Input #0, avi, from '/Volumes/openshare/media/Videos/Films/Anglais/Action/bodyguard.avi':
2010-09-15 22:59:57 Thumbnail: Metadata:
2010-09-15 22:59:57 Thumbnail: ISFT : VirtualDubMod 1.5.10.1 (build 2439/release)
2010-09-15 22:59:57 Thumbnail: Duration: 02:04:01.76, start: 0.000000, bitrate: 1454 kb/s
2010-09-15 22:59:57 Thumbnail: Stream #0.0: Video: mpeg4, yuv420p, 640x352 [PAR 1:1 DAR 20:11], 25 fps, 25 tbr, 25 tbn, 30k tbc
2010-09-15 22:59:57 Thumbnail: Target Framerate: 25.0
2010-09-15 22:59:57 Thumbnail: Couldn't parse framerate
2010-09-15 22:59:57 Thumbnail: Stream #0.1: Audio: mp3, 48000 Hz, 2 channels, s16, 128 kb/s
2010-09-15 22:59:57 Thumbnail: Output #0, mjpeg, to 'pipe:':
2010-09-15 22:59:57 Thumbnail: Stream #0.0: Video: mjpeg, yuvj420p, 640x352 [PAR 1:1 DAR 20:11], q=2-31, 200 kb/s, 90k tbn, 25 tbc
2010-09-15 22:59:58 Thumbnail:
2010-09-15 22:59:58 Thumbnail: Seems stream 0 codec frame rate differs from container frame rate: 30000.00 (30000/1) -> 20.00 (20/1)
2010-09-15 22:59:58 Thumbnail: Input #0, avi, from '/Volumes/openshare/media/Videos/Films/Anglais/Action/Butch Cassidy vost_part1.avi':
2010-09-15 22:59:58 Thumbnail: Metadata:
2010-09-15 22:59:58 Thumbnail: ISFT : VirtualDubMod 1.5.10.1 (build 2439/release)
2010-09-15 22:59:58 Thumbnail: Duration: 00:57:03.20, start: 0.000000, bitrate: 1575 kb/s
2010-09-15 22:59:58 Thumbnail: Stream #0.0: Video: mpeg4, yuv420p, 640x368 [PAR 1:1 DAR 40:23], 20 fps, 20 tbr, 20 tbn, 30k tbc
2010-09-15 22:59:58 Thumbnail: Target Framerate: 20.0
2010-09-15 22:59:58 Thumbnail: Couldn't parse framerate
2010-09-15 22:59:58 Thumbnail: Stream #0.1: Audio: mp3, 48000 Hz, 2 channels, s16, 128 kb/s
2010-09-15 22:59:58 Thumbnail: Output #0, mjpeg, to 'pipe:':
2010-09-15 22:59:58 Thumbnail: Stream #0.0: Video: mjpeg, yuvj420p, 640x368 [PAR 1:1 DAR 40:23], q=2-31, 200 kb/s, 90k tbn, 20 tbc
2010-09-15 22:59:58 Thumbnail: >>
39344D74776E767E68345A72693B4D727F7E743B487E696D7E693B29352F352836797E6F7A2A345A72693B4D727F7E743B487E696D7E69357A6B6B34
5874756F7E756F6834497E68746E69787E68347D7D766B7E7C393B3668683B222B2B352B3B366D7D697A767E683B2A3B36723B39344D74776E767E68
34746B7E7568737A697E34767E7F727A344D727F7E7468345D72777668345A757C777A7268345A786F72747534587A6F6C74767A753B6D74686F446B
7A696F2A357A6D72393B367D3B76716B7E7C3B36
<<

===================================================================================================
2010-09-15 22:59:58 Thumbnail: FFmpeg version UNKNOWN, Copyright (c) 2000-2010 Fabrice Bellard, et al.
2010-09-15 22:59:58 Thumbnail: built on Feb 7 2010 11:39:45 with gcc 4.0.1 (Apple Inc. build 5493)
2010-09-15 22:59:58 Thumbnail: configuration: --enable-pthreads --disable-shared --enable-static --enable-gpl --enable-libx264 --enable-libmp3lame --enable-libfaad --disable-decoder=aac
2010-09-15 22:59:58 Thumbnail: libavutil 50. 8. 0 / 50. 8. 0
2010-09-15 22:59:58 Thumbnail: libavcodec 52.52. 0 / 52.52. 0
2010-09-15 22:59:58 Thumbnail: libavformat 52.50. 0 / 52.50. 0
2010-09-15 22:59:58 Thumbnail: libavdevice 52. 2. 0 / 52. 2. 0
2010-09-15 22:59:58 Thumbnail: libswscale 0.10. 0 / 0.10. 0
2010-09-15 22:59:59 Thumbnail: >>
39344D74776E767E68345A72693B4D727F7E743B487E696D7E693B29352F352836797E6F7A2A345A72693B4D727F7E743B487E696D7E69357A6B6B34
5874756F7E756F6834497E68746E69787E68347D7D766B7E7C393B3668683B222B2B352B3B366D7D697A767E683B2A3B36723B39344D74776E767E68
34746B7E7568737A697E34767E7F727A344D727F7E7468345D72777668345A757C777A7268345A786F72747534587A6F6C74767A753B6D74686F446B
7A696F29357A6D72393B367D3B76716B7E7C3B36
<<

===================================================================================================
2010-09-15 22:59:59 Thumbnail: FFmpeg version UNKNOWN, Copyright (c) 2000-2010 Fabrice Bellard, et al.
2010-09-15 22:59:59 Thumbnail: built on Feb 7 2010 11:39:45 with gcc 4.0.1 (Apple Inc. build 5493)
2010-09-15 22:59:59 Thumbnail: configuration: --enable-pthreads --disable-shared --enable-static --enable-gpl --enable-libx264 --enable-libmp3lame --enable-libfaad --disable-decoder=aac
2010-09-15 22:59:59 Thumbnail: libavutil 50. 8. 0 / 50. 8. 0
2010-09-15 22:59:59 Thumbnail: libavcodec 52.52. 0 / 52.52. 0
2010-09-15 22:59:59 Thumbnail: libavformat 52.50. 0 / 52.50. 0
2010-09-15 22:59:59 Thumbnail: libavdevice 52. 2. 0 / 52. 2. 0
2010-09-15 22:59:59 Thumbnail: libswscale 0.10. 0 / 0.10. 0
2010-09-15 22:59:59 Thumbnail:
2010-09-15 22:59:59 Thumbnail: Seems stream 0 codec frame rate differs from container frame rate: 30000.00 (30000/1) -> 25.00 (25/1)
2010-09-15 22:59:59 Thumbnail: Input #0, avi, from '/Volumes/openshare/media/Videos/Films/Anglais/Action/Catwoman vost_part1.avi':
2010-09-15 22:59:59 Thumbnail: Metadata:
2010-09-15 22:59:59 Thumbnail: ISFT : VirtualDubMod 1.5.10.1 (build 2439/release)
2010-09-15 22:59:59 Thumbnail: Duration: 00:51:20.44, start: 0.000000, bitrate: 1756 kb/s
2010-09-15 22:59:59 Thumbnail: Stream #0.0: Video: mpeg4, yuv420p, 640x352 [PAR 1:1 DAR 20:11], 25 fps, 25 tbr, 25 tbn, 30k tbc
2010-09-15 22:59:59 Thumbnail: Target Framerate: 25.0
2010-09-15 22:59:59 Thumbnail: Couldn't parse framerate
2010-09-15 22:59:59 Thumbnail: Stream #0.1: Audio: mp3, 48000 Hz, 2 channels, s16, 128 kb/s
2010-09-15 22:59:59 Thumbnail: Output #0, mjpeg, to 'pipe:':
2010-09-15 22:59:59 Thumbnail: Stream #0.0: Video: mjpeg, yuvj420p, 640x352 [PAR 1:1 DAR 20:11], q=2-31, 200 kb/s, 90k tbn, 25 tbc
2010-09-15 23:00:00 Thumbnail:
2010-09-15 23:00:00 Thumbnail: Seems stream 0 codec frame rate differs from container frame rate: 30000.00 (30000/1) -> 25.00 (25/1)
2010-09-15 23:00:00 Thumbnail: Input #0, avi, from '/Volumes/openshare/media/Videos/Films/Anglais/Action/Catwoman vost_part2.avi':
2010-09-15 23:00:00 Thumbnail: Metadata:
2010-09-15 23:00:00 Thumbnail: ISFT : VirtualDubMod 1.5.10.1 (build 2439/release)
2010-09-15 23:00:00 Thumbnail: Duration: 00:48:57.52, start: 0.000000, bitrate: 1842 kb/s
2010-09-15 23:00:00 Thumbnail: Stream #0.0: Video: mpeg4, yuv420p, 640x352 [PAR 1:1 DAR 20:11], 25 fps, 25 tbr, 25 tbn, 30k tbc
2010-09-15 23:00:00 Thumbnail: Target Framerate: 25.0
2010-09-15 23:00:00 Thumbnail: Couldn't parse framerate
2010-09-15 23:00:00 Thumbnail: Stream #0.1: Audio: mp3, 48000 Hz, 2 channels, s16, 128 kb/s
2010-09-15 23:00:00 Thumbnail: Output #0, mjpeg, to 'pipe:':
2010-09-15 23:00:00 Thumbnail: Stream #0.0: Video: mjpeg, yuvj420p, 640x352 [PAR 1:1 DAR 20:11], q=2-31, 200 kb/s, 90k tbn, 25 tbc
DavePDX



Joined: 09/14/2010 21:38:48
Messages: 18
Offline

I have tried this on:

iPad 3G 3.2
iPad WiFi 4.2 beta
iPhone 3Gs 3.1.3
iPhone 3G 4.1

It doesn't seem to be device or OS specific. The only way I can get reliable playback now is to switch back to the 2.24 client.

Admittedly, I haven't tried to play a lot of mp4s previously, but they seem to take significantly longer to get going than other types, whether I play or play with conversion. Maybe it's always been that way.
Admin



Joined: 08/23/2009 08:49:34
Messages: 8705
Offline

You said 40 files? So you can scroll down, it loads and then as you scroll further it stops loading and/or is giving invalid files? Thanks for the feedback btw.
DavePDX



Joined: 09/14/2010 21:38:48
Messages: 18
Offline

BTW, I am also getting seemingly random 'invalid' tags on some files. Those play fine when clicked.
DavePDX



Joined: 09/14/2010 21:38:48
Messages: 18
Offline

Here's something that may be relevant!

I just reverted the server back to 2.2.7u1 with client 2.2.4 on my iPad 3G. I cleaned the cache files prior to restarting. Thumbnails generated fast but the mp4s were still slow to start up and didn't play smoothly.

After checking the global settings, I realized that the options are considerably different in the new version, and now only 2048 kbit/s was checked. After enabling lower bit rates, mp4s everything is running smoothly again.

I'll go ahead and try installing the new server/clients and see if modifying these settings is the key.
jdil



Joined: 06/14/2010 09:58:06
Messages: 10
Offline

Admin wrote:You said 40 files? So you can scroll down, it loads and then as you scroll further it stops loading and/or is giving invalid files? Thanks for the feedback btw.


In the meantime, can you tell me where and how can I download both server 2.2.3 or 4 for mac as well as iphone and ipad relevant apps ?
New apps don't work with older server versions.
Thanks
Admin



Joined: 08/23/2009 08:49:34
Messages: 8705
Offline

Unfortunately there is no way to download old client version. If you haven't saved the IPA file (it might be still in your Trash) you won't be able to downgrade. The files are signed and they only work on your computer.
DavePDX



Joined: 09/14/2010 21:38:48
Messages: 18
Offline

OK, I've tried the newest server and clients and if I disable the highest bit rates, everything starts working just fine. mp4s start instantly like they used to do also.
Playback is smooth and no longer gets interrupted. If I enable anything higher than 1280 kbit/s, it all goes to crap again.

This message was edited 1 time. Last update was at 09/15/2010 23:46:31

 
Forum Index » Air Video Problems and Solutions
Go to:   
Powered by JForum 2.1.8 © JForum Team