[Logo] Air Video Forum
  [Search] Search   [Recent Topics] Recent Topics   [Hottest Topics] Hottest Topics   [Members]  Member Listing   [Groups] Back to home page 
[Moderation Log] Moderation Log   [Register] Register / 
[Login] Login 
Air Video Server 2.4.5-beta6 released  XML
Forum Index » Air Video Announcements
Author Message
ChuckTSI



Joined: 05/15/2011 02:40:05
Messages: 2
Offline

Ipod 1G
OS 3.1.3
AV: (Latest Client)
Server: 2.4.5-Beta6
Video loading starts.. then stops and lands back on Play Live Conversion options screen

Iphone 3GS
OS 4.2.1
AV: (Latest Client)
Server: 2.4.5-Beta6
No problems.


Restored back to Server 2.4.3
No problems on either device.

This message was edited 1 time. Last update was at 05/15/2011 02:44:33

Admin



Joined: 08/23/2009 08:49:34
Messages: 8705
Offline

Does restarting the iPod many any difference?
thewade



Joined: 05/15/2011 04:53:58
Messages: 1
Offline

2.4.5-beta6 does not work with my iPhone 3G.

It attempts to load the video, the screen goes black, and it goes back to the conversion screen and crashes.

Client 2.4.8
iOS 4.2.1

Reverting back to server 2.4.3 resolves the issue.
Admin



Joined: 08/23/2009 08:49:34
Messages: 8705
Offline

Can you post here the live conversion log?
ChuckTSI



Joined: 05/15/2011 02:40:05
Messages: 2
Offline

Restarting the Ipod
No Difference
Still Exits back to Menu


Live Conversion Log:

Ipod:
2011-05-15 00:11:01 LiveConversion: >>
395821474B69747C697A763B5D72777E68475A72694D727F7E74487E696D7E69477D7D766B7E7C357E637E393B3636687E7C767E756F36777E757C6F
733B2F3B3636687E7C767E756F36747D7D687E6F3B2B3B36367874756D7E696872747536727F3B237A222F222A7E2F367E7F2C23362F28237836227F
2F29362E7879222B227F2F2D2B2E7D2B7F782C222A2B7D362B28797F362F2C22783679292D2D362F792A2A7A2323232E2F7F7E3B36366B74696F3675
6E76797E693B2F2D2D282A3B366F73697E7A7F683B2F3B367D777A7C68293B307D7A686F3B367D777A7C683B307774746B3B367C3B282B3B36707E62
72756F447672753B2A3B36797D3B2B3B367944686F697A6F7E7C623B2B3B367D777A7C68293B366C6B697E7F367F786F2363233B3678766B3B307873
6974767A3B367F7E79777478707A776B737A3B2B3B367F7E7977747870797E6F7A3B2B3B36697E7D683B2A3B3678747F7E693B2B3B36767E44697A75
7C7E3B2A2D3B36686E796A3B2E3B366B7A696F726F727475683B306B7A696F722F632F306B7A696F72236323306B7A696F6B2363233B366F697E7777
72683B2B3B366878446F73697E687374777F3B2F2B3B3672446A7D7A786F74693B2B352C2A3B366A7874766B3B2B352D3B36767A6B3B2B352B212B35
2B3B36767A6B3B2B352A212B352A3B3668683B2B352B3B36723B5C214756746D727E68474F737E35597A75703551747940292B2B23465F6D5F69726B
405E757C46367A434374474F737E35597A75703551747940292B2B23465F6D5F69726B405E757C46367A434374357A6D723B366D7D3B397869746B26
2D2B2321282829212B212B373B68787A777E262E232F2128292B393B367A686B7E786F3B2E232F2128292B3B36623B367D3B766B7E7C6F683B366D78
747F7E783B77727963292D2F3B36796E7D6872617E3B2A2B292F703B36793B2A292B2B703B36796F3B2A282B2B703B366A767A633B2F233B366A7672
753B293B36693B292E352B3B367A78747F7E783B777279766B28777A767E3B367A793B2A2229703B367A693B2F232B2B2B3B367A783B293B36
<<

2011-05-15 00:11:02 SegmentedEncoder: ffmpeg version UNKNOWN, Copyright (c) 2000-2011 the FFmpeg developers
2011-05-15 00:11:02 SegmentedEncoder: built on May 8 2011 07:44:34 with gcc 4.4.0
2011-05-15 00:11:02 SegmentedEncoder: configuration: --enable-memalign-hack --prefix=/mingw --target-os=mingw32 --arch=i686 --cpu=i686 --enable-gpl --enable-libx264 --enable-static --disable-shared --enable-pthreads --enable-libmp3lame
2011-05-15 00:11:02 SegmentedEncoder: libavutil 51. 2. 1 / 51. 2. 1
2011-05-15 00:11:02 SegmentedEncoder: libavcodec 53. 3. 0 / 53. 3. 0
2011-05-15 00:11:02 SegmentedEncoder: libavformat 53. 0. 3 / 53. 0. 3
2011-05-15 00:11:02 SegmentedEncoder: libavdevice 53. 0. 0 / 53. 0. 0
2011-05-15 00:11:02 SegmentedEncoder: libavfilter 2. 4. 0 / 2. 4. 0
2011-05-15 00:11:02 SegmentedEncoder: libswscale 0. 14. 0 / 0. 14. 0
2011-05-15 00:11:02 SegmentedEncoder: Input #0, avi, from 'G:\Movies\PBSFundRaiser.avi':
2011-05-15 00:11:02 SegmentedEncoder: Metadata:
2011-05-15 00:11:02 SegmentedEncoder: encoder : VirtualDubMod 1.5.10.1 (build 2366/release)
2011-05-15 00:11:02 SegmentedEncoder: Duration: 01:47:03.96, start: 0.000000, bitrate: 916 kb/s
2011-05-15 00:11:02 SegmentedEncoder: Stream #0.0: Video: mpeg4, yuv420p, 608x332 [PAR 1:1 DAR 152:83], 25 tbr, 25 tbn, 25 tbc
2011-05-15 00:11:02 SegmentedEncoder: Stream #0.1: Audio: mp3, 48000 Hz, stereo, s16, 112 kb/s
2011-05-15 00:11:02 SegmentedEncoder: [buffer @ 0x22577a0] w:608 h:332 pixfmt:yuv420p
2011-05-15 00:11:02 SegmentedEncoder: [crop @ 0x22609a0] w:608 h:332 -> w:608 h:332
2011-05-15 00:11:02 SegmentedEncoder: [scale @ 0x2253260] w:608 h:332 fmt:yuv420p -> w:584 h:320 fmt:yuv420p flags:0xa0000004
2011-05-15 00:11:02 SegmentedEncoder: [libx264 @ 0x2257300] VBV maxrate unspecified, assuming CBR
2011-05-15 00:11:02 SegmentedEncoder: [libx264 @ 0x2257300] using SAR=1/1
2011-05-15 00:11:02 SegmentedEncoder: [libx264 @ 0x2257300] using cpu capabilities: MMX2 SSE2Fast SSSE3 Cache64
2011-05-15 00:11:02 SegmentedEncoder: [libx264 @ 0x2257300] profile Main, level 2.1
2011-05-15 00:11:02 SegmentedEncoder: [mpegts @ 0x2256c40] muxrate VBR, pcr every 2 pkts, sdt every 200, pat/pmt every 40 pkts
2011-05-15 00:11:02 SegmentedEncoder: Output #0, mpegts, to 'pipe:':
2011-05-15 00:11:02 SegmentedEncoder: Metadata:
2011-05-15 00:11:02 SegmentedEncoder: encoder : Lavf53.0.3
2011-05-15 00:11:02 SegmentedEncoder: Stream #0.0: Video: libx264, yuv420p, 584x320 [PAR 1:1 DAR 73:40], q=2-48, 1200 kb/s, 90k tbn, 25 tbc
2011-05-15 00:11:02 SegmentedEncoder: Stream #0.1: Audio: libmp3lame, 48000 Hz, stereo, s16, 192 kb/s
2011-05-15 00:11:02 SegmentedEncoder: Stream mapping:
2011-05-15 00:11:02 SegmentedEncoder: Stream #0.0 -> #0.0
2011-05-15 00:11:02 SegmentedEncoder: Stream #0.1 -> #0.1
2011-05-15 00:11:02 SegmentedEncoder: Press [q] to stop encoding
2011-05-15 00:11:02 SegmentedEncoder: frame= 50 fps= 0 q=15.0 size= 71kB time=0.60 bitrate= 965.1kbits/s

Iphone Conversion (Manual stop after 20 seconds)

2011-05-15 00:15:53 LiveConversion: >>
395821474B69747C697A763B5D72777E68475A72694D727F7E74487E696D7E69477D7D766B7E7C357E637E393B3636687E7C767E756F36777E757C6F
733B2F3B3636687E7C767E756F36747D7D687E6F3B2B3B36367874756D7E696872747536727F3B7D792E2B227D7D2D362E7A2229362F7E792F36227A
7E2D362D2B2C2E2829797D782D29282D7829287A7A7E78367F7E2A2D362F2C282836232C7923362D237A7E7F2B7F2E7A2C2E2E3B36366B74696F3675
6E76797E693B2F2D2D282A3B366F73697E7A7F683B2F3B367D777A7C68293B307D7A686F3B367D777A7C683B307774746B3B367C3B282B3B36707E62
72756F447672753B2A3B36797D3B2B3B367944686F697A6F7E7C623B2B3B367D777A7C68293B366C6B697E7F367F786F2363233B3678766B3B307873
6974767A3B367F7E79777478707A776B737A3B2B3B367F7E7977747870797E6F7A3B2B3B36697E7D683B2A3B3678747F7E693B2B3B36767E44697A75
7C7E3B2A2D3B36686E796A3B2E3B366B7A696F726F727475683B306B7A696F722F632F306B7A696F72236323306B7A696F6B2363233B366F697E7777
72683B2B3B366878446F73697E687374777F3B2F2B3B3672446A7D7A786F74693B2B352C2A3B366A7874766B3B2B352D3B36767A6B3B2B352B212B35
2B3B36767A6B3B2B352A212B352A3B3668683B2B352B3B36723B5C214756746D727E68474F737E35597A75703551747940292B2B23465F6D5F69726B
405E757C46367A434374474F737E35597A75703551747940292B2B23465F6D5F69726B405E757C46367A434374357A6D723B366D7D3B397869746B26
2D2B2321282829212B212B373B68787A777E262E232F2128292B393B367A686B7E786F3B2E232F2128292B3B36623B367D3B766B7E7C6F683B366D78
747F7E783B77727963292D2F3B36796E7D6872617E3B2A2B292F703B36793B2A292B2B703B36796F3B2A282B2B703B366A767A633B2F233B366A7672
753B293B36693B292E352B3B367A78747F7E783B777279766B28777A767E3B367A793B2A2229703B367A693B2F232B2B2B3B367A783B293B36
<<

2011-05-15 00:15:53 SegmentedEncoder: ffmpeg version UNKNOWN, Copyright (c) 2000-2011 the FFmpeg developers
2011-05-15 00:15:53 SegmentedEncoder: built on May 8 2011 07:44:34 with gcc 4.4.0
2011-05-15 00:15:53 SegmentedEncoder: configuration: --enable-memalign-hack --prefix=/mingw --target-os=mingw32 --arch=i686 --cpu=i686 --enable-gpl --enable-libx264 --enable-static --disable-shared --enable-pthreads --enable-libmp3lame
2011-05-15 00:15:53 SegmentedEncoder: libavutil 51. 2. 1 / 51. 2. 1
2011-05-15 00:15:53 SegmentedEncoder: libavcodec 53. 3. 0 / 53. 3. 0
2011-05-15 00:15:53 SegmentedEncoder: libavformat 53. 0. 3 / 53. 0. 3
2011-05-15 00:15:53 SegmentedEncoder: libavdevice 53. 0. 0 / 53. 0. 0
2011-05-15 00:15:53 SegmentedEncoder: libavfilter 2. 4. 0 / 2. 4. 0
2011-05-15 00:15:53 SegmentedEncoder: libswscale 0. 14. 0 / 0. 14. 0
2011-05-15 00:15:53 SegmentedEncoder: Input #0, avi, from 'G:\Movies\PBSFundRaiser.avi':
2011-05-15 00:15:53 SegmentedEncoder: Metadata:
2011-05-15 00:15:53 SegmentedEncoder: encoder : VirtualDubMod 1.5.10.1 (build 2366/release)
2011-05-15 00:15:53 SegmentedEncoder: Duration: 01:47:03.96, start: 0.000000, bitrate: 916 kb/s
2011-05-15 00:15:53 SegmentedEncoder: Stream #0.0: Video: mpeg4, yuv420p, 608x332 [PAR 1:1 DAR 152:83], 25 tbr, 25 tbn, 25 tbc
2011-05-15 00:15:53 SegmentedEncoder: Stream #0.1: Audio: mp3, 48000 Hz, stereo, s16, 112 kb/s
2011-05-15 00:15:53 SegmentedEncoder: [buffer @ 0x21777a0] w:608 h:332 pixfmt:yuv420p
2011-05-15 00:15:53 SegmentedEncoder: [crop @ 0x21809a0] w:608 h:332 -> w:608 h:332
2011-05-15 00:15:53 SegmentedEncoder: [scale @ 0x2173260] w:608 h:332 fmt:yuv420p -> w:584 h:320 fmt:yuv420p flags:0xa0000004
2011-05-15 00:15:53 SegmentedEncoder: [libx264 @ 0x2177300] VBV maxrate unspecified, assuming CBR
2011-05-15 00:15:53 SegmentedEncoder: [libx264 @ 0x2177300] using SAR=1/1
2011-05-15 00:15:53 SegmentedEncoder: [libx264 @ 0x2177300] using cpu capabilities: MMX2 SSE2Fast SSSE3 Cache64
2011-05-15 00:15:53 SegmentedEncoder: [libx264 @ 0x2177300] profile Main, level 2.1
2011-05-15 00:15:53 SegmentedEncoder: [mpegts @ 0x2176c40] muxrate VBR, pcr every 2 pkts, sdt every 200, pat/pmt every 40 pkts
2011-05-15 00:15:53 SegmentedEncoder: Output #0, mpegts, to 'pipe:':
2011-05-15 00:15:53 SegmentedEncoder: Metadata:
2011-05-15 00:15:53 SegmentedEncoder: encoder : Lavf53.0.3
2011-05-15 00:15:53 SegmentedEncoder: Stream #0.0: Video: libx264, yuv420p, 584x320 [PAR 1:1 DAR 73:40], q=2-48, 1200 kb/s, 90k tbn, 25 tbc
2011-05-15 00:15:53 SegmentedEncoder: Stream #0.1: Audio: libmp3lame, 48000 Hz, stereo, s16, 192 kb/s
2011-05-15 00:15:53 SegmentedEncoder: Stream mapping:
2011-05-15 00:15:53 SegmentedEncoder: Stream #0.0 -> #0.0
2011-05-15 00:15:53 SegmentedEncoder: Stream #0.1 -> #0.1
2011-05-15 00:15:53 SegmentedEncoder: Press [q] to stop encoding
2011-05-15 00:15:53 SegmentedEncoder: frame= 51 fps= 0 q=16.0 size= 82kB time=0.64 bitrate=1048.1kbits/s
2011-05-15 00:15:59 SegmentedEncoder: frame= 555 fps= 87 q=21.0 size= 3825kB time=20.80 bitrate=1506.4kbits/s
2011-05-15 00:16:05 SegmentedEncoder: frame= 1072 fps= 90 q=28.0 size= 7628kB time=41.48 bitrate=1506.5kbits/s
2011-05-15 00:16:10 SegmentedEncoder: frame= 1531 fps= 91 q=20.0 size= 10960kB time=59.84 bitrate=1500.4kbits/s


nospamboz



Joined: 05/15/2011 07:07:31
Messages: 5
Offline

Client: iPhone 3G, IOS 3.1.3
AV client version: 2.4.8

Server: Macbook (mid-2009), Mac OS 10.6.7

AV server version: 2.4.5beta5 - Everything works fine.

AV server version 2.4.6beta6u2 - Live conversion fails before video starts, both internal and external disks.

beta5 and beta6 logs attached

 Filename b6u2.txt [Disk] Download
 Description 2.4.5b6u2 live conversion log
 Filesize 10 Kbytes
 Downloaded:  593 time(s)

 Filename b5.txt [Disk] Download
 Description 2.4.5b5 live conversion log
 Filesize 11 Kbytes
 Downloaded:  616 time(s)

Admin



Joined: 08/23/2009 08:49:34
Messages: 8705
Offline

nospamboz, is it constantly reproducible? The log doesn't seem to suggest anything wrong. Does it happen with other kind of files as well?
pateism



Joined: 05/15/2011 12:54:58
Messages: 1
Offline

Will we be able to run this app as a service?

I don't like leaving the PC loged in all the time.,

No issues found yet with 2,4,5 beta 6
richb



Joined: 04/09/2011 08:07:58
Messages: 6
Offline

Hi devs. 2.4.5-beta6 has solved the video stalling after 2 minutes problem for me also. Awesome.
giangui



Joined: 05/16/2010 16:23:11
Messages: 9
Location: The Netherlands
Offline

Using now 2.4.5 beta 6 for Mac... really GREAT.. no issues detected yet.
Would LOVE to have the availability of a search feature .... I miss that.
Razunter


[Avatar]

Joined: 05/08/2011 14:30:59
Messages: 7
Offline

Please add subtitle encoding detection...
Klayer



Joined: 05/15/2011 15:43:45
Messages: 10
Offline

Add to iTunes opens iTunes but then it does nothing.
Any idea?

This message was edited 1 time. Last update was at 05/15/2011 15:47:05

marcoVermeulen



Joined: 05/15/2011 13:10:25
Messages: 1
Offline

Hi there, hope someone can help me...

I would like to know what the latest Linux version is. Is beta6 of Mac/Win the same as alpha6 on Linux?

Also, I'm a Java developer, and wanted to know if this is an open source project. If it is, could you point me to where the source is hosted?

Thanks in advance,
Marco.
Admin



Joined: 08/23/2009 08:49:34
Messages: 8705
Offline

Hi,

linux alpha 6 is same release as beta6 for OS X (though it's not a general rule, just coincidence). The source code is not available though.
keenanjames



Joined: 05/16/2011 02:21:10
Messages: 1
Offline

this does not work with my iPad 2.. any thoughts?

photo editorservice in 3 easy steps
[WWW]
 
Forum Index » Air Video Announcements
Go to:   
Powered by JForum 2.1.8 © JForum Team