[Logo] Air Video Forum
  [Search] Search   [Recent Topics] Recent Topics   [Hottest Topics] Hottest Topics   [Members]  Member Listing   [Groups] Back to home page 
[Moderation Log] Moderation Log   [Register] Register / 
[Login] Login 
Air Video Server 2.4.6-beta3 released  XML
Forum Index » Air Video Announcements
Author Message
sjk



Joined: 12/25/2009 02:24:48
Messages: 189
Location: Eugene
Offline

Admin wrote:the passthrough is for video only, audio is always transcoded.

There hasn't seemed to be any transcoding of iOS compatible AAC, only AC3… maybe because with any audio-only transcoding the processor load remains insignificantly low enough?


Allowed Bitrates and resolution do not have any effect when passthrough is on. Passthrough should work with MKV and mpegts containers (other can be added).

Does AirPlay streaming of iOS compatible 1080p H.264 video to Apple TV (in a container that works with/without passthrough) retain full bitrate/resolution?


The change is not directly related to migrating from ffmpeg to avconv. It was sort of backported from our current development branch (Air Video 3), where we'll have much finer control over when passthrough is enabled.

Sounds good. Thanks!

Air Video 2.4.13 (iPad 2, iPhone 3GS [iOS 6.1.3]), Air Video Server 2.4.6-beta3u2 (Mac mini [Early 2009, OS X 10.8.4]), 802.11g/n WLAN
justonce



Joined: 07/28/2012 15:27:30
Messages: 1
Offline

There was a problem in beta2 on Mac OS X, when the "avconv" process doesn't terminate, when you've finished watching the movie. So I have 2 avconvs's running, consuming my CPU time totally without client connected.

Is this fixed?
thematic



Joined: 07/28/2012 16:54:45
Messages: 5
Offline

Thanks for adding "passthrough" option, my PC isn't powerful enough for 3 simultaneous conversion (max only 2 client), so a passthrough is very very nice feature for me and my family

tried Mac version, newest iOS version from appstore.
1st attempt playing H264 MKV on iPhone 4 and 4S both work like a charm. CPU usage is minimal, some "loading" occurs maybe because this is network drive (will try in my Windows server later).

the 1st noticable "flaw" is no subtitle hopefully will be added later
then the problem occurs when i fast forward the movie. after a brief "loading" icon, the movie is continue to play but only the audio. the video remains black/blank.

2012-07-28 14:21:15 LiveConversion: >>
39345A6B6B7772787A6F72747568345A72693B4D727F7E743B487E696D7E69357A6B6B345874756F7E756F6834497E68746E69787E68347A6D787475
6D393B3636687E7C767E756F36777E757C6F733B2F3B3636687E7C767E756F36747D7D687E6F3B2B3B36367874756D7E696872747536727F3B237923
2F2C2D7F2836287D7D79362F787A2E3679297E7A36232C782F7D2F2928237F7A292A7E2C2B7D797D7F36792D792F362F2B2278367A287F2E36232F2D
2C2C2A2B222E2D7E2F3B36366B74696F36756E76797E693B2F2D2D282A3B366F73697E7A7F683B2F3B3668683B2B352B3B36723B39344D74776E767E
68345D34535F3B56746D727E68342C3B363B537A6969623B4B746F6F7E693B7A757F3B6F737E3B5F7E7A6F7377623B537A7777746C683B4B7A696F3B
2A34537A696962354B746F6F7E69357A757F356F737E355F7E7A6F73776235537A7777746C6835292B2A2B352A2B232B6B355A5828355F4F48365F56
4F3576706D393B36767A6B3B2B212B372B212B3B36767A6B3B2B212A372B212A3B366D7D3B397869746B262A22292B21232B2B212B212B373B68787A
777E262D2F2B21292D2F3778746B62393B367A686B7E786F3B2D2F2B21292D2F3B36623B367D3B766B7E7C6F683B367A686275783B362A3B366D7874
7F7E783B77727963292D2F3B366D78747F7E783B78746B623B3679687D216D3B73292D2F44766B2F6F747A75757E63793B367A78747F7E783B777279
766B28777A767E3B367A793B2A2229703B367A693B2F232B2B2B3B367A783B293B36
<<

2012-07-28 14:21:15 SegmentedEncoder: avconv version v0.8-2343-g468e020, Copyright (c) 2000-2012 the Libav developers
2012-07-28 14:21:15 SegmentedEncoder: built on Jul 18 2012 00:40:03 with llvm_gcc 4.2.1 (Based on Apple Inc. build 565 (LLVM build 2336.11.00)
2012-07-28 14:21:15 SegmentedEncoder: Input #0, matroska,webm, from '/Volumes/F/HD Movies/7 - Harry Potter and the Deathly Hallows Part 1/Harry.Potter.and.the.Deathly.Hallows.2010.1080p.AC3.DTS-DMT.mkv':
2012-07-28 14:21:15 SegmentedEncoder: Duration: 02:26:05.29, start: 0.000000, bitrate: N/A
2012-07-28 14:21:15 SegmentedEncoder: Stream #0.0(eng): Video: h264 (High), yuv420p, 1920x800 [PAR 1:1 DAR 12:5], 23.98 fps, 23.98 tbr, 1k tbn, 47.95 tbc (default)
2012-07-28 14:21:15 SegmentedEncoder: Metadata:
2012-07-28 14:21:15 SegmentedEncoder: title : hp7part1-1080p
2012-07-28 14:21:15 SegmentedEncoder: Stream #0.1(eng): Audio: dca (DTS), 48000 Hz, 5.1, s16, 1536 kb/s
2012-07-28 14:21:15 SegmentedEncoder: Metadata:
2012-07-28 14:21:15 SegmentedEncoder: title : DTS
2012-07-28 14:21:15 SegmentedEncoder: Stream #0.2(eng): Audio: ac3, 48000 Hz, 5.1, s16, 640 kb/s
2012-07-28 14:21:15 SegmentedEncoder: Metadata:
2012-07-28 14:21:15 SegmentedEncoder: title : AC3 640
2012-07-28 14:21:15 SegmentedEncoder: Stream #0.3(dut): Subtitle: [0][0][0][0] / 0x0000 (default)
2012-07-28 14:21:15 SegmentedEncoder: Metadata:
2012-07-28 14:21:15 SegmentedEncoder: title : Nederlands SRT-TEAM
2012-07-28 14:21:15 SegmentedEncoder: [mpegts @ 0x101023a20] muxrate VBR, pcr every 100 pkts, sdt every 200, pat/pmt every 40 pkts
2012-07-28 14:21:15 SegmentedEncoder: Output #0, mpegts, to 'pipe:':
2012-07-28 14:21:15 SegmentedEncoder: Metadata:
2012-07-28 14:21:15 SegmentedEncoder: encoder : Lavf54.9.0
2012-07-28 14:21:15 SegmentedEncoder: Stream #0.0(eng): Video: libx264, yuv420p, 1920x800 [PAR 1:1 DAR 12:5], q=2-31, 90k tbn, 1k tbc (default)
2012-07-28 14:21:15 SegmentedEncoder: Metadata:
2012-07-28 14:21:15 SegmentedEncoder: title : hp7part1-1080p
2012-07-28 14:21:15 SegmentedEncoder: Stream #0.1(eng): Audio: libmp3lame, 48000 Hz, stereo, s16, 192 kb/s
2012-07-28 14:21:15 SegmentedEncoder: Metadata:
2012-07-28 14:21:15 SegmentedEncoder: title : DTS
2012-07-28 14:21:15 SegmentedEncoder: Stream mapping:
2012-07-28 14:21:15 SegmentedEncoder: Stream #0:0 -> #0:0 (copy)
2012-07-28 14:21:15 SegmentedEncoder: Stream #0:1 -> #0:1 (dca -> libmp3lame)
2012-07-28 14:21:15 SegmentedEncoder: Press ctrl-c to stop encoding
2012-07-28 14:21:15 SegmentedEncoder: frame= 81 fps= 0 q=-1.0 size= 535kB time=3.25 bitrate=1347.8kbits/s
2012-07-28 14:21:29 SegmentedEncoder: frame= 643 fps= 44 q=-1.0 size= 29882kB time=26.69 bitrate=9170.2kbits/s
2012-07-28 14:21:46 LiveConversion: >>
39345A6B6B7772787A6F72747568345A72693B4D727F7E743B487E696D7E69357A6B6B345874756F7E756F6834497E68746E69787E68347A6D787475
6D393B3636687E7C767E756F36777E757C6F733B2F3B3636687E7C767E756F36747D7D687E6F3B292B3B36367874756D7E696872747536727F3B7F2E
2A2A2D7D2822362F2D2F7E362F2D7D7D3679792C2B362C7D7F28797E2B2C7F7D797D7E2F78292E2A2879362C2C7A28362F292D2936797F2D2A36222E
2D227E2E2F7F2A2C7D223B36366B74696F36756E76797E693B2F2D2D282A3B366F73697E7A7F683B2F3B3668683B292B352B3B36723B39344D74776E
767E68345D34535F3B56746D727E68342C3B363B537A6969623B4B746F6F7E693B7A757F3B6F737E3B5F7E7A6F7377623B537A7777746C683B4B7A69
6F3B2A34537A696962354B746F6F7E69357A757F356F737E355F7E7A6F73776235537A7777746C6835292B2A2B352A2B232B6B355A5828355F4F4836
5F564F3576706D393B36767A6B3B2B212B372B212B3B36767A6B3B2B212A372B212A3B366D7D3B397869746B262A22292B21232B2B212B212B373B68
787A777E262D2F2B21292D2F3778746B62393B367A686B7E786F3B2D2F2B21292D2F3B36623B367D3B766B7E7C6F683B367A686275783B362A3B366D
78747F7E783B77727963292D2F3B366D78747F7E783B78746B623B3679687D216D3B73292D2F44766B2F6F747A75757E63793B367A78747F7E783B77
7279766B28777A767E3B367A793B2A2229703B367A693B2F232B2B2B3B367A783B293B36
<<

2012-07-28 14:21:46 SegmentedEncoder: avconv version v0.8-2343-g468e020, Copyright (c) 2000-2012 the Libav developers
2012-07-28 14:21:46 SegmentedEncoder: built on Jul 18 2012 00:40:03 with llvm_gcc 4.2.1 (Based on Apple Inc. build 565 (LLVM build 2336.11.00)
2012-07-28 14:21:46 SegmentedEncoder: Input #0, matroska,webm, from '/Volumes/F/HD Movies/7 - Harry Potter and the Deathly Hallows Part 1/Harry.Potter.and.the.Deathly.Hallows.2010.1080p.AC3.DTS-DMT.mkv':
2012-07-28 14:21:46 SegmentedEncoder: Duration: 02:26:05.29, start: 0.000000, bitrate: N/A
2012-07-28 14:21:46 SegmentedEncoder: Stream #0.0(eng): Video: h264 (High), yuv420p, 1920x800 [PAR 1:1 DAR 12:5], 23.98 fps, 23.98 tbr, 1k tbn, 47.95 tbc (default)
2012-07-28 14:21:46 SegmentedEncoder: Metadata:
2012-07-28 14:21:46 SegmentedEncoder: title : hp7part1-1080p
2012-07-28 14:21:46 SegmentedEncoder: Stream #0.1(eng): Audio: dca (DTS), 48000 Hz, 5.1, s16, 1536 kb/s
2012-07-28 14:21:46 SegmentedEncoder: Metadata:
2012-07-28 14:21:46 SegmentedEncoder: title : DTS
2012-07-28 14:21:46 SegmentedEncoder: Stream #0.2(eng): Audio: ac3, 48000 Hz, 5.1, s16, 640 kb/s
2012-07-28 14:21:46 SegmentedEncoder: Metadata:
2012-07-28 14:21:46 SegmentedEncoder: title : AC3 640
2012-07-28 14:21:46 SegmentedEncoder: Stream #0.3(dut): Subtitle: [0][0][0][0] / 0x0000 (default)
2012-07-28 14:21:46 SegmentedEncoder: Metadata:
2012-07-28 14:21:46 SegmentedEncoder: title : Nederlands SRT-TEAM
2012-07-28 14:21:46 SegmentedEncoder: [mpegts @ 0x101023a20] muxrate VBR, pcr every 100 pkts, sdt every 200, pat/pmt every 40 pkts
2012-07-28 14:21:46 SegmentedEncoder: Output #0, mpegts, to 'pipe:':
2012-07-28 14:21:46 SegmentedEncoder: Metadata:
2012-07-28 14:21:46 SegmentedEncoder: encoder : Lavf54.9.0
2012-07-28 14:21:46 SegmentedEncoder: Stream #0.0(eng): Video: libx264, yuv420p, 1920x800 [PAR 1:1 DAR 12:5], q=2-31, 90k tbn, 1k tbc (default)
2012-07-28 14:21:46 SegmentedEncoder: Metadata:
2012-07-28 14:21:46 SegmentedEncoder: title : hp7part1-1080p
2012-07-28 14:21:46 SegmentedEncoder: Stream #0.1(eng): Audio: libmp3lame, 48000 Hz, stereo, s16, 192 kb/s
2012-07-28 14:21:46 SegmentedEncoder: Metadata:
2012-07-28 14:21:46 SegmentedEncoder: title : DTS
2012-07-28 14:21:46 SegmentedEncoder: Stream mapping:
2012-07-28 14:21:46 SegmentedEncoder: Stream #0:0 -> #0:0 (copy)
2012-07-28 14:21:46 SegmentedEncoder: Stream #0:1 -> #0:1 (dca -> libmp3lame)
2012-07-28 14:21:46 SegmentedEncoder: Press ctrl-c to stop encoding
2012-07-28 14:21:47 SegmentedEncoder: frame= 62 fps= 0 q=-1.0 size= 2940kB time=10000000000.00 bitrate= 0.0kbits/s


any suggestion ?

the bug also occurs when :
1. playing from the beginning (the video is fine here)
2. and then "Done", back to summary page (the one with "Play" or "Play with Conversion" one).
3. and then "Play with Conversion" again but starting from "Last Position"

the other movie i tried is fine, fast forward a bit and then the movie resuming like it should.
i'll try other movies later and will post any bug i find

cheers
Admin



Joined: 08/23/2009 08:49:34
Messages: 8705
Offline

Do you have iOS 6 beta installed?
Admin



Joined: 08/23/2009 08:49:34
Messages: 8705
Offline

justonce wrote:There was a problem in beta2 on Mac OS X, when the "avconv" process doesn't terminate, when you've finished watching the movie. So I have 2 avconvs's running, consuming my CPU time totally without client connected.

Is this fixed?

Should be fixed. If the problem persists please let me know.
thematic



Joined: 07/28/2012 16:54:45
Messages: 5
Offline

Admin wrote:Do you have iOS 6 beta installed?


nope, both are newly restored iOS 5.1.1
Admin



Joined: 08/23/2009 08:49:34
Messages: 8705
Offline

thematic wrote:
Admin wrote:Do you have iOS 6 beta installed?


nope, both are newly restored iOS 5.1.1

Does it only happen with passthrough?
thematic



Joined: 07/28/2012 16:54:45
Messages: 5
Offline

Admin wrote:
thematic wrote:
Admin wrote:Do you have iOS 6 beta installed?


nope, both are newly restored iOS 5.1.1

Does it only happen with passthrough?


yes, here is the log file (dunno if it can help you or not)
1st one is passthrough (video shows)
2nd one is fast-forward one (video blank)
and the 3rd one is when i change the global conversion - disable passthrough (video back with subtitle)


2012-07-30 03:47:29 LiveConversion: >>
395821474B69747C697A763B5D72777E68475A72694D727F7E74487E696D7E69477A6D7874756D357E637E393B3636687E7C767E756F36777E757C6F
733B2F3B3636687E7C767E756F36747D7D687E6F3B2B3B36367874756D7E696872747536727F3B2C2E7F2B2B292222362B297E2F362F23232B36232B
2B2E362E7D2A2E7F232F282E7D232A7E7F2C2A22792D2C36222D2A79362F2B7F223679222E2D367F7D782B7E287D2B2E2A7F783B36366B74696F3675
6E76797E693B2F2D2D282A3B366F73697E7A7F683B2F3B3668683B2B352B3B36723B395D2147535F3B56746D727E68472C3B363B537A6969623B4B74
6F6F7E693B7A757F3B6F737E3B5F7E7A6F7377623B537A7777746C683B4B7A696F3B2A47537A696962354B746F6F7E69357A757F356F737E355F7E7A
6F73776235537A7777746C6835292B2A2B352A2B232B6B355A5828355F4F48365F564F3576706D393B36767A6B3B2B212B372B212B3B36767A6B3B2B
212A372B212A3B366D7D3B397869746B262A22292B21232B2B212B212B373B68787A777E262E2F2F2129292F3778746B62393B367A686B7E786F3B2E
2F2F2129292F3B36623B367D3B766B7E7C6F683B367A686275783B362A3B366D78747F7E783B77727963292D2F3B366D78747F7E783B78746B623B36
79687D216D3B73292D2F44766B2F6F747A75757E63793B367A78747F7E783B777279766B28777A767E3B367A793B2A2229703B367A693B2F232B2B2B
3B367A783B293B36
<<

2012-07-30 03:47:29 SegmentedEncoder: avconv version 0.8, Copyright (c) 2000-2012 the Libav developers
2012-07-30 03:47:29 SegmentedEncoder: built on Jul 20 2012 01:21:49 with gcc 4.5.2
2012-07-30 03:47:29 SegmentedEncoder: Input #0, matroska,webm, from 'F:\HD Movies\7 - Harry Potter and the Deathly Hallows Part 1\Harry.Potter.and.the.Deathly.Hallows.2010.1080p.AC3.DTS-DMT.mkv':
2012-07-30 03:47:29 SegmentedEncoder: Duration: 02:26:05.29, start: 0.000000, bitrate: N/A
2012-07-30 03:47:29 SegmentedEncoder: Stream #0.0(eng): Video: h264 (High), yuv420p, 1920x800 [PAR 1:1 DAR 12:5], 23.98 fps, 23.98 tbr, 1k tbn, 47.95 tbc (default)
2012-07-30 03:47:29 SegmentedEncoder: Metadata:
2012-07-30 03:47:29 SegmentedEncoder: title : hp7part1-1080p
2012-07-30 03:47:29 SegmentedEncoder: Stream #0.1(eng): Audio: dca (DTS), 48000 Hz, 5.1, s16, 1536 kb/s
2012-07-30 03:47:29 SegmentedEncoder: Metadata:
2012-07-30 03:47:29 SegmentedEncoder: title : DTS
2012-07-30 03:47:29 SegmentedEncoder: Stream #0.2(eng): Audio: ac3, 48000 Hz, 5.1, s16, 640 kb/s
2012-07-30 03:47:29 SegmentedEncoder: Metadata:
2012-07-30 03:47:29 SegmentedEncoder: title : AC3 640
2012-07-30 03:47:29 SegmentedEncoder: Stream #0.3(dut): Subtitle: [0][0][0][0] / 0x0000 (default)
2012-07-30 03:47:29 SegmentedEncoder: Metadata:
2012-07-30 03:47:29 SegmentedEncoder: title : Nederlands SRT-TEAM
2012-07-30 03:47:29 SegmentedEncoder: [mpegts @ 021fc960] muxrate VBR, pcr every 100 pkts, sdt every 200, pat/pmt every 40 pkts
2012-07-30 03:47:29 SegmentedEncoder: Output #0, mpegts, to 'pipe:':
2012-07-30 03:47:29 SegmentedEncoder: Metadata:
2012-07-30 03:47:29 SegmentedEncoder: encoder : Lavf54.9.0
2012-07-30 03:47:29 SegmentedEncoder: Stream #0.0(eng): Video: libx264, yuv420p, 1920x800 [PAR 1:1 DAR 12:5], q=2-31, 90k tbn, 1k tbc (default)
2012-07-30 03:47:29 SegmentedEncoder: Metadata:
2012-07-30 03:47:29 SegmentedEncoder: title : hp7part1-1080p
2012-07-30 03:47:29 SegmentedEncoder: Stream #0.1(eng): Audio: libmp3lame, 48000 Hz, stereo, s16, 192 kb/s
2012-07-30 03:47:29 SegmentedEncoder: Metadata:
2012-07-30 03:47:29 SegmentedEncoder: title : DTS
2012-07-30 03:47:29 SegmentedEncoder: Stream mapping:
2012-07-30 03:47:29 SegmentedEncoder: Stream #0:0 -> #0:0 (copy)
2012-07-30 03:47:29 SegmentedEncoder: Stream #0:1 -> #0:1 (dca -> libmp3lame)
2012-07-30 03:47:29 SegmentedEncoder: Press ctrl-c to stop encoding
2012-07-30 03:47:29 SegmentedEncoder: frame= 190 fps= 0 q=-1.0 size= 6713kB time=7.80 bitrate=7050.5kbits/s
2012-07-30 03:47:40 LiveConversion: >>
395821474B69747C697A763B5D72777E68475A72694D727F7E74487E696D7E69477A6D7874756D357E637E393B3636687E7C767E756F36777E757C6F
733B2F3B3636687E7C767E756F36747D7D687E6F3B292A2D2F3B36367874756D7E696872747536727F3B2C2E7F2B2B292222362B297E2F362F23232B
36232B2B2E362E7D2A2E7F232F282E7D232A7A7823797A2E2D23367A79297E362F2C2A2C3679782C7E367F7F782C7A23222F292B2F2D3B36366B7469
6F36756E76797E693B2F2D2D282A3B366F73697E7A7F683B2F3B3668683B292A2D2F352B3B36723B395D2147535F3B56746D727E68472C3B363B537A
6969623B4B746F6F7E693B7A757F3B6F737E3B5F7E7A6F7377623B537A7777746C683B4B7A696F3B2A47537A696962354B746F6F7E69357A757F356F
737E355F7E7A6F73776235537A7777746C6835292B2A2B352A2B232B6B355A5828355F4F48365F564F3576706D393B36767A6B3B2B212B372B212B3B
36767A6B3B2B212A372B212A3B366D7D3B397869746B262A22292B21232B2B212B212B373B68787A777E262E2F2F2129292F3778746B62393B367A68
6B7E786F3B2E2F2F2129292F3B36623B367D3B766B7E7C6F683B367A686275783B362A3B366D78747F7E783B77727963292D2F3B366D78747F7E783B
78746B623B3679687D216D3B73292D2F44766B2F6F747A75757E63793B367A78747F7E783B777279766B28777A767E3B367A793B2A2229703B367A69
3B2F232B2B2B3B367A783B293B36
<<

2012-07-30 03:47:41 SegmentedEncoder: avconv version 0.8, Copyright (c) 2000-2012 the Libav developers
2012-07-30 03:47:41 SegmentedEncoder: built on Jul 20 2012 01:21:49 with gcc 4.5.2
2012-07-30 03:47:41 SegmentedEncoder: Input #0, matroska,webm, from 'F:\HD Movies\7 - Harry Potter and the Deathly Hallows Part 1\Harry.Potter.and.the.Deathly.Hallows.2010.1080p.AC3.DTS-DMT.mkv':
2012-07-30 03:47:41 SegmentedEncoder: Duration: 02:26:05.29, start: 0.000000, bitrate: N/A
2012-07-30 03:47:41 SegmentedEncoder: Stream #0.0(eng): Video: h264 (High), yuv420p, 1920x800 [PAR 1:1 DAR 12:5], 23.98 fps, 23.98 tbr, 1k tbn, 47.95 tbc (default)
2012-07-30 03:47:41 SegmentedEncoder: Metadata:
2012-07-30 03:47:41 SegmentedEncoder: title : hp7part1-1080p
2012-07-30 03:47:41 SegmentedEncoder: Stream #0.1(eng): Audio: dca (DTS), 48000 Hz, 5.1, s16, 1536 kb/s
2012-07-30 03:47:41 SegmentedEncoder: Metadata:
2012-07-30 03:47:41 SegmentedEncoder: title : DTS
2012-07-30 03:47:41 SegmentedEncoder: Stream #0.2(eng): Audio: ac3, 48000 Hz, 5.1, s16, 640 kb/s
2012-07-30 03:47:41 SegmentedEncoder: Metadata:
2012-07-30 03:47:41 SegmentedEncoder: title : AC3 640
2012-07-30 03:47:41 SegmentedEncoder: Stream #0.3(dut): Subtitle: [0][0][0][0] / 0x0000 (default)
2012-07-30 03:47:41 SegmentedEncoder: Metadata:
2012-07-30 03:47:41 SegmentedEncoder: title : Nederlands SRT-TEAM
2012-07-30 03:47:41 SegmentedEncoder: [mpegts @ 01856aa0] muxrate VBR, pcr every 100 pkts, sdt every 200, pat/pmt every 40 pkts
2012-07-30 03:47:41 SegmentedEncoder: Output #0, mpegts, to 'pipe:':
2012-07-30 03:47:41 SegmentedEncoder: Metadata:
2012-07-30 03:47:41 SegmentedEncoder: encoder : Lavf54.9.0
2012-07-30 03:47:41 SegmentedEncoder: Stream #0.0(eng): Video: libx264, yuv420p, 1920x800 [PAR 1:1 DAR 12:5], q=2-31, 90k tbn, 1k tbc (default)
2012-07-30 03:47:41 SegmentedEncoder: Metadata:
2012-07-30 03:47:41 SegmentedEncoder: title : hp7part1-1080p
2012-07-30 03:47:41 SegmentedEncoder: Stream #0.1(eng): Audio: libmp3lame, 48000 Hz, stereo, s16, 192 kb/s
2012-07-30 03:47:41 SegmentedEncoder: Metadata:
2012-07-30 03:47:41 SegmentedEncoder: title : DTS
2012-07-30 03:47:41 SegmentedEncoder: Stream mapping:
2012-07-30 03:47:41 SegmentedEncoder: Stream #0:0 -> #0:0 (copy)
2012-07-30 03:47:41 SegmentedEncoder: Stream #0:1 -> #0:1 (dca -> libmp3lame)
2012-07-30 03:47:41 SegmentedEncoder: Press ctrl-c to stop encoding
2012-07-30 03:47:41 SegmentedEncoder: frame= 172 fps= 0 q=-1.0 size= 12821kB time=4.87 bitrate=21548.2kbits/s
2012-07-30 03:48:21 LiveConversion: >>
395821474B69747C697A763B5D72777E68475A72694D727F7E74487E696D7E69477A6D7874756D357E637E393B3636687E7C767E756F36777E757C6F
733B2F3B3636687E7C767E756F36747D7D687E6F3B292A2D233B36367874756D7E696872747536727F3B222B792C2E2B7F79367D7A227F362F79237A
367922797A367D2B2379787A7E2F2278292C2D2D2B2F237D2F7E3629787D7A362F2C7D2236227E287E367878282E28782E7E7F2D78233B36366B7469
6F36756E76797E693B2F2D2D282A3B366F73697E7A7F683B2F3B3668683B292A2D23352B3B36723B395D2147535F3B56746D727E68472C3B363B537A
6969623B4B746F6F7E693B7A757F3B6F737E3B5F7E7A6F7377623B537A7777746C683B4B7A696F3B2A47537A696962354B746F6F7E69357A757F356F
737E355F7E7A6F73776235537A7777746C6835292B2A2B352A2B232B6B355A5828355F4F48365F564F3576706D393B36767A6B3B2B212B372B212B3B
36767A6B3B2B212A372B212A3B366D7D3B397869746B262A22292B21232B2B212B212B373B68787A777E262E2F2F2129292F3778746B62393B367A68
6B7E786F3B2E2F2F2129292F3B36623B367D3B766B7E7C6F683B367A686275783B362A3B366D78747F7E783B77727963292D2F3B366D78747F7E783B
77727963292D2F3B367D777A7C68293B307D7A686F3B367D777A7C683B307774746B3B367C3B282B3B36707E6272756F447672753B2A3B36797D3B2B
3B367944686F697A6F7E7C623B2B3B3678766B3B3078736974767A3B36697E7D683B2A3B3678747F7E693B2B3B36767E44697A757C7E3B2A2D3B3668
6E796A3B2F3B366B7A696F726F727475683B306B7A696F722F632F306B7A696F72236323306B7A696F6B2363233B366F697E777772683B2B3B366878
446F73697E687374777F3B2F2B3B3672446A7D7A786F74693B2B352C2A3B366A7874766B3B2B352D3B36796E7D6872617E3B2A2B292F703B36793B2A
292B2B703B36796F3B2A282B2B703B366A767A633B2F233B366A7672753B293B36693B292835222C2E3B367A78747F7E783B777279766B28777A767E
3B367A793B2A2229703B367A693B2F232B2B2B3B367A783B293B36
<<

2012-07-30 03:48:21 SegmentedEncoder: avconv version 0.8, Copyright (c) 2000-2012 the Libav developers
2012-07-30 03:48:21 SegmentedEncoder: built on Jul 20 2012 01:21:49 with gcc 4.5.2
2012-07-30 03:48:21 SegmentedEncoder: Input #0, matroska,webm, from 'F:\HD Movies\7 - Harry Potter and the Deathly Hallows Part 1\Harry.Potter.and.the.Deathly.Hallows.2010.1080p.AC3.DTS-DMT.mkv':
2012-07-30 03:48:21 SegmentedEncoder: Duration: 02:26:05.29, start: 0.000000, bitrate: N/A
2012-07-30 03:48:21 SegmentedEncoder: Stream #0.0(eng): Video: h264 (High), yuv420p, 1920x800 [PAR 1:1 DAR 12:5], 23.98 fps, 23.98 tbr, 1k tbn, 47.95 tbc (default)
2012-07-30 03:48:21 SegmentedEncoder: Metadata:
2012-07-30 03:48:21 SegmentedEncoder: title : hp7part1-1080p
2012-07-30 03:48:21 SegmentedEncoder: Stream #0.1(eng): Audio: dca (DTS), 48000 Hz, 5.1, s16, 1536 kb/s
2012-07-30 03:48:21 SegmentedEncoder: Metadata:
2012-07-30 03:48:21 SegmentedEncoder: title : DTS
2012-07-30 03:48:21 SegmentedEncoder: Stream #0.2(eng): Audio: ac3, 48000 Hz, 5.1, s16, 640 kb/s
2012-07-30 03:48:21 SegmentedEncoder: Metadata:
2012-07-30 03:48:21 SegmentedEncoder: title : AC3 640
2012-07-30 03:48:21 SegmentedEncoder: Stream #0.3(dut): Subtitle: [0][0][0][0] / 0x0000 (default)
2012-07-30 03:48:21 SegmentedEncoder: Metadata:
2012-07-30 03:48:21 SegmentedEncoder: title : Nederlands SRT-TEAM
2012-07-30 03:48:21 SegmentedEncoder: [libx264 @ 02065660] VBV maxrate unspecified, assuming CBR
2012-07-30 03:48:21 SegmentedEncoder: [libx264 @ 02065660] using SAR=1/1
2012-07-30 03:48:21 SegmentedEncoder: [libx264 @ 02065660] using cpu capabilities: MMX2 SSE2Fast SSSE3 FastShuffle SSE4.2
2012-07-30 03:48:21 SegmentedEncoder: [libx264 @ 02065660] profile High, level 2.1
2012-07-30 03:48:21 SegmentedEncoder: [mpegts @ 02065180] muxrate VBR, pcr every 2 pkts, sdt every 200, pat/pmt every 40 pkts
2012-07-30 03:48:21 SegmentedEncoder: Output #0, mpegts, to 'pipe:':
2012-07-30 03:48:21 SegmentedEncoder: Metadata:
2012-07-30 03:48:21 SegmentedEncoder: encoder : Lavf54.9.0
2012-07-30 03:48:21 SegmentedEncoder: Stream #0.0(eng): Video: libx264, yuv420p, 544x224 [PAR 1:1 DAR 17:7], q=2-48, 1200 kb/s, 90k tbn, 23.98 tbc (default)
2012-07-30 03:48:21 SegmentedEncoder: Metadata:
2012-07-30 03:48:21 SegmentedEncoder: title : hp7part1-1080p
2012-07-30 03:48:21 SegmentedEncoder: Stream #0.1(eng): Audio: libmp3lame, 48000 Hz, stereo, s16, 192 kb/s
2012-07-30 03:48:21 SegmentedEncoder: Metadata:
2012-07-30 03:48:21 SegmentedEncoder: title : DTS
2012-07-30 03:48:21 SegmentedEncoder: Stream mapping:
2012-07-30 03:48:21 SegmentedEncoder: Stream #0:0 -> #0:0 (h264 -> libx264)
2012-07-30 03:48:21 SegmentedEncoder: Stream #0:1 -> #0:1 (dca -> libmp3lame)
2012-07-30 03:48:21 SegmentedEncoder: Press ctrl-c to stop encoding
2012-07-30 03:48:21 SegmentedEncoder: [libx264 @ 02065660] non-strictly-monotonic PTS
2012-07-30 03:48:21 SegmentedEncoder: frame= 17 fps= 0 q=0.0 size= 0kB time=0.47 bitrate= 0.0kbits/s
2012-07-30 03:48:26 SegmentedEncoder: frame= 312 fps= 56 q=22.0 size= 2193kB time=11.22 bitrate=1601.5kbits/s
2012-07-30 03:48:31 SegmentedEncoder: frame= 582 fps= 55 q=24.0 size= 4301kB time=22.48 bitrate=1567.1kbits/s


about my comment earlier about "loading time" when using passthrough, i'm beginning to feel my iOS's network speed is too slow to streaming high bitrate movies. i tried my full quality bluray-rip (around 30GB for 90 minutes movie) and its very unwatchable because its loading every 3-5 seconds.
using iStat Menu's network monitor, the max upload rate is only around 2MB/s (or 16Mbit/s rate, very low compared to 30Mbit/s bluray)

i tried use other iOS app to copy file, it only got the same max download/upload rate.
anyone have this problem too ? or it's just me?
(my WiFi router is definitely can reach 6-7MByte/s while using Mac/Windows notebooks)

This message was edited 1 time. Last update was at 07/29/2012 23:49:29

sknet



Joined: 11/23/2010 12:31:27
Messages: 3
Location: Japan
Offline

6-7MB/sec using WiFi N is very good transfer speed ^_^ 48-56Mbits nice.......
[Yahoo!] [MSN] [ICQ]
Admin



Joined: 08/23/2009 08:49:34
Messages: 8705
Offline

30Mbit/s bluray rip is too much for the iPhone/iPad hardware decoder to handle.
thematic



Joined: 07/28/2012 16:54:45
Messages: 5
Offline

sknet wrote:6-7MB/sec using WiFi N is very good transfer speed ^_^ 48-56Mbits nice.......


LOL i was hoping it could reach 10-12MB/s to get rid of my wired one
maybe i should try 5GHz N router
thematic



Joined: 07/28/2012 16:54:45
Messages: 5
Offline

Admin wrote:30Mbit/s bluray rip is too much for the iPhone/iPad hardware decoder to handle.


ah i see, i think we should get warning/information/option or just silently force encoding to these files ?
all my friends love AirVideo because "it just works" player. they didn't want/need to understand about encoding, codec or anything.
they get rid of "other iOS video player" because its too much hazzle to remember technical info or even using SMB share
(well disabling passthrough as default like now, is fine too i guess)

well just my 2cents
Admin



Joined: 08/23/2009 08:49:34
Messages: 8705
Offline

thematic wrote:
Admin wrote:30Mbit/s bluray rip is too much for the iPhone/iPad hardware decoder to handle.


ah i see, i think we should get warning/information/option or just silently force encoding to these files ?
all my friends love AirVideo because "it just works" player. they didn't want/need to understand about encoding, codec or anything.
they get rid of "other iOS video player" because its too much hazzle to remember technical info or even using SMB share
(well disabling passthrough as default like now, is fine too i guess)

well just my 2cents

Passthrough in its current form is a bit rough, I'm well aware of that. We'll have better rules for this in Air Video 3 (customizable and depending on device capabilities). It's being worked on. Also next server update should address this.

This message was edited 1 time. Last update was at 07/30/2012 20:06:01

phenis



Joined: 07/26/2012 13:59:10
Messages: 2
Offline

also the Iphone/iPad is 2.4Ghz only, so dont waste your money on a 5Ghz router.
quidnunc



Joined: 07/19/2012 19:02:01
Messages: 5
Offline

the ipad can run on 5ghz however it is still only a 20mhz channel i.e. not faster
 
Forum Index » Air Video Announcements
Go to:   
Powered by JForum 2.1.8 © JForum Team