[Logo] Air Video Forum
  [Search] Search   [Recent Topics] Recent Topics   [Hottest Topics] Hottest Topics   [Members]  Member Listing   [Groups] Back to home page 
[Moderation Log] Moderation Log   [Register] Register / 
[Login] Login 
Air Video Server 2.4.5-beta7 released  XML
Forum Index » Air Video Announcements
Author Message
Admin



Joined: 08/23/2009 08:49:34
Messages: 8705
Offline

I'm pleased to announce that new Air Video Server version is available.

You can download it for Mac OS X and Microsoft Windows.

This is maintenance release that includes various bug fixes. It also resolves issues with offline conversion video quality being too low and the conversion leaving temporary files around. Beta 7 contains updated FFmpeg build.

Note that the Mac OS X version requires a 64bit CPU so it will not run on first generation Intel based Macs (with Core Duo). Due to user demand the next version will work on 32bit Intel CPUs again.

This message was edited 5 times. Last update was at 07/02/2013 23:13:52

emax



Joined: 07/26/2011 23:10:14
Messages: 37
Offline

10 Bit support !!!!!

Thank you

iPad 3 iOS 6.1.3 . iPhone 5 iOS 7 beta 1 . MacBook Air i7 OS X 10.9 DP1
Air Video: Client 2.4.13 . Server 2.4.6-beta3
reedl



Joined: 05/01/2011 23:14:26
Messages: 41
Offline

I have installed Beta 5 right now working well. I updated to Beta 7, and everytime I play a video, I get a lot of pauses in the video stream.

I am posting two logfiles. One beta 7 with a live conversion that does not work correctly, and one where it works perfectly with beta 5

It is the same computer (i5-650, 3 Gig RAM, files stored on windows server 2003) I merely installed the new beta over the old one. I even rebooted the computer inbetween removing the old one before installing the new one to see if that would help. It did not.

It seems to have problems with parts that have a lot of motion (camera pans for example)

Here is the conversion log for a conversion where I get pauses in the video.
2011-11-09 16:47:53 LiveConversion: >>
395821474B69747C697A763B5D72777E68475A72694D727F7E74487E696D7E69477D7D766B7E7C357E637E393B3636687E7C767E756F36777E757C6F
733B2F3B3636687E7C767E756F36747D7D687E6F3B2A2A293B36367874756D7E696872747536727F3B7D782A292D2E2222367D78292F362F79227A36
7A287D2C36282A2B2A7E78232C7A7D22782B7A2C2D2B232B2E362A7F292D362F7F7F7836222A2E2F362A7D2D782F7E2A292B287D783B36366B74696F
36756E76797E693B2F2D2D282A3B366F73697E7A7F683B2F3B36767A6B3B2B352B212B352B3B36767A6B3B2B352A212B352A3B3668683B2A2A29352B
3B36723B394B21475F697A767A47567268687274753B52766B7468687279777E47487E7A6874753B2D47567268687274753B52766B7468687279777E
3B482D3B4D28442B2F35766B7C393B366D7D3B397869746B262C292B212F232B212B212B373B68787A777E262C292B212E2F2F393B367A686B7E786F
3B2C292B212E2F2F3B36623B367A686275783B2A3B367D3B766B7E7C6F683B366D78747F7E783B77727963292D2F3B367D777A7C68293B307D7A686F
3B367D777A7C683B307774746B3B367C3B282B3B36707E6272756F447672753B2A3B36797D3B2B3B367944686F697A6F7E7C623B2B3B367D777A7C68
293B366C6B697E7F367F786F2363233B3678766B3B3078736974767A3B367F7E79777478707A776B737A3B2B3B367F7E7977747870797E6F7A3B2B3B
36697E7D683B2A3B3678747F7E693B2B3B36767E44697A757C7E3B2A2D3B36686E796A3B2E3B366B7A696F726F727475683B306B7A696F722F632F30
6B7A696F72236323306B7A696F6B2363233B366F697E777772683B2B3B366878446F73697E687374777F3B2F2B3B3672446A7D7A786F74693B2B352C
2A3B366A7874766B3B2B352D3B36796E7D6872617E3B2A2B292F703B36793B2F292E2B703B36796F3B2F2E2B2B703B366A767A633B2F233B366A7672
753B293B36693B292E352B3B367A78747F7E783B7772796D74447A7A787E75783B367A793B292E2D703B367A693B2F232B2B2B3B366D74773B2A2A2F
2B3B367A783B293B36
<<

2011-11-09 16:47:53 SegmentedEncoder: ffmpeg version 0.7, Copyright (c) 2000-2011 the Libav developers
2011-11-09 16:47:53 SegmentedEncoder: built on Nov 9 2011 12:00:29 with gcc 4.5.2
2011-11-09 16:47:53 SegmentedEncoder: This program is not developed anymore and is only provided for compatibility. Use avconv instead (see Changelog for the list of incompatible changes).
2011-11-09 16:47:53 SegmentedEncoder: [mpeg @ 0128c9a0] max_analyze_duration reached
2011-11-09 16:47:53 SegmentedEncoder:
2011-11-09 16:47:53 SegmentedEncoder: Seems stream 0 codec frame rate differs from container frame rate: 59.94 (60000/1001) -> 59.94 (60000/1001)
2011-11-09 16:47:53 SegmentedEncoder: Input #0, mpeg, from 'P:\Drama\Mission Impossible\Season 6\Mission Impossible S6 V3_04.mpg':
2011-11-09 16:47:53 SegmentedEncoder: Duration: 00:50:55.32, start: 0.280611, bitrate: 4914 kb/s
2011-11-09 16:47:53 SegmentedEncoder: Stream #0.0[0x1e0]: Video: mpeg2video (Main), yuv420p, 720x480 [PAR 8:9 DAR 4:3], 9800 kb/s, 23.90 fps, 59.94 tbr, 90k tbn, 59.94 tbc
2011-11-09 16:47:53 SegmentedEncoder: Stream #0.1[0x80]: Audio: ac3, 48000 Hz, 5.1, s16, 448 kb/s
2011-11-09 16:47:53 SegmentedEncoder: [buffer @ 0128e600] w:720 h:480 pixfmt:yuv420p
2011-11-09 16:47:53 SegmentedEncoder: [crop @ 0299d2a0] w:720 h:480 -> w:720 h:480
2011-11-09 16:47:53 SegmentedEncoder: [scale @ 0299d200] w:720 h:480 fmt:yuv420p -> w:720 h:544 fmt:yuv420p flags:0x4
2011-11-09 16:47:53 SegmentedEncoder: [libx264 @ 0128f360] VBV maxrate unspecified, assuming CBR
2011-11-09 16:47:53 SegmentedEncoder: [libx264 @ 0128f360] using SAR=1/1
2011-11-09 16:47:53 SegmentedEncoder: [libx264 @ 0128f360] using cpu capabilities: MMX2 SSE2Fast SSSE3 FastShuffle SSE4.2
2011-11-09 16:47:53 SegmentedEncoder: [libx264 @ 0128f360] profile Main, level 3.0
2011-11-09 16:47:53 SegmentedEncoder: [mpegts @ 0128eca0] muxrate VBR, pcr every 2 pkts, sdt every 200, pat/pmt every 40 pkts
2011-11-09 16:47:53 SegmentedEncoder: Output #0, mpegts, to 'pipe:':
2011-11-09 16:47:53 SegmentedEncoder: Metadata:
2011-11-09 16:47:53 SegmentedEncoder: encoder : Lavf53.14.0
2011-11-09 16:47:53 SegmentedEncoder: Stream #0.0: Video: libx264, yuv420p, 720x544 [PAR 1:1 DAR 45:34], q=2-48, 4250 kb/s, 90k tbn, 25 tbc
2011-11-09 16:47:53 SegmentedEncoder: Stream #0.1: Audio: libvo_aacenc, 48000 Hz, 2 channels, s16, 256 kb/s
2011-11-09 16:47:53 SegmentedEncoder: Stream mapping:
2011-11-09 16:47:53 SegmentedEncoder: Stream #0.0 -> #0.0
2011-11-09 16:47:53 SegmentedEncoder: Stream #0.1 -> #0.1
2011-11-09 16:47:53 SegmentedEncoder: Press ctrl-c to stop encoding
2011-11-09 16:47:53 SegmentedEncoder: [ac3 @ 0128e8a0] frame sync error
2011-11-09 16:47:53 SegmentedEncoder: Error while decoding stream #0.1
2011-11-09 16:47:53 SegmentedEncoder: Input stream #0.1 frame changed from rate:48000 fmt:s16 ch:6 to rate:48000 fmt:s16 ch:2
2011-11-09 16:47:53 SegmentedEncoder: frame= 61 fps= 0 q=22.0 size= 590kB time=1.04 bitrate=4647.9kbits/s dup=2 drop=0
2011-11-09 16:47:56 LiveConversion: >>
395821474B69747C697A763B5D72777E68475A72694D727F7E74487E696D7E69477D7D766B7E7C357E637E393B3636687E7C767E756F36777E757C6F
733B2F3B3636687E7C767E756F36747D7D687E6F3B2B3B36367874756D7E696872747536727F3B7D782A292D2E2222367D78292F362F79227A367A28
7D2C36282A2B2A7E78232C7A7D22782B7A227E2C2222223623287A2C362F7E2D2A367A7D2C28367A2C7E22787D792E7A2E2F2B3B36366B74696F3675
6E76797E693B2F2D2D282A3B366F73697E7A7F683B2F3B36767A6B3B2B352B212B352B3B36767A6B3B2B352A212B352A3B3668683B2B352B3B36723B
394B21475F697A767A47567268687274753B52766B7468687279777E47487E7A6874753B2D47567268687274753B52766B7468687279777E3B482D3B
4D28442B2F35766B7C393B366D7D3B397869746B262C292B212F232B212B212B373B68787A777E262C292B212E2F2F393B367A686B7E786F3B2C292B
212E2F2F3B36623B367D3B766B7E7C6F683B366D78747F7E783B77727963292D2F3B367D777A7C68293B307D7A686F3B367D777A7C683B307774746B
3B367C3B282B3B36707E6272756F447672753B2A3B36797D3B2B3B367944686F697A6F7E7C623B2B3B367D777A7C68293B366C6B697E7F367F786F23
63233B3678766B3B3078736974767A3B367F7E79777478707A776B737A3B2B3B367F7E7977747870797E6F7A3B2B3B36697E7D683B2A3B3678747F7E
693B2B3B36767E44697A757C7E3B2A2D3B36686E796A3B2E3B366B7A696F726F727475683B306B7A696F722F632F306B7A696F72236323306B7A696F
6B2363233B366F697E777772683B2B3B366878446F73697E687374777F3B2F2B3B3672446A7D7A786F74693B2B352C2A3B366A7874766B3B2B352D3B
36796E7D6872617E3B2A2B292F703B36793B2F292E2B703B36796F3B2F2E2B2B703B366A767A633B2F233B366A7672753B293B36693B292E352B3B36
7A78747F7E783B7772796D74447A7A787E75783B367A793B292E2D703B367A693B2F232B2B2B3B366D74773B2A2A2F2B3B367A783B293B36
<<

2011-11-09 16:47:56 SegmentedEncoder: ffmpeg version 0.7, Copyright (c) 2000-2011 the Libav developers
2011-11-09 16:47:56 SegmentedEncoder: built on Nov 9 2011 12:00:29 with gcc 4.5.2
2011-11-09 16:47:56 SegmentedEncoder: This program is not developed anymore and is only provided for compatibility. Use avconv instead (see Changelog for the list of incompatible changes).
2011-11-09 16:47:56 SegmentedEncoder: [mpeg @ 002fc940] max_analyze_duration reached
2011-11-09 16:47:56 SegmentedEncoder:
2011-11-09 16:47:56 SegmentedEncoder: Seems stream 0 codec frame rate differs from container frame rate: 59.94 (60000/1001) -> 59.94 (60000/1001)
2011-11-09 16:47:56 SegmentedEncoder: Input #0, mpeg, from 'P:\Drama\Mission Impossible\Season 6\Mission Impossible S6 V3_04.mpg':
2011-11-09 16:47:56 SegmentedEncoder: Duration: 00:50:55.32, start: 0.280611, bitrate: 4914 kb/s
2011-11-09 16:47:56 SegmentedEncoder: Stream #0.0[0x1e0]: Video: mpeg2video (Main), yuv420p, 720x480 [PAR 8:9 DAR 4:3], 9800 kb/s, 23.90 fps, 59.94 tbr, 90k tbn, 59.94 tbc
2011-11-09 16:47:56 SegmentedEncoder: Stream #0.1[0x80]: Audio: ac3, 48000 Hz, 5.1, s16, 448 kb/s
2011-11-09 16:47:56 SegmentedEncoder: [buffer @ 002fff20] w:720 h:480 pixfmt:yuv420p
2011-11-09 16:47:56 SegmentedEncoder: [crop @ 0299d2c0] w:720 h:480 -> w:720 h:480
2011-11-09 16:47:56 SegmentedEncoder: [scale @ 0299d440] w:720 h:480 fmt:yuv420p -> w:720 h:544 fmt:yuv420p flags:0x4
2011-11-09 16:47:56 SegmentedEncoder: [libx264 @ 002ff400] VBV maxrate unspecified, assuming CBR
2011-11-09 16:47:56 SegmentedEncoder: [libx264 @ 002ff400] using SAR=1/1
2011-11-09 16:47:56 SegmentedEncoder: [libx264 @ 002ff400] using cpu capabilities: MMX2 SSE2Fast SSSE3 FastShuffle SSE4.2
2011-11-09 16:47:56 SegmentedEncoder: [libx264 @ 002ff400] profile Main, level 3.0
2011-11-09 16:47:56 SegmentedEncoder: [mpegts @ 028c8720] muxrate VBR, pcr every 2 pkts, sdt every 200, pat/pmt every 40 pkts
2011-11-09 16:47:56 SegmentedEncoder: Output #0, mpegts, to 'pipe:':
2011-11-09 16:47:56 SegmentedEncoder: Metadata:
2011-11-09 16:47:56 SegmentedEncoder: encoder : Lavf53.14.0
2011-11-09 16:47:56 SegmentedEncoder: Stream #0.0: Video: libx264, yuv420p, 720x544 [PAR 1:1 DAR 45:34], q=2-48, 4250 kb/s, 90k tbn, 25 tbc
2011-11-09 16:47:56 SegmentedEncoder: Stream #0.1: Audio: libvo_aacenc, 48000 Hz, 2 channels, s16, 256 kb/s
2011-11-09 16:47:56 SegmentedEncoder: Stream mapping:
2011-11-09 16:47:56 SegmentedEncoder: Stream #0.0 -> #0.0
2011-11-09 16:47:56 SegmentedEncoder: Stream #0.1 -> #0.1
2011-11-09 16:47:56 SegmentedEncoder: Press ctrl-c to stop encoding
2011-11-09 16:47:56 SegmentedEncoder: Input stream #0.1 frame changed from rate:48000 fmt:s16 ch:6 to rate:48000 fmt:s16 ch:2
2011-11-09 16:47:56 SegmentedEncoder: frame= 77 fps= 0 q=19.0 size= 419kB time=1.68 bitrate=2043.8kbits/s dup=2 drop=0
2011-11-09 16:48:02 SegmentedEncoder: frame= 431 fps= 75 q=22.0 size= 8661kB time=15.84 bitrate=4479.5kbits/s dup=17 drop=0
2011-11-09 16:48:07 SegmentedEncoder: frame= 761 fps= 68 q=21.0 size= 16240kB time=29.04 bitrate=4581.2kbits/s dup=30 drop=0
2011-11-09 16:48:13 SegmentedEncoder: frame= 1066 fps= 63 q=22.0 size= 23376kB time=41.24 bitrate=4643.5kbits/s dup=43 drop=0
2011-11-09 16:48:18 SegmentedEncoder: frame= 1354 fps= 61 q=20.0 size= 30143kB time=52.76 bitrate=4680.3kbits/s dup=54 drop=0
2011-11-09 16:48:24 SegmentedEncoder: frame= 1729 fps= 62 q=21.0 size= 38831kB time=67.76 bitrate=4694.6kbits/s dup=70 drop=0
2011-11-09 16:48:30 SegmentedEncoder: frame= 2095 fps= 62 q=21.0 size= 47460kB time=82.40 bitrate=4718.3kbits/s dup=85 drop=0
2011-11-09 16:48:38 SegmentedEncoder: frame= 2430 fps= 58 q=21.0 size= 55285kB time=95.80 bitrate=4727.5kbits/s dup=99 drop=0
2011-11-09 16:48:53 SegmentedEncoder: frame= 2763 fps= 48 q=21.0 size= 63135kB time=109.12 bitrate=4739.8kbits/s dup=112 drop=0


...And here is a logfile from Beta 5 where the video plays perfectly.

2011-11-09 16:54:53 LiveConversion: >>
395821474B69747C697A763B5D72777E68475A72694D727F7E74487E696D7E69477D7D766B7E7C357E637E393B3636687E7C767E756F36777E757C6F
733B2F3B3636687E7C767E756F36747D7D687E6F3B2B3B36367874756D7E696872747536727F3B792C2B2E7979792E36237A2F29362F7A2B79367A22
782C36297A2C237D232C7F222A782E7D7A2829792E2223362279782F362F227F7D3622232C7E36792E7D22232229222B792F7D3B36366B74696F3675
6E76797E693B2F2D2D282A3B366F73697E7A7F683B2F3B367D777A7C683B307774746B3B367C3B282B3B36707E6272756F447672753B2A3B36797D3B
2B3B367944686F697A6F7E7C623B2B3B367D777A7C68293B366C6B697E7F367F786F2363233B3678766B3B3078736974767A3B367F7E79777478707A
776B737A3B2B3B367F7E7977747870797E6F7A3B2B3B36697E7D683B2A3B3678747F7E693B2B3B36767E44697A757C7E3B2A2D3B36686E796A3B2E3B
366B7A696F726F727475683B306B7A696F722F632F306B7A696F72236323306B7A696F6B2363233B366F697E777772683B2B3B366878446F73697E68
7374777F3B2F2B3B3672446A7D7A786F74693B2B352C2A3B366A7874766B3B2B352D3B36767A6B3B2B352B212B352B3B36767A6B3B2B352A212B352A
3B3668683B2B352B3B36723B394B2147475F697A767A4747567268687274753B52766B7468687279777E4747487E7A6874753B2D4747567268687274
753B52766B7468687279777E3B482D3B4D28442B2F35766B7C393B366D7D3B397869746B262C292B212F232B212B212B373B68787A777E262C292B21
2E2F2F393B367A686B7E786F3B2C292B212F232B3B36623B367D3B766B7E7C6F683B366D78747F7E783B77727963292D2F3B36796E7D6872617E3B2A
2B292F703B36793B2F292E2B703B36796F3B2F2E2B2B703B366A767A633B2F233B366A7672753B293B36693B292E352B3B367A78747F7E783B777279
766B28777A767E3B367A793B292E2D703B367A693B2F232B2B2B3B366D74773B2A2A2F2B3B367A783B293B36
<<

2011-11-09 16:54:54 SegmentedEncoder: FFmpeg version UNKNOWN, Copyright (c) 2000-2011 the FFmpeg developers
2011-11-09 16:54:54 SegmentedEncoder: built on Mar 7 2011 02:14:16 with gcc 4.4.0
2011-11-09 16:54:54 SegmentedEncoder: configuration: --enable-memalign-hack --prefix=/mingw --target-os=mingw32 --arch=i686 --cpu=i686 --enable-gpl --enable-libx264 --enable-static --disable-shared --enable-pthreads --enable-libmp3lame
2011-11-09 16:54:54 SegmentedEncoder: libavutil 50.36. 0 / 50.36. 0
2011-11-09 16:54:54 SegmentedEncoder: libavcore 0.16. 1 / 0.16. 1
2011-11-09 16:54:54 SegmentedEncoder: libavcodec 52.108. 0 / 52.108. 0
2011-11-09 16:54:54 SegmentedEncoder: libavformat 52.93. 0 / 52.93. 0
2011-11-09 16:54:54 SegmentedEncoder: libavdevice 52. 2. 3 / 52. 2. 3
2011-11-09 16:54:54 SegmentedEncoder: libavfilter 1.74. 0 / 1.74. 0
2011-11-09 16:54:54 SegmentedEncoder: libswscale 0.12. 0 / 0.12. 0
2011-11-09 16:54:54 SegmentedEncoder: [mpeg @ 0x3e9770] max_analyze_duration reached
2011-11-09 16:54:54 SegmentedEncoder:
2011-11-09 16:54:54 SegmentedEncoder: Seems stream 0 codec frame rate differs from container frame rate: 59.94 (60000/1001) -> 59.94 (60000/1001)
2011-11-09 16:54:54 SegmentedEncoder: Input #0, mpeg, from 'P:\\Drama\\Mission Impossible\\Season 6\\Mission Impossible S6 V3_04.mpg':
2011-11-09 16:54:54 SegmentedEncoder: Duration: 00:50:55.32, start: 0.280611, bitrate: 4914 kb/s
2011-11-09 16:54:54 SegmentedEncoder: Stream #0.0[0x1e0]: Video: mpeg2video, yuv420p, 720x480 [PAR 8:9 DAR 4:3], 9800 kb/s, 23.90 fps, 59.94 tbr, 90k tbn, 59.94 tbc
2011-11-09 16:54:54 SegmentedEncoder: Stream #0.1[0x80]: Audio: ac3, 48000 Hz, 5.1, s16, 448 kb/s
2011-11-09 16:54:54 SegmentedEncoder: [buffer @ 0x1f96fb0] w:720 h:480 pixfmt:yuv420p
2011-11-09 16:54:54 SegmentedEncoder: [crop @ 0x29766e0] w:720 h:480 -> w:720 h:480
2011-11-09 16:54:54 SegmentedEncoder: [scale @ 0x206afb0] w:720 h:480 fmt:yuv420p -> w:720 h:544 fmt:yuv420p flags:0xa0000004
2011-11-09 16:54:54 SegmentedEncoder: [libx264 @ 0x1f9ebd0] VBV maxrate unspecified, assuming CBR
2011-11-09 16:54:54 SegmentedEncoder: [libx264 @ 0x1f9ebd0] using SAR=1/1
2011-11-09 16:54:54 SegmentedEncoder: [libx264 @ 0x1f9ebd0] using cpu capabilities: MMX2 SSE2Fast SSSE3 FastShuffle SSE4.2
2011-11-09 16:54:54 SegmentedEncoder: [libx264 @ 0x1f9ebd0] profile Constrained Baseline, level 3.0
2011-11-09 16:54:54 SegmentedEncoder: [mpegts @ 0x1fa7340] muxrate VBR, pcr every 2 pkts, sdt every 200, pat/pmt every 40 pkts
2011-11-09 16:54:54 SegmentedEncoder: Output #0, mpegts, to 'pipe:':
2011-11-09 16:54:54 SegmentedEncoder: Metadata:
2011-11-09 16:54:54 SegmentedEncoder: encoder : Lavf52.93.0
2011-11-09 16:54:54 SegmentedEncoder: Stream #0.0: Video: libx264, yuv420p, 720x544 [PAR 1:1 DAR 45:34], q=2-48, 4250 kb/s, 90k tbn, 25 tbc
2011-11-09 16:54:54 SegmentedEncoder: Stream #0.1: Audio: libmp3lame, 48000 Hz, 2 channels, s16, 256 kb/s
2011-11-09 16:54:54 SegmentedEncoder: Stream mapping:
2011-11-09 16:54:54 SegmentedEncoder: Stream #0.0 -> #0.0
2011-11-09 16:54:54 SegmentedEncoder: Stream #0.1 -> #0.1
2011-11-09 16:54:54 SegmentedEncoder: Press [q] to stop encoding
2011-11-09 16:54:54 SegmentedEncoder: Input stream #0.1 frame changed from rate:48000 fmt:s16 ch:6 to rate:48000 fmt:s16 ch:2
2011-11-09 16:54:54 SegmentedEncoder: frame= 76 fps= 0 q=19.0 size= 367kB time=1.64 bitrate=1834.1kbits/s dup=2 drop=0
2011-11-09 16:54:59 SegmentedEncoder: frame= 467 fps= 80 q=19.0 size= 9081kB time=17.28 bitrate=4305.2kbits/s dup=18 drop=0
2011-11-09 16:55:05 SegmentedEncoder: frame= 858 fps= 78 q=24.0 size= 17821kB time=32.92 bitrate=4434.7kbits/s dup=34 drop=0
2011-11-09 16:55:10 SegmentedEncoder: frame= 1221 fps= 76 q=18.0 size= 25919kB time=47.44 bitrate=4475.8kbits/s dup=49 drop=0
2011-11-09 16:55:15 SegmentedEncoder: frame= 1629 fps= 77 q=20.0 size= 35163kB time=63.76 bitrate=4517.8kbits/s dup=66 drop=0
2011-11-09 16:55:22 SegmentedEncoder: frame= 2010 fps= 71 q=22.0 size= 43797kB time=79.00 bitrate=4541.6kbits/s dup=81 drop=0
2011-11-09 16:55:34 SegmentedEncoder: frame= 2352 fps= 58 q=20.0 size= 51573kB time=92.68 bitrate=4558.5kbits/s dup=95 drop=0
2011-11-09 16:55:46 SegmentedEncoder: frame= 2695 fps= 51 q=20.0 size= 59247kB time=106.40 bitrate=4561.6kbits/s dup=109 drop=0
Admin



Joined: 08/23/2009 08:49:34
Messages: 8705
Offline

Both logs show that video is being transcoded fast enough, the problem is most likely somewhere else. Given your description I'd suspect network throughput is not enough. Beta 7 does have slightly increased bitrate. If you change nitrate to 2560 in Air Video global settings do you still get buffering?
reedl



Joined: 05/01/2011 23:14:26
Messages: 41
Offline

I have gigabit connections between my server, and the server I am running Airvideo on. It is a 100 mbps connection to the access point. I get a download speed of 14 mbps connection across my wifi (I am about 5 feet from the access point with the iPad).

I changed the bandwidth setting in the player, and the same thing happens when I try the slower bandwidth.

This is the same issue with the files ripped using Magic DVD ripper as beta 6. That is why I am still on Beta 5.

I do not get buffering, I get places where the video just freezes. The audio continues. and then the video jumps to the new frame.

This message was edited 1 time. Last update was at 11/09/2011 22:54:04

Admin



Joined: 08/23/2009 08:49:34
Messages: 8705
Offline

I see. That is a different issue then. Is there any way you can provide a reasonable sized sample?
reedl



Joined: 05/01/2011 23:14:26
Messages: 41
Offline

Let me see if I can rip a few minutes worth of a video file, and see if I canupload it.

Where can I upload it to privately? I most certainly do not want it publically available.

Admin



Joined: 08/23/2009 08:49:34
Messages: 8705
Offline

I can send you a yousendit.com invitation. Please send me an email to support(at)inmethod.com .
reedl



Joined: 05/01/2011 23:14:26
Messages: 41
Offline

I put the file onto my FTP Server for you to download. Info in a private email.
centaur



Joined: 11/02/2010 22:11:45
Messages: 13
Offline

Just watched my first 10bit anime! Thank you much for adding that.
ciguli



Joined: 07/09/2011 00:52:08
Messages: 14
Offline

I was using beta-6 without any issues at all. However, as soon as I upgraded to beta-7, air video's time bar started to get stuck while playing a video. The movie keeps playing fine, but the progress bar stops at some point, so whenever I pause and resume my movie, it goes back where it stopped. Any ideas? Btw. I also upgraded the java on my computer; don't know if it could cause this...
Admin



Joined: 08/23/2009 08:49:34
Messages: 8705
Offline

If that is a converted movie it is issue with iOS 5. It will be resolved in next Air Video client update.
ciguli



Joined: 07/09/2011 00:52:08
Messages: 14
Offline

Nope, happens all the time with the live conversion.
jwurmitzer



Joined: 03/14/2011 18:52:10
Messages: 13
Offline

Looks like the ffmpeg is compiled not to run on 32bit CoreDuos ..??
Admin



Joined: 08/23/2009 08:49:34
Messages: 8705
Offline

Sorry, forgot to mentioned that, it is 64bit only for this release. If you need a 32bit version please post a comment, I have no idea how many people are still stuck with 32 bit computers.
 
Forum Index » Air Video Announcements
Go to:   
Powered by JForum 2.1.8 © JForum Team