[Logo] Air Video Forum
  [Search] Search   [Recent Topics] Recent Topics   [Hottest Topics] Hottest Topics   [Members]  Member Listing   [Groups] Back to home page 
[Moderation Log] Moderation Log   [Register] Register / 
[Login] Login 
Air Video Server 2.4.6-beta1 released  XML
Forum Index » Air Video Announcements
Author Message
Admin



Joined: 08/23/2009 08:49:34
Messages: 8705
Offline

I'm pleased to announce that new Air Video Server version is available.

You can download it for Mac OS X and Microsoft Windows.

Changes since latest beta release:
- fixed playback of files with multichannel AAC audio
- added gatekeeper support for OSX Mountain Lion.
- new OS X menu bar icon with retina display support (courtesy of Hector Simpson)
- H.264 Passthrough support (once the new client update gets approved)

This message was edited 1 time. Last update was at 07/18/2012 03:44:49

markstrom



Joined: 09/24/2009 03:54:42
Messages: 3
Offline

So you went with Hector Simpson.

Hope that means you will adapt his suggestion to Air Video iOS redesign.
iSunrise



Joined: 04/26/2012 19:11:45
Messages: 4
Offline

@Admin:
Since the client update is not yet up on iTunes, did you already fix the aspect ratio bug with 1440x1080 content?
See here: http://www.inmethod.com/forum/posts/list/195/4529.page#25791

Other than that, I´ve just tested Air Video server 2.4.6 beta1 and it works really well.
IllusionKH



Joined: 06/19/2011 17:20:26
Messages: 4
Offline

Hi,

Since the new version the audio crackles when playing video.

Any idea?

- reinstalled the server software
- reinstalled the client on the iPad (3)
- rebooted the iPad

... to no effect.

For the moment, I reverted back to the older version (2.4.5 b6)...

Thanks in advance!
andu



Joined: 04/22/2011 01:13:51
Messages: 6
Offline

i'd like to have the option to be able to manage the video library from the ios apo, so i could move, delete o rename the video files. thus i wouldn't need to login in the main computer if i don't feel like to.

thanks
Admin



Joined: 08/23/2009 08:49:34
Messages: 8705
Offline

IllusionKH wrote:Hi,

Since the new version the audio crackles when playing video.

Any idea?

- reinstalled the server software
- reinstalled the client on the iPad (3)
- rebooted the iPad

... to no effect.

For the moment, I reverted back to the older version (2.4.5 b6)...

Thanks in advance!

Does this happen with all videos? Is it consistently reproducible? Can you post here live conversion log?
IllusionKH



Joined: 06/19/2011 17:20:26
Messages: 4
Offline

Admin wrote:
IllusionKH wrote:Hi,

Since the new version the audio crackles when playing video.

Any idea?

- reinstalled the server software
- reinstalled the client on the iPad (3)
- rebooted the iPad

... to no effect.

For the moment, I reverted back to the older version (2.4.5 b6)...

Thanks in advance!

Does this happen with all videos? Is it consistently reproducible? Can you post here live conversion log?


Hi,

Strangely, it appears that it only happens when I play avi files (tested 3 files) but when playing mkv or mp4 files the audio is ok.

Log:

2012-07-07 21:15:14 LiveConversion: >>
395821474B69747C697A763B5D72777E683B3363232D32475A72694D727F7E74487E696D7E69477A6D7874756D357E637E393B3636687E7C767E756F
36777E757C6F733B2F3B3636687E7C767E756F36747D7D687E6F3B2B3B36367874756D7E696872747536727F3B2F2B287E2B7F287E362A7D237A362F
2B2379367A782E2A36292A2C282C2A7E297F227D2C292E7F2E7F2E2822367A2E2278362F2D7A7836237F2C7D36282A2C2E2C227A7D2A297F2F3B3636
6B74696F36756E76797E693B2F2D2D282A3B366F73697E7A7F683B2F3B3668683B2B352B3B36723B395321475F74786E767E756F7A72697E68474E5D
543B536E756F7E696847482B28474E5D543B536E756F7E69683B482B285E2A293B363B4F737E3B4872777E75787E6968357A6D72393B36767A6B3B2B
212B372B212B3B36767A6B3B2B212A372B212A3B366D7D3B397869746B262D292F21282E29212B212B373B68787A777E262D292F21282E29393B367A
686B7E786F3B2D292F21282E293B36623B367D3B766B7E7C6F683B366D78747F7E783B77727963292D2F3B366D78747F7E783B77727963292D2F3B36
7D777A7C68293B307D7A686F3B367D777A7C683B307774746B3B367C3B282B3B36707E6272756F447672753B2A3B36797D3B2B3B367944686F697A6F
7E7C623B2B3B3678766B3B3078736974767A3B36697E7D683B2A3B3678747F7E693B2B3B36767E44697A757C7E3B2A2D3B36686E796A3B2E3B366B7A
696F726F727475683B306B7A696F722F632F306B7A696F72236323306B7A696F6B2363233B366F697E777772683B2B3B366878446F73697E68737477
7F3B2F2B3B3672446A7D7A786F74693B2B352C2A3B366A7874766B3B2B352D3B36796E7D6872617E3B2A2B292F703B36793B2A292B2B703B36796F3B
2A282B2B703B366A767A633B2F233B366A7672753B293B36693B292835222C2D3B367A78747F7E783B7772797D7A7A783B367A793B2A2229703B367A
693B2F232B2B2B3B367A783B293B36
<<

2012-07-07 21:15:15 SegmentedEncoder: avconv version 0.8, Copyright (c) 2000-2012 the Libav developers
2012-07-07 21:15:15 SegmentedEncoder: built on Jun 16 2012 21:52:23 with gcc 4.5.2
2012-07-07 21:15:15 SegmentedEncoder: Guessed Channel Layout for Input Stream #0.1 : stereo
2012-07-07 21:15:15 SegmentedEncoder: Input #0, avi, from 'H:\Documentaires\UFO Hunters\S03\UFO Hunters S03E12 - The Silencers.avi':
2012-07-07 21:15:15 SegmentedEncoder: Metadata:
2012-07-07 21:15:15 SegmentedEncoder: encoder : transcode-1.0.4
2012-07-07 21:15:15 SegmentedEncoder: Duration: 00:44:17.76, start: 0.000000, bitrate: 1104 kb/s
2012-07-07 21:15:15 SegmentedEncoder: Stream #0.0: Video: mpeg4 (Advanced Simple Profile), yuv420p, 624x352 [PAR 1:1 DAR 39:22], 23.98 tbn, 23.98 tbc
2012-07-07 21:15:15 SegmentedEncoder: Stream #0.1: Audio: mp3, 48000 Hz, stereo, s16, 128 kb/s
2012-07-07 21:15:15 SegmentedEncoder: [buffer @ 0116c140] w:624 h:352 pixfmt:yuv420p
2012-07-07 21:15:15 SegmentedEncoder: [crop @ 0035ee00] w:624 h:352 -> w:624 h:352
2012-07-07 21:15:15 SegmentedEncoder: [scale @ 03b30b60] w:624 h:352 fmt:yuv420p -> w:624 h:352 fmt:yuv420p flags:0x4
2012-07-07 21:15:15 SegmentedEncoder: [libx264 @ 0035e500] VBV maxrate unspecified, assuming CBR
2012-07-07 21:15:15 SegmentedEncoder: [libx264 @ 0035e500] using SAR=1/1
2012-07-07 21:15:15 SegmentedEncoder: [libx264 @ 0035e500] using cpu capabilities: MMX2 SSE2Slow SlowCTZ
2012-07-07 21:15:15 SegmentedEncoder: [libx264 @ 0035e500] profile High, level 3.0
2012-07-07 21:15:15 SegmentedEncoder: [mpegts @ 0035e020] muxrate VBR, pcr every 2 pkts, sdt every 200, pat/pmt every 40 pkts
2012-07-07 21:15:15 SegmentedEncoder: Output #0, mpegts, to 'pipe:':
2012-07-07 21:15:15 SegmentedEncoder: Metadata:
2012-07-07 21:15:15 SegmentedEncoder: encoder : Lavf54.3.1
2012-07-07 21:15:15 SegmentedEncoder: Stream #0.0: Video: libx264, yuv420p, 624x352 [PAR 1:1 DAR 39:22], q=2-48, 1200 kb/s, 90k tbn, 23.98 tbc
2012-07-07 21:15:15 SegmentedEncoder: Stream #0.1: Audio: libfaac, 48000 Hz, stereo, s16, 192 kb/s
2012-07-07 21:15:15 SegmentedEncoder: Stream mapping:
2012-07-07 21:15:15 SegmentedEncoder: Stream #0:0 -> #0:0 (mpeg4 -> libx264)
2012-07-07 21:15:15 SegmentedEncoder: Stream #0:1 -> #0:1 (mp3 -> libfaac)
2012-07-07 21:15:15 SegmentedEncoder: Press ctrl-c to stop encoding
2012-07-07 21:15:15 SegmentedEncoder: frame= 46 fps= 0 q=21.0 size= 82kB time=0.58 bitrate=1148.8kbits/s
2012-07-07 21:15:20 SegmentedEncoder: frame= 343 fps= 61 q=18.0 size= 2340kB time=12.97 bitrate=1477.7kbits/s
2012-07-07 21:15:25 SegmentedEncoder: frame= 597 fps= 56 q=26.0 size= 4311kB time=23.57 bitrate=1498.5kbits/s
2012-07-07 21:15:30 SegmentedEncoder: frame= 853 fps= 54 q=27.0 size= 6241kB time=34.24 bitrate=1493.0kbits/s
2012-07-07 21:15:36 SegmentedEncoder: frame= 1147 fps= 54 q=23.0 size= 8442kB time=46.50 bitrate=1487.1kbits/s
2012-07-07 21:15:41 SegmentedEncoder: frame= 1365 fps= 51 q=26.0 size= 10149kB time=55.60 bitrate=1495.4kbits/s
2012-07-07 21:15:47 LiveConversion: >>
395821474B69747C697A763B5D72777E683B3363232D32475A72694D727F7E74487E696D7E69477A6D7874756D357E637E393B3636687E7C767E756F
36777E757C6F733B2F3B3636687E7C767E756F36747D7D687E6F3B2B3B36367874756D7E696872747536727F3B28292E2B792A2B233678792A28362F
787E2336237D2222362E282B7F7A787E2C7878227F2922792D78782F2B3678292F29362F7F2E7E36797F237E36292E292E2C2F7F79782C79293B3636
6B74696F36756E76797E693B2F2D2D282A3B366F73697E7A7F683B2F3B3668683B2B352B3B36723B5321475F74786E767E756F7A72697E68472A2B29
29364C72757F746C682C53746E687E4B7A696F6235766B2F3B36767A6B3B2B212B372B212B3B36767A6B3B2B212A372B212A3B366D7D3B397869746B
262F232B21292C2B212B212B373B68787A777E262F232B21292C29393B367A686B7E786F3B2F232B21292C293B36623B367D3B766B7E7C6F683B366D
78747F7E783B77727963292D2F3B366D78747F7E783B77727963292D2F3B367D777A7C68293B307D7A686F3B367D777A7C683B307774746B3B367C3B
282B3B36707E6272756F447672753B2A3B36797D3B2B3B367944686F697A6F7E7C623B2B3B3678766B3B3078736974767A3B36697E7D683B2A3B3678
747F7E693B2B3B36767E44697A757C7E3B2A2D3B36686E796A3B2E3B366B7A696F726F727475683B306B7A696F722F632F306B7A696F72236323306B
7A696F6B2363233B366F697E777772683B2B3B366878446F73697E687374777F3B2F2B3B3672446A7D7A786F74693B2B352C2A3B366A7874766B3B2B
352D3B36796E7D6872617E3B2A2B292F703B36793B2A292B2B703B36796F3B2A282B2B703B366A767A633B2F233B366A7672753B293B36693B282B35
2B3B367A78747F7E783B7772797D7A7A783B367A793B2A2229703B367A693B2F2F2A2B2B3B367A783B293B36
<<

2012-07-07 21:15:48 SegmentedEncoder: avconv version 0.8, Copyright (c) 2000-2012 the Libav developers
2012-07-07 21:15:48 SegmentedEncoder: built on Jun 16 2012 21:52:23 with gcc 4.5.2
2012-07-07 21:15:48 SegmentedEncoder: [mov,mp4,m4a,3gp,3g2,mj2 @ 014fcde0] multiple edit list entries, a/v desync might occur, patch welcome
2012-07-07 21:15:48 SegmentedEncoder: Input #0, mov,mp4,m4a,3gp,3g2,mj2, from 'H:\Documentaires\1022-Windows7HouseParty.mp4':
2012-07-07 21:15:48 SegmentedEncoder: Metadata:
2012-07-07 21:15:48 SegmentedEncoder: major_brand : mp42
2012-07-07 21:15:48 SegmentedEncoder: minor_version : 1
2012-07-07 21:15:48 SegmentedEncoder: compatible_brands: mp42mp41
2012-07-07 21:15:48 SegmentedEncoder: creation_time : 2009-10-23 01:17:16
2012-07-07 21:15:48 SegmentedEncoder: Duration: 01:19:02.30, start: 0.000000, bitrate: 348 kb/s
2012-07-07 21:15:48 SegmentedEncoder: Stream #0.0(und): Video: h264 (Constrained Baseline), yuv420p, 480x270 [PAR 1:1 DAR 16:9], 269 kb/s, 30 fps, 30 tbr, 30 tbn, 60 tbc
2012-07-07 21:15:48 SegmentedEncoder: Metadata:
2012-07-07 21:15:48 SegmentedEncoder: creation_time : 2009-10-23 01:17:16
2012-07-07 21:15:48 SegmentedEncoder: Stream #0.1(und): Audio: aac, 44100 Hz, mono, s16, 75 kb/s
2012-07-07 21:15:48 SegmentedEncoder: Metadata:
2012-07-07 21:15:48 SegmentedEncoder: creation_time : 2009-10-23 01:17:16
2012-07-07 21:15:48 SegmentedEncoder: [buffer @ 04405100] w:480 h:270 pixfmt:yuv420p
2012-07-07 21:15:48 SegmentedEncoder: [crop @ 02b57380] w:480 h:270 -> w:480 h:270
2012-07-07 21:15:48 SegmentedEncoder: [scale @ 02b8af40] w:480 h:270 fmt:yuv420p -> w:480 h:272 fmt:yuv420p flags:0x4
2012-07-07 21:15:48 SegmentedEncoder: [aformat @ 02b62800] auto-inserting filter 'auto-inserted resampler 0' between the filter 'Parsed filter 0 anull' and the filter 'aformat'
2012-07-07 21:15:48 SegmentedEncoder: [libx264 @ 014ff7e0] VBV maxrate unspecified, assuming CBR
2012-07-07 21:15:48 SegmentedEncoder: [libx264 @ 014ff7e0] using SAR=1/1
2012-07-07 21:15:48 SegmentedEncoder: [libx264 @ 014ff7e0] using cpu capabilities: MMX2 SSE2Slow SlowCTZ
2012-07-07 21:15:48 SegmentedEncoder: [libx264 @ 014ff7e0] profile High, level 2.1
2012-07-07 21:15:48 SegmentedEncoder: [mpegts @ 044052c0] muxrate VBR, pcr every 3 pkts, sdt every 200, pat/pmt every 40 pkts
2012-07-07 21:15:48 SegmentedEncoder: Output #0, mpegts, to 'pipe:':
2012-07-07 21:15:48 SegmentedEncoder: Metadata:
2012-07-07 21:15:48 SegmentedEncoder: major_brand : mp42
2012-07-07 21:15:48 SegmentedEncoder: minor_version : 1
2012-07-07 21:15:48 SegmentedEncoder: compatible_brands: mp42mp41
2012-07-07 21:15:48 SegmentedEncoder: creation_time : 2009-10-23 01:17:16
2012-07-07 21:15:48 SegmentedEncoder: encoder : Lavf54.3.1
2012-07-07 21:15:48 SegmentedEncoder: Stream #0.0(und): Video: libx264, yuv420p, 480x272 [PAR 1:1 DAR 30:17], q=2-48, 1200 kb/s, 90k tbn, 30 tbc
2012-07-07 21:15:48 SegmentedEncoder: Metadata:
2012-07-07 21:15:48 SegmentedEncoder: creation_time : 2009-10-23 01:17:16
2012-07-07 21:15:48 SegmentedEncoder: Stream #0.1(und): Audio: libfaac, 44100 Hz, stereo, s16, 192 kb/s
2012-07-07 21:15:48 SegmentedEncoder: Metadata:
2012-07-07 21:15:48 SegmentedEncoder: creation_time : 2009-10-23 01:17:16
2012-07-07 21:15:48 SegmentedEncoder: Stream mapping:
2012-07-07 21:15:48 SegmentedEncoder: Stream #0:0 -> #0:0 (h264 -> libx264)
2012-07-07 21:15:48 SegmentedEncoder: Stream #0:1 -> #0:1 (aac -> libfaac)
2012-07-07 21:15:48 SegmentedEncoder: Press ctrl-c to stop encoding
2012-07-07 21:15:48 SegmentedEncoder: frame= 56 fps= 0 q=5.0 size= 29kB time=0.73 bitrate= 328.1kbits/s
2012-07-07 21:15:53 SegmentedEncoder: frame= 315 fps= 56 q=21.0 size= 1555kB time=9.37 bitrate=1359.7kbits/s
2012-07-07 21:16:23 LiveConversion: >>
395821474B69747C697A763B5D72777E683B3363232D32475A72694D727F7E74487E696D7E69477A6D7874756D357E637E393B3636687E7C767E756F
36777E757C6F733B2F3B3636687E7C767E756F36747D7D687E6F3B2B3B36367874756D7E696872747536727F3B2E222E2A292A222F367A7F2879362F
2C232236232A2C7D367D797E2B2E237A7E2C2A22297D282A7E2B2E2F7F3629227E7D362F282E2C362279237A362C2D2F23222A292B2D2B2A7A3B3636
6B74696F36756E76797E693B2F2D2D282A3B366F73697E7A7F683B2F3B3668683B2B352B3B36723B395321475F74786E767E756F7A72697E68475959
583B5F74786E767E756F7A69623B363B486B7A787E3B547F6268687E623B4D74627A7C7E3B6F743B6F737E3B4B777A757E6F683B363B4B7A696F3B2A
357A6D72393B36767A6B3B2B212B372B212B3B36767A6B3B2B212A372B212A3B366D7D3B397869746B262D2E2D21282D23212B212B373B68787A777E
262D2E2D21282D23393B367A686B7E786F3B2D2E2D21282D233B36623B367D3B766B7E7C6F683B366D78747F7E783B77727963292D2F3B366D78747F
7E783B77727963292D2F3B367D777A7C68293B307D7A686F3B367D777A7C683B307774746B3B367C3B282B3B36707E6272756F447672753B2A3B3679
7D3B2B3B367944686F697A6F7E7C623B2B3B3678766B3B3078736974767A3B36697E7D683B2A3B3678747F7E693B2B3B36767E44697A757C7E3B2A2D
3B36686E796A3B2E3B366B7A696F726F727475683B306B7A696F722F632F306B7A696F72236323306B7A696F6B2363233B366F697E777772683B2B3B
366878446F73697E687374777F3B2F2B3B3672446A7D7A786F74693B2B352C2A3B366A7874766B3B2B352D3B36796E7D6872617E3B2A2B292F703B36
793B2A292B2B703B36796F3B2A282B2B703B366A767A633B2F233B366A7672753B293B36693B292E352B3B367A78747F7E783B7772797D7A7A783B36
7A793B2A2229703B367A693B2F232B2B2B3B367A783B293B36
<<

2012-07-07 21:16:24 SegmentedEncoder: avconv version 0.8, Copyright (c) 2000-2012 the Libav developers
2012-07-07 21:16:24 SegmentedEncoder: built on Jun 16 2012 21:52:23 with gcc 4.5.2
2012-07-07 21:16:24 SegmentedEncoder: Guessed Channel Layout for Input Stream #0.1 : stereo
2012-07-07 21:16:24 SegmentedEncoder: Input #0, avi, from 'H:\Documentaires\BBC Documentary - Space Odyssey Voyage to the Planets - Part 1.avi':
2012-07-07 21:16:24 SegmentedEncoder: Metadata:
2012-07-07 21:16:24 SegmentedEncoder: encoder : VirtualDubMod 1.5.10.1 (build 2439/release)
2012-07-07 21:16:24 SegmentedEncoder: Duration: 00:58:59.92, start: 0.000000, bitrate: 1658 kb/s
2012-07-07 21:16:24 SegmentedEncoder: Stream #0.0: Video: mpeg4, yuv420p, 656x368 [PAR 1:1 DAR 41:23], 25 fps, 25 tbr, 25 tbn, 30k tbc
2012-07-07 21:16:24 SegmentedEncoder: Stream #0.1: Audio: mp3, 48000 Hz, stereo, s16, 128 kb/s
2012-07-07 21:16:24 SegmentedEncoder: [buffer @ 0118dca0] w:656 h:368 pixfmt:yuv420p
2012-07-07 21:16:24 SegmentedEncoder: [crop @ 0118dda0] w:656 h:368 -> w:656 h:368
2012-07-07 21:16:24 SegmentedEncoder: [scale @ 01159e80] w:656 h:368 fmt:yuv420p -> w:656 h:368 fmt:yuv420p flags:0x4
2012-07-07 21:16:24 SegmentedEncoder: [libx264 @ 0037e700] VBV maxrate unspecified, assuming CBR
2012-07-07 21:16:24 SegmentedEncoder: [libx264 @ 0037e700] using SAR=1/1
2012-07-07 21:16:24 SegmentedEncoder: [libx264 @ 0037e700] using cpu capabilities: MMX2 SSE2Slow SlowCTZ
2012-07-07 21:16:24 SegmentedEncoder: [libx264 @ 0037e700] profile High, level 3.0
2012-07-07 21:16:24 SegmentedEncoder: [mpegts @ 0037e060] muxrate VBR, pcr every 2 pkts, sdt every 200, pat/pmt every 40 pkts
2012-07-07 21:16:24 SegmentedEncoder: Output #0, mpegts, to 'pipe:':
2012-07-07 21:16:24 SegmentedEncoder: Metadata:
2012-07-07 21:16:24 SegmentedEncoder: encoder : Lavf54.3.1
2012-07-07 21:16:24 SegmentedEncoder: Stream #0.0: Video: libx264, yuv420p, 656x368 [PAR 1:1 DAR 41:23], q=2-48, 1200 kb/s, 90k tbn, 25 tbc
2012-07-07 21:16:24 SegmentedEncoder: Stream #0.1: Audio: libfaac, 48000 Hz, stereo, s16, 192 kb/s
2012-07-07 21:16:24 SegmentedEncoder: Stream mapping:
2012-07-07 21:16:24 SegmentedEncoder: Stream #0:0 -> #0:0 (mpeg4 -> libx264)
2012-07-07 21:16:24 SegmentedEncoder: Stream #0:1 -> #0:1 (mp3 -> libfaac)
2012-07-07 21:16:24 SegmentedEncoder: Press ctrl-c to stop encoding
2012-07-07 21:16:24 SegmentedEncoder: frame= 42 fps= 0 q=19.0 size= 55kB time=0.32 bitrate=1405.3kbits/s
2012-07-07 21:16:31 SegmentedEncoder: frame= 270 fps= 33 q=23.0 size= 1755kB time=9.44 bitrate=1522.7kbits/s
2012-07-07 21:16:36 SegmentedEncoder: frame= 524 fps= 40 q=24.0 size= 3647kB time=19.60 bitrate=1524.1kbits/s
2012-07-07 21:16:38 LiveConversion: >>
395821474B69747C697A763B5D72777E683B3363232D32475A72694D727F7E74487E696D7E69477A6D7874756D357E637E393B3636687E7C767E756F
36777E757C6F733B2F3B3636687E7C767E756F36747D7D687E6F3B2B3B36367874756D7E696872747536727F3B2E2929792A2A2B7A36232A792B362F
78227D3622797E7A367E787828782E2B7F2E2C287A282A7F2A2B29222D36782C287E362F7823223622792A7A362A2A287D2C29782F2B2B7A2B3B3636
6B74696F36756E76797E693B2F2D2D282A3B366F73697E7A7F683B2F3B3668683B2B352B3B36723B5321475F74786E767E756F7A72697E6847707574
6C75356E75726D7E69687E35682B287E2B23352C292B6B35737F6F6D3563292D2F367F726D7E697C7E3576706D3B36767A6B3B2B212B372B212B3B36
767A6B3B2B212A372B212A3B366D7D3B397869746B262A29232B212C292B212B212B373B68787A777E26232B2B212F2F23393B367A686B7E786F3B23
2B2B212F2F233B36623B367D3B766B7E7C6F683B366D78747F7E783B77727963292D2F3B366D78747F7E783B77727963292D2F3B367D777A7C68293B
307D7A686F3B367D777A7C683B307774746B3B367C3B282B3B36707E6272756F447672753B2A3B36797D3B2B3B367944686F697A6F7E7C623B2B3B36
78766B3B3078736974767A3B36697E7D683B2A3B3678747F7E693B2B3B36767E44697A757C7E3B2A2D3B36686E796A3B2E3B366B7A696F726F727475
683B306B7A696F722F632F306B7A696F72236323306B7A696F6B2363233B366F697E777772683B2B3B366878446F73697E687374777F3B2F2B3B3672
446A7D7A786F74693B2B352C2A3B366A7874766B3B2B352D3B36796E7D6872617E3B2A2B292F703B36793B2A292B2B703B36796F3B2A282B2B703B36
6A767A633B2F233B366A7672753B293B36693B292E352B3B367A78747F7E783B7772797D7A7A783B367A793B2A2229703B367A693B2F232B2B2B3B36
7A783B293B36
<<

2012-07-07 21:16:39 SegmentedEncoder: avconv version 0.8, Copyright (c) 2000-2012 the Libav developers
2012-07-07 21:16:39 SegmentedEncoder: built on Jun 16 2012 21:52:23 with gcc 4.5.2
2012-07-07 21:16:39 SegmentedEncoder: Input #0, matroska,webm, from 'H:\Documentaires\known.universe.s03e08.720p.hdtv.x264-diverge.mkv':
2012-07-07 21:16:39 SegmentedEncoder: Duration: 00:44:52.82, start: 0.000000, bitrate: N/A
2012-07-07 21:16:39 SegmentedEncoder: Stream #0.0(eng): Video: h264 (High), yuv420p, 1280x720, PAR 1:1 DAR 16:9, 29.97 fps, 29.97 tbr, 1k tbn, 59.94 tbc
2012-07-07 21:16:39 SegmentedEncoder: Stream #0.1: Audio: ac3, 48000 Hz, 5.1, s16, 384 kb/s (default)
2012-07-07 21:16:39 SegmentedEncoder: [buffer @ 01343ec0] w:1280 h:720 pixfmt:yuv420p
2012-07-07 21:16:39 SegmentedEncoder: [crop @ 01339f20] w:1280 h:720 -> w:1280 h:720
2012-07-07 21:16:39 SegmentedEncoder: [scale @ 003b39a0] w:1280 h:720 fmt:yuv420p -> w:800 h:448 fmt:yuv420p flags:0x4
2012-07-07 21:16:39 SegmentedEncoder: [aformat @ 03848e40] auto-inserting filter 'auto-inserted resampler 0' between the filter 'Parsed filter 0 anull' and the filter 'aformat'
2012-07-07 21:16:39 SegmentedEncoder: [libx264 @ 037e81e0] VBV maxrate unspecified, assuming CBR
2012-07-07 21:16:39 SegmentedEncoder: [libx264 @ 037e81e0] using SAR=1/1
2012-07-07 21:16:39 SegmentedEncoder: [libx264 @ 037e81e0] using cpu capabilities: MMX2 SSE2Slow SlowCTZ
2012-07-07 21:16:39 SegmentedEncoder: [libx264 @ 037e81e0] profile High, level 3.0
2012-07-07 21:16:39 SegmentedEncoder: [mpegts @ 03aff1c0] muxrate VBR, pcr every 2 pkts, sdt every 200, pat/pmt every 40 pkts
2012-07-07 21:16:39 SegmentedEncoder: Output #0, mpegts, to 'pipe:':
2012-07-07 21:16:39 SegmentedEncoder: Metadata:
2012-07-07 21:16:39 SegmentedEncoder: encoder : Lavf54.3.1
2012-07-07 21:16:39 SegmentedEncoder: Stream #0.0(eng): Video: libx264, yuv420p, 800x448 [PAR 1:1 DAR 25:14], q=2-48, 1200 kb/s, 90k tbn, 25 tbc
2012-07-07 21:16:39 SegmentedEncoder: Stream #0.1: Audio: libfaac, 48000 Hz, stereo, s16, 192 kb/s (default)
2012-07-07 21:16:39 SegmentedEncoder: Stream mapping:
2012-07-07 21:16:39 SegmentedEncoder: Stream #0:0 -> #0:0 (h264 -> libx264)
2012-07-07 21:16:39 SegmentedEncoder: Stream #0:1 -> #0:1 (ac3 -> libfaac)
2012-07-07 21:16:39 SegmentedEncoder: Press ctrl-c to stop encoding
2012-07-07 21:16:39 SegmentedEncoder: frame= 26 fps= 0 q=0.0 size= 0kB time=1.19 bitrate= 0.0kbits/s
2012-07-07 21:16:44 SegmentedEncoder: frame= 139 fps= 25 q=31.0 size= 783kB time=4.20 bitrate=1528.0kbits/s
2012-07-07 21:16:49 SegmentedEncoder: frame= 247 fps= 23 q=28.0 size= 1576kB time=8.52 bitrate=1515.7kbits/s
2012-07-07 21:16:55 SegmentedEncoder: frame= 338 fps= 21 q=34.0 size= 2288kB time=12.16 bitrate=1541.3kbits/s
2012-07-07 21:17:00 SegmentedEncoder: frame= 453 fps= 21 q=27.0 size= 3085kB time=16.76 bitrate=1507.8kbits/s
2012-07-07 21:17:05 SegmentedEncoder: frame= 572 fps= 22 q=23.0 size= 3914kB time=21.52 bitrate=1489.8kbits/s
2012-07-07 21:17:10 SegmentedEncoder: frame= 661 fps= 21 q=33.0 size= 4634kB time=25.08 bitrate=1513.6kbits/s
2012-07-07 21:17:16 SegmentedEncoder: frame= 752 fps= 20 q=31.0 size= 5247kB time=28.72 bitrate=1496.6kbits/s
2012-07-07 21:17:23 LiveConversion: >>
395821474B69747C697A763B5D72777E683B3363232D32475A72694D727F7E74487E696D7E69477A6D7874756D357E637E393B3636687E7C767E756F
36777E757C6F733B2F3B3636687E7C767E756F36747D7D687E6F3B2B3B36367874756D7E696872747536727F3B787F2C2F2B2D2E2936792A7A29362F
2C2E2336232C2F23367D2928282C792F2B2F7F28222B7A222E2C2B2929367F2D222D362F222E7A367A2A232336222823227D2C2823792C7F223B3636
6B74696F36756E76797E693B2F2D2D282A3B366F73697E7A7F683B2F3B3668683B2B352B3B36723B5321475F74786E767E756F7A72697E684755544D
5A3548282C5E2A2F352C292B6B35535F4F4D3563292D2F3654495E5551523576706D3B36767A6B3B2B212A372B212A3B36767A6B3B2B212B372B212B
3B366D7D3B397869746B262A29232B212C292B212B212B373B68787A777E26232B2B212F2F23393B367A686B7E786F3B232B2B212F2F233B36623B36
7D3B766B7E7C6F683B366D78747F7E783B77727963292D2F3B366D78747F7E783B77727963292D2F3B367D777A7C68293B307D7A686F3B367D777A7C
683B307774746B3B367C3B282B3B36707E6272756F447672753B2A3B36797D3B2B3B367944686F697A6F7E7C623B2B3B3678766B3B3078736974767A
3B36697E7D683B2A3B3678747F7E693B2B3B36767E44697A757C7E3B2A2D3B36686E796A3B2E3B366B7A696F726F727475683B306B7A696F722F632F
306B7A696F72236323306B7A696F6B2363233B366F697E777772683B2B3B366878446F73697E687374777F3B2F2B3B3672446A7D7A786F74693B2B35
2C2A3B366A7874766B3B2B352D3B36796E7D6872617E3B2A2B292F703B36793B2A292B2B703B36796F3B2A282B2B703B366A767A633B2F233B366A76
72753B293B36693B292835222C2D3B367A78747F7E783B7772797D7A7A783B367A793B2A2229703B367A693B2F232B2B2B3B367A783B293B36
<<

2012-07-07 21:17:24 SegmentedEncoder: avconv version 0.8, Copyright (c) 2000-2012 the Libav developers
2012-07-07 21:17:24 SegmentedEncoder: built on Jun 16 2012 21:52:23 with gcc 4.5.2
2012-07-07 21:17:24 SegmentedEncoder: Input #0, matroska,webm, from 'H:\Documentaires\NOVA.S37E14.720p.HDTV.x264-ORENJI.mkv':
2012-07-07 21:17:24 SegmentedEncoder: Duration: 00:52:55.48, start: 0.000000, bitrate: N/A
2012-07-07 21:17:24 SegmentedEncoder: Stream #0.0: Audio: ac3, 48000 Hz, 5.1, s16, 448 kb/s (default)
2012-07-07 21:17:24 SegmentedEncoder: Stream #0.1(eng): Video: h264 (High), yuv420p, 1280x720, PAR 1:1 DAR 16:9, 23.98 fps, 23.98 tbr, 1k tbn, 47.95 tbc
2012-07-07 21:17:24 SegmentedEncoder: [buffer @ 03cbf5a0] w:1280 h:720 pixfmt:yuv420p
2012-07-07 21:17:24 SegmentedEncoder: [crop @ 01293980] w:1280 h:720 -> w:1280 h:720
2012-07-07 21:17:24 SegmentedEncoder: [scale @ 01291a40] w:1280 h:720 fmt:yuv420p -> w:800 h:448 fmt:yuv420p flags:0x4
2012-07-07 21:17:24 SegmentedEncoder: [aformat @ 03a1afc0] auto-inserting filter 'auto-inserted resampler 0' between the filter 'Parsed filter 0 anull' and the filter 'aformat'
2012-07-07 21:17:24 SegmentedEncoder: [libx264 @ 03ccda20] VBV maxrate unspecified, assuming CBR
2012-07-07 21:17:24 SegmentedEncoder: [libx264 @ 03ccda20] using SAR=1/1
2012-07-07 21:17:24 SegmentedEncoder: [libx264 @ 03ccda20] using cpu capabilities: MMX2 SSE2Slow SlowCTZ
2012-07-07 21:17:24 SegmentedEncoder: [libx264 @ 03ccda20] profile High, level 3.0
2012-07-07 21:17:24 SegmentedEncoder: [mpegts @ 03bb7020] muxrate VBR, pcr every 2 pkts, sdt every 200, pat/pmt every 40 pkts
2012-07-07 21:17:24 SegmentedEncoder: Output #0, mpegts, to 'pipe:':
2012-07-07 21:17:24 SegmentedEncoder: Metadata:
2012-07-07 21:17:24 SegmentedEncoder: encoder : Lavf54.3.1
2012-07-07 21:17:24 SegmentedEncoder: Stream #0.0(eng): Video: libx264, yuv420p, 800x448 [PAR 1:1 DAR 25:14], q=2-48, 1200 kb/s, 90k tbn, 23.98 tbc
2012-07-07 21:17:24 SegmentedEncoder: Stream #0.1: Audio: libfaac, 48000 Hz, stereo, s16, 192 kb/s (default)
2012-07-07 21:17:24 SegmentedEncoder: Stream mapping:
2012-07-07 21:17:24 SegmentedEncoder: Stream #0:1 -> #0:0 (h264 -> libx264)
2012-07-07 21:17:24 SegmentedEncoder: Stream #0:0 -> #0:1 (ac3 -> libfaac)
2012-07-07 21:17:24 SegmentedEncoder: Press ctrl-c to stop encoding
2012-07-07 21:17:24 SegmentedEncoder: Input stream #0:0 frame changed from rate:48000 fmt:s16 ch:6 chl:5.1 to rate:48000 fmt:s16 ch:2 chl:stereo
2012-07-07 21:17:24 SegmentedEncoder: Input stream #0:0 frame changed from rate:48000 fmt:s16 ch:2 chl:stereo to rate:48000 fmt:s16 ch:6 chl:5.1
2012-07-07 21:17:24 SegmentedEncoder: [aformat @ 0123aae0] auto-inserting filter 'auto-inserted resampler 0' between the filter 'Parsed filter 0 anull' and the filter 'aformat'
2012-07-07 21:17:24 SegmentedEncoder: frame= 15 fps= 0 q=0.0 size= 0kB time=0.93 bitrate= 0.0kbits/s
2012-07-07 21:17:29 SegmentedEncoder: frame= 140 fps= 24 q=24.0 size= 816kB time=4.42 bitrate=1512.5kbits/s
2012-07-07 21:17:34 SegmentedEncoder: frame= 271 fps= 25 q=27.0 size= 1784kB time=9.88 bitrate=1478.2kbits/s
2012-07-07 21:17:40 SegmentedEncoder: frame= 344 fps= 21 q=29.0 size= 2397kB time=12.93 bitrate=1518.5kbits/s
2012-07-07 21:17:45 SegmentedEncoder: frame= 433 fps= 20 q=28.0 size= 3077kB time=16.64 bitrate=1514.5kbits/s
2012-07-07 21:17:51 SegmentedEncoder: frame= 528 fps= 19 q=23.0 size= 3758kB time=20.60 bitrate=1494.0kbits/s
2012-07-07 21:17:56 SegmentedEncoder: frame= 619 fps= 19 q=16.0 size= 4549kB time=24.40 bitrate=1527.4kbits/s
2012-07-07 21:17:57 LiveConversion: >>
395821474B69747C697A763B5D72777E683B3363232D32475A72694D727F7E74487E696D7E69477A6D7874756D357E637E393B3636687E7C767E756F
36777E757C6F733B2F3B3636687E7C767E756F36747D7D687E6F3B2B3B36367874756D7E696872747536727F3B7D2E2A227A2C7F2D367E787F28362F
2A782D3622237D2A362B2B2A282B2A282B227E2E2D7F2F792F2A2F2F7D367A7A792B362F7D2B2836232C792D36797D2D2C7E2D237E782A78783B3636
6B74696F36756E76797E693B2F2D2D282A3B366F73697E7A7F683B2F3B3668683B2B352B3B36723B5321475F74786E767E756F7A72697E684755544D
5A354828235E2A2935535F4F4D35436D725F365D4A56357A6D723B36767A6B3B2B212B372B212B3B36767A6B3B2B212A372B212A3B366D7D3B397869
746B262D292F21282E29212B212B373B68787A777E262D292F21282E29393B367A686B7E786F3B2D292F21282E293B36623B367D3B766B7E7C6F683B
366D78747F7E783B77727963292D2F3B366D78747F7E783B77727963292D2F3B367D777A7C68293B307D7A686F3B367D777A7C683B307774746B3B36
7C3B282B3B36707E6272756F447672753B2A3B36797D3B2B3B367944686F697A6F7E7C623B2B3B3678766B3B3078736974767A3B36697E7D683B2A3B
3678747F7E693B2B3B36767E44697A757C7E3B2A2D3B36686E796A3B2E3B366B7A696F726F727475683B306B7A696F722F632F306B7A696F72236323
306B7A696F6B2363233B366F697E777772683B2B3B366878446F73697E687374777F3B2F2B3B3672446A7D7A786F74693B2B352C2A3B366A7874766B
3B2B352D3B36796E7D6872617E3B2A2B292F703B36793B2A292B2B703B36796F3B2A282B2B703B366A767A633B2F233B366A7672753B293B36693B29
2835222C2D3B367A78747F7E783B7772797D7A7A783B367A793B2A2229703B367A693B2F232B2B2B3B367A783B293B36
<<

2012-07-07 21:17:58 SegmentedEncoder: avconv version 0.8, Copyright (c) 2000-2012 the Libav developers
2012-07-07 21:17:58 SegmentedEncoder: built on Jun 16 2012 21:52:23 with gcc 4.5.2
2012-07-07 21:17:58 SegmentedEncoder: Guessed Channel Layout for Input Stream #0.1 : stereo
2012-07-07 21:17:58 SegmentedEncoder: Input #0, avi, from 'H:\Documentaires\NOVA.S38E12.HDTV.XviD-FQM.avi':
2012-07-07 21:17:58 SegmentedEncoder: Metadata:
2012-07-07 21:17:58 SegmentedEncoder: encoder : transcode-1.0.4
2012-07-07 21:17:58 SegmentedEncoder: Duration: 00:53:10.20, start: 0.000000, bitrate: 1446 kb/s
2012-07-07 21:17:58 SegmentedEncoder: Stream #0.0: Video: mpeg4 (Advanced Simple Profile), yuv420p, 624x352 [PAR 1:1 DAR 39:22], 23.98 tbn, 23.98 tbc
2012-07-07 21:17:58 SegmentedEncoder: Stream #0.1: Audio: mp3, 48000 Hz, stereo, s16, 128 kb/s
2012-07-07 21:17:58 SegmentedEncoder: [buffer @ 02b32a60] w:624 h:352 pixfmt:yuv420p
2012-07-07 21:17:58 SegmentedEncoder: [crop @ 02b32860] w:624 h:352 -> w:624 h:352
2012-07-07 21:17:58 SegmentedEncoder: [scale @ 03a10f20] w:624 h:352 fmt:yuv420p -> w:624 h:352 fmt:yuv420p flags:0x4
2012-07-07 21:17:58 SegmentedEncoder: [libx264 @ 02b331c0] VBV maxrate unspecified, assuming CBR
2012-07-07 21:17:58 SegmentedEncoder: [libx264 @ 02b331c0] using SAR=1/1
2012-07-07 21:17:58 SegmentedEncoder: [libx264 @ 02b331c0] using cpu capabilities: MMX2 SSE2Slow SlowCTZ
2012-07-07 21:17:58 SegmentedEncoder: [libx264 @ 02b331c0] profile High, level 3.0
2012-07-07 21:17:58 SegmentedEncoder: [mpegts @ 02b32b20] muxrate VBR, pcr every 2 pkts, sdt every 200, pat/pmt every 40 pkts
2012-07-07 21:17:58 SegmentedEncoder: Output #0, mpegts, to 'pipe:':
2012-07-07 21:17:58 SegmentedEncoder: Metadata:
2012-07-07 21:17:58 SegmentedEncoder: encoder : Lavf54.3.1
2012-07-07 21:17:58 SegmentedEncoder: Stream #0.0: Video: libx264, yuv420p, 624x352 [PAR 1:1 DAR 39:22], q=2-48, 1200 kb/s, 90k tbn, 23.98 tbc
2012-07-07 21:17:58 SegmentedEncoder: Stream #0.1: Audio: libfaac, 48000 Hz, stereo, s16, 192 kb/s
2012-07-07 21:17:58 SegmentedEncoder: Stream mapping:
2012-07-07 21:17:58 SegmentedEncoder: Stream #0:0 -> #0:0 (mpeg4 -> libx264)
2012-07-07 21:17:58 SegmentedEncoder: Stream #0:1 -> #0:1 (mp3 -> libfaac)
2012-07-07 21:17:58 SegmentedEncoder: Press ctrl-c to stop encoding
2012-07-07 21:17:58 SegmentedEncoder: frame= 46 fps= 0 q=15.0 size= 80kB time=0.54 bitrate=1206.6kbits/s
2012-07-07 21:18:03 SegmentedEncoder: frame= 220 fps= 39 q=27.0 size= 1402kB time=7.80 bitrate=1473.1kbits/s
2012-07-07 21:18:09 SegmentedEncoder: frame= 397 fps= 37 q=24.0 size= 2727kB time=15.18 bitrate=1471.4kbits/s
2012-07-07 21:18:14 SegmentedEncoder: frame= 602 fps= 38 q=16.0 size= 4320kB time=23.73 bitrate=1491.2kbits/s
2012-07-07 21:18:19 SegmentedEncoder: frame= 808 fps= 38 q=30.0 size= 5919kB time=32.32 bitrate=1500.0kbits/s
2012-07-07 21:18:24 SegmentedEncoder: frame= 1017 fps= 39 q=26.0 size= 7440kB time=41.04 bitrate=1485.1kbits/s
2012-07-07 21:18:29 SegmentedEncoder: frame= 1194 fps= 38 q=31.0 size= 8881kB time=48.42 bitrate=1502.4kbits/s
2012-07-07 21:18:34 SegmentedEncoder: frame= 1389 fps= 38 q=20.0 size= 10303kB time=56.56 bitrate=1492.4kbits/s
2012-07-07 21:18:39 SegmentedEncoder: frame= 1573 fps= 38 q=28.0 size= 11722kB time=64.23 bitrate=1495.1kbits/s
2012-07-07 21:18:44 SegmentedEncoder: frame= 1771 fps= 38 q=25.0 size= 13202kB time=72.49 bitrate=1491.9kbits/s
2012-07-07 21:18:50 SegmentedEncoder: frame= 1988 fps= 38 q=23.0 size= 14801kB time=81.54 bitrate=1487.0kbits/s
2012-07-07 21:18:55 SegmentedEncoder: frame= 2167 fps= 38 q=40.0 size= 16150kB time=89.01 bitrate=1486.5kbits/s
2012-07-07 21:19:00 SegmentedEncoder: frame= 2344 fps= 38 q=33.0 size= 17511kB time=96.39 bitrate=1488.3kbits/s
2012-07-07 21:19:05 SegmentedEncoder: frame= 2531 fps= 38 q=24.0 size= 18874kB time=104.19 bitrate=1484.0kbits/s
2012-07-07 21:19:10 SegmentedEncoder: frame= 2698 fps= 37 q=37.0 size= 20220kB time=111.15 bitrate=1490.2kbits/s
2012-07-07 21:19:15 SegmentedEncoder: frame= 2868 fps= 37 q=32.0 size= 21443kB time=118.24 bitrate=1485.6kbits/s
2012-07-07 21:19:21 SegmentedEncoder: frame= 3041 fps= 37 q=28.0 size= 22745kB time=125.46 bitrate=1485.2kbits/s
2012-07-07 21:19:26 SegmentedEncoder: frame= 3203 fps= 36 q=35.0 size= 24022kB time=132.22 bitrate=1488.4kbits/s
2012-07-07 21:19:31 SegmentedEncoder: frame= 3382 fps= 36 q=30.0 size= 25357kB time=139.68 bitrate=1487.1kbits/s
2012-07-07 21:19:36 SegmentedEncoder: frame= 3549 fps= 36 q=33.0 size= 26658kB time=146.65 bitrate=1489.2kbits/s
2012-07-07 21:19:42 SegmentedEncoder: frame= 3693 fps= 35 q=34.0 size= 27710kB time=152.65 bitrate=1487.1kbits/s
2012-07-07 21:19:47 SegmentedEncoder: frame= 3849 fps= 35 q=27.0 size= 28947kB time=159.16 bitrate=1489.9kbits/s
2012-07-07 21:19:55 SegmentedEncoder: frame= 4004 fps= 34 q=25.0 size= 30021kB time=165.62 bitrate=1484.9kbits/s
2012-07-07 21:20:01 SegmentedEncoder: frame= 4171 fps= 34 q=34.0 size= 31288kB time=172.59 bitrate=1485.1kbits/s
2012-07-07 21:20:07 SegmentedEncoder: frame= 4326 fps= 33 q=23.0 size= 32448kB time=179.05 bitrate=1484.5kbits/s
2012-07-07 21:20:14 SegmentedEncoder: frame= 4505 fps= 33 q=29.0 size= 33836kB time=186.52 bitrate=1486.1kbits/s
2012-07-07 21:20:23 SegmentedEncoder: frame= 4692 fps= 32 q=30.0 size= 35341kB time=194.32 bitrate=1489.9kbits/s
2012-07-07 21:20:30 SegmentedEncoder: frame= 4873 fps= 32 q=29.0 size= 36686kB time=201.87 bitrate=1488.7kbits/s
2012-07-07 21:20:39 SegmentedEncoder: frame= 5078 fps= 32 q=28.0 size= 38199kB time=210.42 bitrate=1487.2kbits/s
2012-07-07 21:20:46 SegmentedEncoder: frame= 5246 fps= 31 q=33.0 size= 39490kB time=217.43 bitrate=1487.9kbits/s
2012-07-07 21:20:53 SegmentedEncoder: frame= 5418 fps= 31 q=27.0 size= 40775kB time=224.60 bitrate=1487.2kbits/s
2012-07-07 21:21:00 SegmentedEncoder: frame= 5581 fps= 31 q=21.0 size= 41964kB time=231.40 bitrate=1485.6kbits/s
2012-07-07 21:21:07 SegmentedEncoder: frame= 5750 fps= 30 q=23.0 size= 43255kB time=238.45 bitrate=1486.1kbits/s
2012-07-07 21:21:14 SegmentedEncoder: frame= 5905 fps= 30 q=24.0 size= 44492kB time=244.91 bitrate=1488.2kbits/s
2012-07-07 21:21:22 SegmentedEncoder: frame= 6101 fps= 30 q=25.0 size= 45976kB time=253.09 bitrate=1488.2kbits/s
2012-07-07 21:21:30 SegmentedEncoder: frame= 6292 fps= 30 q=23.0 size= 47424kB time=261.05 bitrate=1488.2kbits/s
2012-07-07 21:21:36 SegmentedEncoder: frame= 6448 fps= 29 q=24.0 size= 48624kB time=267.56 bitrate=1488.7kbits/s
 Filename log.txt [Disk] Download
 Description Log
 Filesize 32 Kbytes
 Downloaded:  2154 time(s)

Admin



Joined: 08/23/2009 08:49:34
Messages: 8705
Offline

IllusionKH wrote:
Admin wrote:
IllusionKH wrote:Hi,

Since the new version the audio crackles when playing video.

Any idea?

- reinstalled the server software
- reinstalled the client on the iPad (3)
- rebooted the iPad

... to no effect.

For the moment, I reverted back to the older version (2.4.5 b6)...

Thanks in advance!

Does this happen with all videos? Is it consistently reproducible? Can you post here live conversion log?


Hi,

Strangely, it appears that it only happens when I play avi files (tested 3 files) but when playing mkv or mp4 files the audio is ok.

Log:
...


I've sent you a PM.
reedl



Joined: 05/01/2011 23:14:26
Messages: 41
Offline

Admin wrote:I'm pleased to announce that new Air Video Server version is available.

You can download it... (snip)

This version still does not work with 3:2 pulldown ripped video ripped using Magic DVD ripper. This problem was introduced with Beta 6 of the previous version.

I have plenty of processor Horsepower, 35 mbits/sec wifi connectivity, and when I use Beta 5, it works perfectly.

I can supply another example video file for you if that would help (I supplied one before)

Thanks,
Reed
Admin



Joined: 08/23/2009 08:49:34
Messages: 8705
Offline

reedl wrote:
Admin wrote:I'm pleased to announce that new Air Video Server version is available.

You can download it... (snip)

This version still does not work with 3:2 pulldown ripped video ripped using Magic DVD ripper. This problem was introduced with Beta 6 of the previous version.

I have plenty of processor Horsepower, 35 mbits/sec wifi connectivity, and when I use Beta 5, it works perfectly.

I can supply another example video file for you if that would help (I supplied one before)

Thanks,
Reed

Hi, was video was an mpeg program stream (.ps)?
reedl



Joined: 05/01/2011 23:14:26
Messages: 41
Offline

Admin wrote:Hi, was video was an mpeg program stream (.ps)?

The file is a .mpg file which has embedded a video and audio stream.

I can give you an FTP server (via PM) to download a short example file if you wish. I previously supplied a file to you. Do you still have it?
Admin



Joined: 08/23/2009 08:49:34
Messages: 8705
Offline

reedl wrote:
Admin wrote:Hi, was video was an mpeg program stream (.ps)?

The file is a .mpg file which has embedded a video and audio stream.

I can give you an FTP server (via PM) to download a short example file if you wish. I previously supplied a file to you. Do you still have it?

Sorry, I meant mpg of course. Sent you a PM.
qiqiji



Joined: 07/10/2012 10:49:27
Messages: 2
Offline

Wow! H.264 Passthrough support ! Great job!

Finaly, video stream doesn't have to be encoded a second time, but i'm wondering about the subtitles (.srt), will they be handled properly?
Admin



Joined: 08/23/2009 08:49:34
Messages: 8705
Offline

Subtitles will not be displayed during passthrough. This should be properly addressed once next iOS version is out though (can't say more at this point)
qiqiji



Joined: 07/10/2012 10:49:27
Messages: 2
Offline

Admin wrote:Subtitles will not be displayed during passthrough. This should be properly addressed once next iOS version is out though (can't say more at this point)


i used to encode some movies with Handbrake, intergred .srt subtitle (not encode into the picture itself, just package into the mp4 file), and iPhone's Video App can play it, and display subtitle, so the only probolem is apple did not allow 3rd party Apps to do so?
 
Forum Index » Air Video Announcements
Go to:   
Powered by JForum 2.1.8 © JForum Team