[Logo] Air Video Forum
  [Search] Search   [Recent Topics] Recent Topics   [Hottest Topics] Hottest Topics   [Members]  Member Listing   [Groups] Back to home page 
[Moderation Log] Moderation Log   [Register] Register / 
[Login] Login 
Choppy Playback on from iPad Mini to Apple TV  XML
Forum Index » Air Video Problems and Solutions
Author Message
macman104



Joined: 12/01/2012 23:21:10
Messages: 25
Offline

I have a 3rd Gen Apple TV which is connected to a 1Gbit switch. Airplaying via my iPad mini causes lots of stuttering, even when doing live conversion at 256Kb/sec bitrate. I can take it off airplay and have it play just fine on my ipad mini even up to 1024Kb/sec.

The file is a 1080p video, 1726MB in size.

Any ideas on the cause?
Admin



Joined: 08/23/2009 08:49:34
Messages: 8705
Offline

Can you post here the live conversion log?
macman104



Joined: 12/01/2012 23:21:10
Messages: 25
Offline

The dallas video is the one that was playing choppy on the appleTV

2013-04-23 12:36:39 SegmentedEncoder: frame= 938 fps= 36 q=26.0 size= 1346kB time=32.53 bitrate= 339.0kbits/s
2013-04-23 12:36:44 SegmentedEncoder: frame= 1133 fps= 36 q=29.0 size= 1639kB time=40.67 bitrate= 330.1kbits/s
2013-04-23 12:36:49 SegmentedEncoder: frame= 1324 fps= 36 q=29.0 size= 1939kB time=48.63 bitrate= 326.6kbits/s
2013-04-23 12:36:55 SegmentedEncoder: frame= 1517 fps= 36 q=31.0 size= 2253kB time=56.68 bitrate= 325.6kbits/s
2013-04-23 12:37:00 SegmentedEncoder: frame= 1702 fps= 36 q=31.0 size= 2522kB time=64.40 bitrate= 320.8kbits/s
2013-04-23 12:37:05 SegmentedEncoder: frame= 1900 fps= 37 q=29.0 size= 2793kB time=72.66 bitrate= 314.9kbits/s
2013-04-23 12:37:10 SegmentedEncoder: frame= 2078 fps= 36 q=28.0 size= 3048kB time=80.08 bitrate= 311.8kbits/s
2013-04-23 12:37:15 SegmentedEncoder: frame= 2306 fps= 37 q=43.0 size= 3429kB time=89.59 bitrate= 313.6kbits/s
2013-04-23 12:37:20 SegmentedEncoder: frame= 2526 fps= 37 q=39.0 size= 3750kB time=98.77 bitrate= 311.0kbits/s
2013-04-23 12:37:25 SegmentedEncoder: frame= 2736 fps= 38 q=36.0 size= 4061kB time=107.53 bitrate= 309.4kbits/s
2013-04-23 12:37:31 SegmentedEncoder: frame= 2940 fps= 38 q=36.0 size= 4363kB time=116.04 bitrate= 308.0kbits/s
2013-04-23 12:37:36 SegmentedEncoder: frame= 3126 fps= 38 q=37.0 size= 4642kB time=123.80 bitrate= 307.2kbits/s
2013-04-23 12:37:41 SegmentedEncoder: frame= 3318 fps= 38 q=37.0 size= 4926kB time=131.80 bitrate= 306.1kbits/s
2013-04-23 12:37:49 SegmentedEncoder: frame= 3519 fps= 37 q=37.0 size= 5220kB time=140.19 bitrate= 305.0kbits/s
2013-04-23 12:37:54 SegmentedEncoder: frame= 3732 fps= 37 q=31.0 size= 5510kB time=149.07 bitrate= 302.8kbits/s
2013-04-23 12:38:03 SegmentedEncoder: frame= 3923 fps= 36 q=36.0 size= 5790kB time=157.04 bitrate= 302.0kbits/s
2013-04-23 12:38:12 SegmentedEncoder: frame= 4125 fps= 35 q=35.0 size= 6089kB time=165.46 bitrate= 301.5kbits/s
2013-04-23 12:38:19 LiveConversion: >>
395821474B69747C697A763B5D72777E683B3363232D32475A72694D727F7E74487E696D7E69477A6D7874756D357E637E393B3636687E7C767E756F
36777E757C6F733B2A2B3B3636687E7C767E756F36747D7D687E6F3B292C2B3B36367874756D7E696872747536727F3B23222C797A232C2B362A7E79
78362F232A2E36792E2B2C367E7E78232C2A2A2E2D2E792B2D222C23232C2E2F362E282E22362F7F787836792E7F78362B7A2B2D2A227E2879787F7D
3B36366B74696F36756E76797E693B2F2D2D282A3B366F73697E7A7F683B2F3B3668683B292C2B352B3B36723B39422147567E7F727A474F4D3B4873
746C6847487E69727E683B4873746C68475F697A767A47486E726F6847487E7A6874753B2A472A2B2E3B363B597A72773B546E6F3576706D393B3676
7A6B3B2B212B372B212B3B36767A6B3B2B212A372B212A3B366D7D3B397869746B262A29232B212C292B212B212B373B68787A777E262F2D2921292D
2B3778746B62393B367A686B7E786F3B2F2D2921292D2B3B36623B367D3B766B7E7C6F683B367A686275783B362A3B366D78747F7E783B7772796329
2D2F3B366D78747F7E783B77727963292D2F3B367D777A7C68293B307D7A686F3B367D777A7C683B307774746B3B367C3B282B3B36707E6272756F44
7672753B2A3B36797D3B2B3B367944686F697A6F7E7C623B2B3B3678766B3B3078736974767A3B36697E7D683B2A3B3678747F7E693B2B3B36767E44
697A757C7E3B2A2D3B36686E796A3B2F3B366B7A696F726F727475683B306B7A696F722F632F306B7A696F72236323306B7A696F6B2363233B366F69
7E777772683B2B3B366878446F73697E687374777F3B2F2B3B3672446A7D7A786F74693B2B352C2A3B366A7874766B3B2B352D3B36796E7D6872617E
3B2A2B292F703B36793B292C2B703B36796F3B282B2B703B366A767A633B2F233B366A7672753B293B36693B292835222C2E3B367A78747F7E783B77
7279766B28777A767E3B367A793B2D2F703B367A693B2F232B2B2B3B367A783B293B36
<<

2013-04-23 12:38:20 SegmentedEncoder: avconv version 0.8, Copyright (c) 2000-2012 the Libav developers
2013-04-23 12:38:20 SegmentedEncoder: built on Jul 20 2012 01:21:49 with gcc 4.5.2
2013-04-23 12:38:20 SegmentedEncoder: Input #0, matroska,webm, from 'Y:\Media\TV Shows\Series Shows\Drama\Suits\Season 1\105 - Bail Out.mkv':
2013-04-23 12:38:20 SegmentedEncoder: Duration: 00:41:23.52, start: 0.000000, bitrate: N/A
2013-04-23 12:38:20 SegmentedEncoder: Stream #0.0: Video: h264 (High), yuv420p, 1280x720, PAR 1:1 DAR 16:9, 23.98 fps, 23.98 tbr, 1k tbn, 47.95 tbc (default)
2013-04-23 12:38:20 SegmentedEncoder: Stream #0.1(eng): Audio: ac3, 48000 Hz, 5.1, s16, 384 kb/s (default)
2013-04-23 12:38:20 SegmentedEncoder: Metadata:
2013-04-23 12:38:20 SegmentedEncoder: title : English
2013-04-23 12:38:20 SegmentedEncoder: [libx264 @ 03864880] VBV maxrate unspecified, assuming CBR
2013-04-23 12:38:20 SegmentedEncoder: [libx264 @ 03864880] using SAR=1/1
2013-04-23 12:38:20 SegmentedEncoder: [libx264 @ 03864880] using cpu capabilities: MMX2 SSE2Fast SSSE3 FastShuffle Cache64
2013-04-23 12:38:20 SegmentedEncoder: [libx264 @ 03864880] profile High, level 2.1
2013-04-23 12:38:20 SegmentedEncoder: [mpegts @ 03aec820] muxrate VBR, pcr every 2 pkts, sdt every 200, pat/pmt every 40 pkts
2013-04-23 12:38:20 SegmentedEncoder: Output #0, mpegts, to 'pipe:':
2013-04-23 12:38:20 SegmentedEncoder: Metadata:
2013-04-23 12:38:20 SegmentedEncoder: encoder : Lavf54.9.0
2013-04-23 12:38:20 SegmentedEncoder: Stream #0.0: Video: libx264, yuv420p, 462x260 [PAR 1:1 DAR 231:130], q=2-48, 270 kb/s, 90k tbn, 23.98 tbc (default)
2013-04-23 12:38:20 SegmentedEncoder: Stream #0.1(eng): Audio: libmp3lame, 48000 Hz, stereo, s16, 64 kb/s (default)
2013-04-23 12:38:20 SegmentedEncoder: Metadata:
2013-04-23 12:38:20 SegmentedEncoder: title : English
2013-04-23 12:38:20 SegmentedEncoder: Stream mapping:
2013-04-23 12:38:20 SegmentedEncoder: Stream #0:0 -> #0:0 (h264 -> libx264)
2013-04-23 12:38:20 SegmentedEncoder: Stream #0:1 -> #0:1 (ac3 -> libmp3lame)
2013-04-23 12:38:20 SegmentedEncoder: Press ctrl-c to stop encoding
2013-04-23 12:38:20 SegmentedEncoder: [libx264 @ 03864880] non-strictly-monotonic PTS
2013-04-23 12:38:20 SegmentedEncoder: frame= 18 fps= 0 q=0.0 size= 0kB time=10000000000.00 bitrate= 0.0kbits/s
2013-04-23 12:38:26 SegmentedEncoder: frame= 202 fps= 35 q=34.0 size= 326kB time=0.21 bitrate=12822.1kbits/s
2013-04-23 12:38:31 SegmentedEncoder: frame= 388 fps= 36 q=34.0 size= 687kB time=7.97 bitrate= 706.3kbits/s
2013-04-23 12:38:36 SegmentedEncoder: frame= 580 fps= 36 q=31.0 size= 1060kB time=15.97 bitrate= 543.7kbits/s
2013-04-23 12:38:41 SegmentedEncoder: frame= 774 fps= 36 q=34.0 size= 1470kB time=24.07 bitrate= 500.3kbits/s
2013-04-23 12:38:46 SegmentedEncoder: frame= 977 fps= 37 q=32.0 size= 1868kB time=32.53 bitrate= 470.4kbits/s
2013-04-23 12:38:51 SegmentedEncoder: frame= 1165 fps= 37 q=33.0 size= 2241kB time=40.38 bitrate= 454.7kbits/s
2013-04-23 12:38:57 SegmentedEncoder: frame= 1337 fps= 36 q=39.0 size= 2580kB time=47.55 bitrate= 444.5kbits/s
2013-04-23 12:38:59 LiveConversion: >>
395821474B69747C697A763B5D72777E683B3363232D32475A72694D727F7E74487E696D7E69477A6D7874756D357E637E393B3636687E7C767E756F
36777E757C6F733B2A2B3B3636687E7C767E756F36747D7D687E6F3B29222B3B36367874756D7E696872747536727F3B23222C797A232C2B362A7E79
78362F232A2E36792E2B2C367E7E78232C2A2A2E2D2E792B23237F2B2A2C782D367D232D7F362F79792E36227D2C23362F2D2E232B292F7D232B7E22
3B36366B74696F36756E76797E693B2F2D2D282A3B366F73697E7A7F683B2F3B3668683B29222B352B3B36723B39422147567E7F727A474F4D3B4873
746C6847487E69727E683B4873746C68475F697A767A47486E726F6847487E7A6874753B2A472A2B2E3B363B597A72773B546E6F3576706D393B3676
7A6B3B2B212B372B212B3B36767A6B3B2B212A372B212A3B366D7D3B397869746B262A29232B212C292B212B212B373B68787A777E262F2B23212928
2B3778746B62393B367A686B7E786F3B2F2B232129282B3B36623B367D3B766B7E7C6F683B367A686275783B362A3B366D78747F7E783B7772796329
2D2F3B366D78747F7E783B77727963292D2F3B367D777A7C68293B307D7A686F3B367D777A7C683B307774746B3B367C3B282B3B36707E6272756F44
7672753B2A3B36797D3B2B3B367944686F697A6F7E7C623B2B3B3678766B3B3078736974767A3B36697E7D683B2A3B3678747F7E693B2B3B36767E44
697A757C7E3B2A2D3B36686E796A3B2F3B366B7A696F726F727475683B306B7A696F722F632F306B7A696F72236323306B7A696F6B2363233B366F69
7E777772683B2B3B366878446F73697E687374777F3B2F2B3B3672446A7D7A786F74693B2B352C2A3B366A7874766B3B2B352D3B36796E7D6872617E
3B2A2B292F703B36793B292B2B703B36796F3B29292B703B366A767A633B2F233B366A7672753B293B36693B292835222C2E3B367A78747F7E783B77
7279766B28777A767E3B367A793B2F23703B367A693B2F232B2B2B3B367A783B293B36
<<

2013-04-23 12:38:59 SegmentedEncoder: avconv version 0.8, Copyright (c) 2000-2012 the Libav developers
2013-04-23 12:38:59 SegmentedEncoder: built on Jul 20 2012 01:21:49 with gcc 4.5.2
2013-04-23 12:38:59 SegmentedEncoder: Input #0, matroska,webm, from 'Y:\Media\TV Shows\Series Shows\Drama\Suits\Season 1\105 - Bail Out.mkv':
2013-04-23 12:38:59 SegmentedEncoder: Duration: 00:41:23.52, start: 0.000000, bitrate: N/A
2013-04-23 12:38:59 SegmentedEncoder: Stream #0.0: Video: h264 (High), yuv420p, 1280x720, PAR 1:1 DAR 16:9, 23.98 fps, 23.98 tbr, 1k tbn, 47.95 tbc (default)
2013-04-23 12:38:59 SegmentedEncoder: Stream #0.1(eng): Audio: ac3, 48000 Hz, 5.1, s16, 384 kb/s (default)
2013-04-23 12:38:59 SegmentedEncoder: Metadata:
2013-04-23 12:38:59 SegmentedEncoder: title : English
2013-04-23 12:38:59 SegmentedEncoder: [libx264 @ 03884880] VBV maxrate unspecified, assuming CBR
2013-04-23 12:38:59 SegmentedEncoder: [libx264 @ 03884880] using SAR=1/1
2013-04-23 12:38:59 SegmentedEncoder: [libx264 @ 03884880] using cpu capabilities: MMX2 SSE2Fast SSSE3 FastShuffle Cache64
2013-04-23 12:38:59 SegmentedEncoder: [libx264 @ 03884880] profile High, level 1.3
2013-04-23 12:38:59 SegmentedEncoder: [mpegts @ 03b0c820] muxrate VBR, pcr every 2 pkts, sdt every 200, pat/pmt every 40 pkts
2013-04-23 12:38:59 SegmentedEncoder: Output #0, mpegts, to 'pipe:':
2013-04-23 12:38:59 SegmentedEncoder: Metadata:
2013-04-23 12:38:59 SegmentedEncoder: encoder : Lavf54.9.0
2013-04-23 12:38:59 SegmentedEncoder: Stream #0.0: Video: libx264, yuv420p, 408x230 [PAR 1:1 DAR 204:115], q=2-48, 200 kb/s, 90k tbn, 23.98 tbc (default)
2013-04-23 12:38:59 SegmentedEncoder: Stream #0.1(eng): Audio: libmp3lame, 48000 Hz, stereo, s16, 48 kb/s (default)
2013-04-23 12:38:59 SegmentedEncoder: Metadata:
2013-04-23 12:38:59 SegmentedEncoder: title : English
2013-04-23 12:38:59 SegmentedEncoder: Stream mapping:
2013-04-23 12:38:59 SegmentedEncoder: Stream #0:0 -> #0:0 (h264 -> libx264)
2013-04-23 12:38:59 SegmentedEncoder: Stream #0:1 -> #0:1 (ac3 -> libmp3lame)
2013-04-23 12:38:59 SegmentedEncoder: Press ctrl-c to stop encoding
2013-04-23 12:38:59 SegmentedEncoder: [libx264 @ 03884880] non-strictly-monotonic PTS
2013-04-23 12:38:59 SegmentedEncoder: frame= 20 fps= 0 q=0.0 size= 0kB time=0.87 bitrate= 0.0kbits/s
2013-04-23 12:39:05 SegmentedEncoder: frame= 227 fps= 40 q=36.0 size= 289kB time=7.38 bitrate= 321.1kbits/s
2013-04-23 12:39:08 SegmentedEncoder: frame=15188 fps= 10 q=25.0 size= 116875kB time=632.05 bitrate=1514.8kbits/s
2013-04-23 12:39:10 SegmentedEncoder: frame= 411 fps= 38 q=35.0 size= 562kB time=15.06 bitrate= 305.9kbits/s
2013-04-23 12:39:14 SegmentedEncoder: frame=15241 fps= 10 q=25.0 size= 117292kB time=634.26 bitrate=1514.9kbits/s
2013-04-23 12:39:15 SegmentedEncoder: frame= 523 fps= 32 q=35.0 size= 741kB time=19.73 bitrate= 307.5kbits/s
2013-04-23 12:39:20 SegmentedEncoder: frame=15299 fps= 10 q=24.0 size= 117710kB time=636.68 bitrate=1514.6kbits/s
2013-04-23 12:39:21 SegmentedEncoder: frame= 608 fps= 28 q=34.0 size= 876kB time=23.27 bitrate= 308.5kbits/s
2013-04-23 12:39:26 SegmentedEncoder: frame=15354 fps= 10 q=25.0 size= 118155kB time=638.97 bitrate=1514.8kbits/s
2013-04-23 12:39:26 SegmentedEncoder: frame= 702 fps= 26 q=39.0 size= 1025kB time=27.20 bitrate= 308.7kbits/s
2013-04-23 12:39:31 SegmentedEncoder: frame=15410 fps= 10 q=24.0 size= 118606kB time=641.31 bitrate=1515.1kbits/s
2013-04-23 12:39:32 SegmentedEncoder: frame= 800 fps= 24 q=39.0 size= 1183kB time=31.28 bitrate= 309.9kbits/s
2013-04-23 12:39:37 SegmentedEncoder: frame=15460 fps= 10 q=27.0 size= 118973kB time=643.39 bitrate=1514.8kbits/s
2013-04-23 12:39:37 SegmentedEncoder: frame= 880 fps= 23 q=38.0 size= 1297kB time=34.62 bitrate= 307.0kbits/s
2013-04-23 12:39:43 SegmentedEncoder: frame= 974 fps= 22 q=37.0 size= 1444kB time=38.54 bitrate= 306.9kbits/s
2013-04-23 12:39:43 SegmentedEncoder: frame=15509 fps= 10 q=30.0 size= 119371kB time=645.44 bitrate=1515.1kbits/s
2013-04-23 12:39:48 SegmentedEncoder: frame= 1068 fps= 22 q=39.0 size= 1579kB time=42.46 bitrate= 304.6kbits/s
2013-04-23 12:39:49 SegmentedEncoder: frame=15557 fps= 10 q=29.0 size= 119758kB time=647.44 bitrate=1515.3kbits/s
2013-04-23 12:39:54 SegmentedEncoder: frame= 1152 fps= 21 q=41.0 size= 1711kB time=45.96 bitrate= 304.9kbits/s
2013-04-23 12:39:55 SegmentedEncoder: frame=15615 fps= 10 q=27.0 size= 120173kB time=649.86 bitrate=1514.9kbits/s
2013-04-23 12:40:00 SegmentedEncoder: frame= 1245 fps= 21 q=36.0 size= 1842kB time=49.84 bitrate= 302.7kbits/s
2013-04-23 12:40:01 SegmentedEncoder: frame=15673 fps= 10 q=26.0 size= 120575kB time=652.28 bitrate=1514.3kbits/s
2013-04-23 12:40:05 SegmentedEncoder: frame= 1341 fps= 20 q=38.0 size= 1981kB time=53.85 bitrate= 301.4kbits/s
2013-04-23 12:40:07 SegmentedEncoder: frame=15727 fps= 10 q=26.0 size= 121030kB time=654.53 bitrate=1514.8kbits/s
2013-04-23 12:40:10 SegmentedEncoder: frame= 1441 fps= 20 q=38.0 size= 2120kB time=58.02 bitrate= 299.4kbits/s
2013-04-23 12:40:13 SegmentedEncoder: frame=15786 fps= 10 q=25.0 size= 121476kB time=656.99 bitrate=1514.7kbits/s
2013-04-23 12:40:16 SegmentedEncoder: frame= 1544 fps= 20 q=37.0 size= 2275kB time=62.31 bitrate= 299.1kbits/s
2013-04-23 12:40:19 SegmentedEncoder: frame=15834 fps= 10 q=27.0 size= 121895kB time=658.99 bitrate=1515.3kbits/s
2013-04-23 12:40:21 SegmentedEncoder: frame= 1671 fps= 20 q=32.0 size= 2442kB time=67.61 bitrate= 295.9kbits/s
2013-04-23 12:40:25 SegmentedEncoder: frame=15889 fps= 10 q=26.0 size= 122297kB time=661.29 bitrate=1515.0kbits/s
2013-04-23 12:40:27 SegmentedEncoder: frame= 1752 fps= 20 q=36.0 size= 2572kB time=70.99 bitrate= 296.8kbits/s
2013-04-23 12:40:31 SegmentedEncoder: frame=15942 fps= 10 q=26.0 size= 122725kB time=663.50 bitrate=1515.2kbits/s
2013-04-23 12:40:33 SegmentedEncoder: frame= 1836 fps= 20 q=36.0 size= 2722kB time=74.49 bitrate= 299.4kbits/s
2013-04-23 12:40:36 SegmentedEncoder: frame=16002 fps= 10 q=22.0 size= 123136kB time=666.00 bitrate=1514.6kbits/s
2013-04-23 12:40:39 SegmentedEncoder: frame= 1932 fps= 19 q=36.0 size= 2849kB time=78.50 bitrate= 297.3kbits/s
2013-04-23 12:40:42 SegmentedEncoder: frame=16053 fps= 10 q=25.0 size= 123561kB time=668.13 bitrate=1515.0kbits/s
2013-04-23 12:40:44 SegmentedEncoder: frame= 2028 fps= 19 q=36.0 size= 2966kB time=82.50 bitrate= 294.5kbits/s
2013-04-23 12:40:48 SegmentedEncoder: frame=16112 fps= 10 q=25.0 size= 124043kB time=670.59 bitrate=1515.3kbits/s
2013-04-23 12:40:49 SegmentedEncoder: frame= 2139 fps= 19 q=30.0 size= 3139kB time=87.13 bitrate= 295.1kbits/s
2013-04-23 12:40:54 SegmentedEncoder: frame=16171 fps= 10 q=24.0 size= 124503kB time=673.05 bitrate=1515.4kbits/s
2013-04-23 12:40:55 SegmentedEncoder: frame= 2252 fps= 19 q=27.0 size= 3317kB time=91.85 bitrate= 295.9kbits/s
2013-04-23 12:40:59 SegmentedEncoder: frame=16228 fps= 10 q=22.0 size= 124954kB time=675.43 bitrate=1515.5kbits/s
2013-04-23 12:41:00 SegmentedEncoder: frame= 2356 fps= 19 q=32.0 size= 3463kB time=96.18 bitrate= 294.9kbits/s
2013-04-23 12:41:05 SegmentedEncoder: frame=16286 fps= 10 q=24.0 size= 125360kB time=677.84 bitrate=1515.0kbits/s
2013-04-23 12:41:06 SegmentedEncoder: frame= 2455 fps= 19 q=34.0 size= 3620kB time=100.31 bitrate= 295.6kbits/s
2013-04-23 12:41:11 SegmentedEncoder: frame=16340 fps= 10 q=24.0 size= 125828kB time=680.10 bitrate=1515.6kbits/s
2013-04-23 12:41:11 SegmentedEncoder: frame= 2558 fps= 19 q=35.0 size= 3807kB time=104.61 bitrate= 298.1kbits/s
2013-04-23 12:41:17 SegmentedEncoder: frame=16397 fps= 10 q=24.0 size= 126236kB time=682.47 bitrate=1515.3kbits/s
2013-04-23 12:41:17 SegmentedEncoder: frame= 2654 fps= 19 q=37.0 size= 3943kB time=108.61 bitrate= 297.4kbits/s
2013-04-23 12:41:22 SegmentedEncoder: frame= 2760 fps= 19 q=36.0 size= 4099kB time=113.03 bitrate= 297.1kbits/s
2013-04-23 12:41:23 SegmentedEncoder: frame=16448 fps= 10 q=23.0 size= 126651kB time=684.60 bitrate=1515.5kbits/s
2013-04-23 12:41:28 SegmentedEncoder: frame= 2881 fps= 19 q=35.0 size= 4274kB time=118.08 bitrate= 296.5kbits/s
2013-04-23 12:41:29 SegmentedEncoder: frame=16499 fps= 10 q=25.0 size= 127058kB time=686.73 bitrate=1515.7kbits/s
2013-04-23 12:41:33 SegmentedEncoder: frame= 2995 fps= 19 q=30.0 size= 4422kB time=122.84 bitrate= 294.9kbits/s
2013-04-23 12:41:35 SegmentedEncoder: frame=16555 fps= 10 q=34.0 size= 127495kB time=689.06 bitrate=1515.7kbits/s
2013-04-23 12:41:39 SegmentedEncoder: frame= 3087 fps= 19 q=30.0 size= 4560kB time=126.67 bitrate= 294.9kbits/s
2013-04-23 12:41:41 SegmentedEncoder: frame=16612 fps= 10 q=32.0 size= 127965kB time=691.44 bitrate=1516.1kbits/s
2013-04-23 12:41:44 SegmentedEncoder: frame= 3197 fps= 19 q=33.0 size= 4742kB time=131.26 bitrate= 295.9kbits/s
2013-04-23 12:41:47 SegmentedEncoder: frame=16673 fps= 10 q=23.0 size= 128351kB time=693.99 bitrate=1515.1kbits/s
2013-04-23 12:41:50 SegmentedEncoder: frame= 3319 fps= 19 q=25.0 size= 4891kB time=136.35 bitrate= 293.8kbits/s
2013-04-23 12:41:54 SegmentedEncoder: frame=16721 fps= 10 q=27.0 size= 128702kB time=695.99 bitrate=1514.9kbits/s
2013-04-23 12:41:55 SegmentedEncoder: frame= 3419 fps= 19 q=34.0 size= 5089kB time=140.52 bitrate= 296.7kbits/s
2013-04-23 12:41:59 SegmentedEncoder: frame=16774 fps= 10 q=28.0 size= 129105kB time=698.20 bitrate=1514.8kbits/s
2013-04-23 12:42:01 SegmentedEncoder: frame= 3522 fps= 19 q=34.0 size= 5244kB time=144.82 bitrate= 296.6kbits/s
2013-04-23 12:42:05 SegmentedEncoder: frame=16828 fps= 10 q=22.0 size= 129547kB time=700.45 bitrate=1515.1kbits/s
2013-04-23 12:42:07 SegmentedEncoder: frame= 3617 fps= 19 q=33.0 size= 5383kB time=148.78 bitrate= 296.4kbits/s
2013-04-23 12:42:11 SegmentedEncoder: frame=16885 fps= 10 q=23.0 size= 129982kB time=702.83 bitrate=1515.0kbits/s
2013-04-23 12:42:12 SegmentedEncoder: frame= 3731 fps= 19 q=35.0 size= 5559kB time=153.53 bitrate= 296.6kbits/s
2013-04-23 12:42:17 SegmentedEncoder: frame=16945 fps= 10 q=26.0 size= 130447kB time=705.33 bitrate=1515.1kbits/s
2013-04-23 12:42:17 SegmentedEncoder: frame= 3825 fps= 19 q=34.0 size= 5693kB time=157.46 bitrate= 296.2kbits/s
2013-04-23 12:42:23 SegmentedEncoder: frame=16994 fps= 10 q=29.0 size= 130866kB time=707.37 bitrate=1515.5kbits/s
2013-04-23 12:42:23 SegmentedEncoder: frame= 3934 fps= 19 q=34.0 size= 5856kB time=162.00 bitrate= 296.1kbits/s
2013-04-23 12:42:29 SegmentedEncoder: frame=17067 fps= 10 q=22.0 size= 131361kB time=710.42 bitrate=1514.8kbits/s
2013-04-23 12:42:29 SegmentedEncoder: frame= 4007 fps= 19 q=35.0 size= 5966kB time=165.05 bitrate= 296.1kbits/s
2013-04-23 12:42:35 SegmentedEncoder: frame=17122 fps= 10 q=20.0 size= 131781kB time=712.71 bitrate=1514.7kbits/s
2013-04-23 12:42:35 SegmentedEncoder: frame= 4124 fps= 19 q=33.0 size= 6108kB time=169.93 bitrate= 294.5kbits/s
2013-04-23 12:42:40 SegmentedEncoder: frame= 4232 fps= 19 q=25.0 size= 6255kB time=174.43 bitrate= 293.8kbits/s
2013-04-23 12:42:40 SegmentedEncoder: frame=17183 fps= 10 q=21.0 size= 132249kB time=715.26 bitrate=1514.7kbits/s
2013-04-23 12:42:46 SegmentedEncoder: frame=17237 fps= 10 q=22.0 size= 132663kB time=717.51 bitrate=1514.7kbits/s
2013-04-23 12:42:46 SegmentedEncoder: frame= 4359 fps= 19 q=26.0 size= 6443kB time=179.73 bitrate= 293.7kbits/s
2013-04-23 12:42:51 SegmentedEncoder: frame= 4491 fps= 19 q=27.0 size= 6647kB time=185.23 bitrate= 294.0kbits/s
2013-04-23 12:42:51 SegmentedEncoder: frame=17291 fps= 10 q=24.0 size= 133126kB time=719.76 bitrate=1515.2kbits/s
2013-04-23 12:42:57 SegmentedEncoder: frame= 4626 fps= 19 q=23.0 size= 6852kB time=190.87 bitrate= 294.1kbits/s
2013-04-23 12:42:57 SegmentedEncoder: frame=17347 fps= 10 q=23.0 size= 133574kB time=722.10 bitrate=1515.4kbits/s
2013-04-23 12:43:02 SegmentedEncoder: frame= 4749 fps= 20 q=29.0 size= 7041kB time=196.00 bitrate= 294.3kbits/s
2013-04-23 12:43:03 SegmentedEncoder: frame=17397 fps= 10 q=24.0 size= 133950kB time=724.18 bitrate=1515.2kbits/s
2013-04-23 12:43:07 SegmentedEncoder: frame= 4871 fps= 20 q=34.0 size= 7264kB time=201.08 bitrate= 295.9kbits/s
2013-04-23 12:43:09 SegmentedEncoder: frame=17455 fps= 10 q=23.0 size= 134399kB time=726.60 bitrate=1515.3kbits/s
2013-04-23 12:43:13 SegmentedEncoder: frame= 4991 fps= 20 q=29.0 size= 7412kB time=206.09 bitrate= 294.6kbits/s
2013-04-23 12:43:15 SegmentedEncoder: frame=17509 fps= 10 q=23.0 size= 134826kB time=728.85 bitrate=1515.4kbits/s
2013-04-23 12:43:18 SegmentedEncoder: frame= 5091 fps= 20 q=31.0 size= 7582kB time=210.26 bitrate= 295.4kbits/s
2013-04-23 12:43:21 SegmentedEncoder: frame=17562 fps= 10 q=24.0 size= 135234kB time=731.06 bitrate=1515.4kbits/s
2013-04-23 12:43:24 SegmentedEncoder: frame= 5209 fps= 20 q=36.0 size= 7759kB time=215.18 bitrate= 295.4kbits/s
2013-04-23 12:43:27 SegmentedEncoder: frame=17617 fps= 10 q=23.0 size= 135701kB time=733.36 bitrate=1515.9kbits/s
2013-04-23 12:43:30 SegmentedEncoder: frame= 5315 fps= 20 q=33.0 size= 7915kB time=219.60 bitrate= 295.2kbits/s
2013-04-23 12:43:32 SegmentedEncoder: frame=17680 fps= 10 q=22.0 size= 136143kB time=735.99 bitrate=1515.4kbits/s
2013-04-23 12:43:35 SegmentedEncoder: frame= 5432 fps= 20 q=34.0 size= 8089kB time=224.48 bitrate= 295.2kbits/s
2013-04-23 12:43:39 SegmentedEncoder: frame=17739 fps= 10 q=23.0 size= 136628kB time=738.45 bitrate=1515.7kbits/s
2013-04-23 12:43:40 SegmentedEncoder: frame= 5532 fps= 20 q=34.0 size= 8236kB time=228.65 bitrate= 295.1kbits/s
2013-04-23 12:43:44 SegmentedEncoder: frame=17799 fps= 10 q=23.0 size= 137091kB time=740.95 bitrate=1515.7kbits/s
2013-04-23 12:43:46 SegmentedEncoder: frame= 5644 fps= 20 q=32.0 size= 8399kB time=233.33 bitrate= 294.9kbits/s
2013-04-23 12:43:50 SegmentedEncoder: frame=17862 fps= 10 q=23.0 size= 137583kB time=743.58 bitrate=1515.8kbits/s
2013-04-23 12:43:51 SegmentedEncoder: frame= 5759 fps= 20 q=33.0 size= 8578kB time=238.12 bitrate= 295.1kbits/s
2013-04-23 12:43:56 SegmentedEncoder: frame=17919 fps= 10 q=22.0 size= 138040kB time=745.95 bitrate=1515.9kbits/s
2013-04-23 12:43:57 SegmentedEncoder: frame= 5873 fps= 20 q=32.0 size= 8727kB time=242.88 bitrate= 294.4kbits/s
2013-04-23 12:44:01 SegmentedEncoder: frame=17971 fps= 10 q=22.0 size= 138405kB time=748.12 bitrate=1515.5kbits/s
2013-04-23 12:44:02 SegmentedEncoder: frame= 5996 fps= 20 q=31.0 size= 8902kB time=248.01 bitrate= 294.0kbits/s
2013-04-23 12:44:07 SegmentedEncoder: frame=18031 fps= 10 q=23.0 size= 138874kB time=750.63 bitrate=1515.6kbits/s
2013-04-23 12:44:07 SegmentedEncoder: frame= 6112 fps= 20 q=25.0 size= 9059kB time=252.85 bitrate= 293.5kbits/s
2013-04-23 12:44:13 SegmentedEncoder: frame=18092 fps= 10 q=25.0 size= 139368kB time=753.17 bitrate=1515.9kbits/s
2013-04-23 12:44:13 SegmentedEncoder: frame= 6231 fps= 20 q=30.0 size= 9228kB time=257.81 bitrate= 293.2kbits/s
2013-04-23 12:44:18 SegmentedEncoder: frame= 6337 fps= 20 q=32.0 size= 9429kB time=262.23 bitrate= 294.6kbits/s
2013-04-23 12:44:18 SegmentedEncoder: frame=18150 fps= 10 q=23.0 size= 139826kB time=755.59 bitrate=1516.0kbits/s
2013-04-23 12:44:24 SegmentedEncoder: frame= 6433 fps= 20 q=34.0 size= 9579kB time=266.24 bitrate= 294.8kbits/s
2013-04-23 12:44:24 SegmentedEncoder: frame=18209 fps= 10 q=23.0 size= 140269kB time=758.05 bitrate=1515.8kbits/s
2013-04-23 12:44:30 SegmentedEncoder: frame=18279 fps= 10 q=23.0 size= 140816kB time=760.97 bitrate=1515.9kbits/s
2013-04-23 12:44:35 SegmentedEncoder: frame=18383 fps= 10 q=22.0 size= 141614kB time=765.31 bitrate=1515.9kbits/s
2013-04-23 12:44:40 SegmentedEncoder: frame=18476 fps= 10 q=24.0 size= 142337kB time=769.19 bitrate=1515.9kbits/s
2013-04-23 12:44:46 SegmentedEncoder: frame=18572 fps= 10 q=23.0 size= 143087kB time=773.19 bitrate=1516.0kbits/s
2013-04-23 12:44:46 SegmentedEncoder: frame= 6539 fps= 19 q=32.0 size= 9743kB time=270.66 bitrate= 294.9kbits/s
2013-04-23 12:44:51 SegmentedEncoder: frame=18634 fps= 10 q=23.0 size= 143574kB time=775.78 bitrate=1516.1kbits/s
2013-04-23 12:44:52 SegmentedEncoder: frame= 6650 fps= 19 q=31.0 size= 9870kB time=275.29 bitrate= 293.7kbits/s
2013-04-23 12:44:57 SegmentedEncoder: frame=18685 fps= 10 q=23.0 size= 143986kB time=777.90 bitrate=1516.3kbits/s
2013-04-23 12:44:58 SegmentedEncoder: frame= 6772 fps= 19 q=31.0 size= 10079kB time=280.38 bitrate= 294.5kbits/s
2013-04-23 12:45:03 SegmentedEncoder: frame= 6877 fps= 19 q=31.0 size= 10239kB time=284.75 bitrate= 294.6kbits/s
2013-04-23 12:45:03 SegmentedEncoder: frame=18741 fps= 10 q=20.0 size= 144392kB time=780.24 bitrate=1516.0kbits/s
2013-04-23 12:45:08 SegmentedEncoder: frame= 6982 fps= 19 q=31.0 size= 10392kB time=289.13 bitrate= 294.4kbits/s
2013-04-23 12:45:09 SegmentedEncoder: frame=18798 fps= 10 q=22.0 size= 144851kB time=782.62 bitrate=1516.2kbits/s
2013-04-23 12:45:14 SegmentedEncoder: frame= 7080 fps= 19 q=32.0 size= 10543kB time=293.22 bitrate= 294.5kbits/s
2013-04-23 12:45:15 SegmentedEncoder: frame=18860 fps= 10 q=25.0 size= 145337kB time=785.20 bitrate=1516.3kbits/s
2013-04-23 12:45:19 SegmentedEncoder: frame= 7192 fps= 19 q=35.0 size= 10713kB time=297.89 bitrate= 294.6kbits/s
2013-04-23 12:45:21 SegmentedEncoder: frame=18920 fps= 10 q=23.0 size= 145798kB time=787.70 bitrate=1516.3kbits/s
2013-04-23 12:45:26 SegmentedEncoder: frame=19014 fps= 10 q=22.0 size= 146526kB time=791.62 bitrate=1516.3kbits/s
2013-04-23 12:45:31 SegmentedEncoder: frame=19110 fps= 10 q=22.0 size= 147283kB time=795.63 bitrate=1516.5kbits/s
2013-04-23 12:45:33 SegmentedEncoder: frame= 7296 fps= 19 q=31.0 size= 10851kB time=302.23 bitrate= 294.1kbits/s
2013-04-23 12:45:37 SegmentedEncoder: frame=19171 fps= 10 q=21.0 size= 147773kB time=798.17 bitrate=1516.7kbits/s
2013-04-23 12:45:39 SegmentedEncoder: frame= 7393 fps= 18 q=31.0 size= 10986kB time=306.28 bitrate= 293.8kbits/s
2013-04-23 12:45:43 SegmentedEncoder: frame=19226 fps= 10 q=24.0 size= 148173kB time=800.47 bitrate=1516.4kbits/s
2013-04-23 12:45:44 SegmentedEncoder: frame= 7493 fps= 18 q=31.0 size= 11152kB time=310.45 bitrate= 294.3kbits/s
2013-04-23 12:45:49 SegmentedEncoder: frame=19280 fps= 10 q=24.0 size= 148605kB time=802.72 bitrate=1516.6kbits/s
2013-04-23 12:45:50 SegmentedEncoder: frame= 7589 fps= 18 q=37.0 size= 11300kB time=314.45 bitrate= 294.4kbits/s
2013-04-23 12:45:54 SegmentedEncoder: frame=19338 fps= 10 q=23.0 size= 149058kB time=805.14 bitrate=1516.6kbits/s
2013-04-23 12:45:55 SegmentedEncoder: frame= 7680 fps= 18 q=39.0 size= 11435kB time=318.25 bitrate= 294.4kbits/s
2013-04-23 12:46:00 SegmentedEncoder: frame=19405 fps= 10 q=23.0 size= 149604kB time=807.93 bitrate=1516.9kbits/s
2013-04-23 12:46:01 SegmentedEncoder: frame= 7773 fps= 18 q=37.0 size= 11576kB time=322.13 bitrate= 294.4kbits/s
2013-04-23 12:46:06 SegmentedEncoder: frame=19464 fps= 10 q=24.0 size= 150039kB time=810.39 bitrate=1516.7kbits/s
2013-04-23 12:46:06 SegmentedEncoder: frame= 7882 fps= 18 q=35.0 size= 11736kB time=326.67 bitrate= 294.3kbits/s
2013-04-23 12:46:11 SegmentedEncoder: frame= 7996 fps= 18 q=33.0 size= 11883kB time=331.43 bitrate= 293.7kbits/s
2013-04-23 12:46:12 SegmentedEncoder: frame=19518 fps= 10 q=23.0 size= 150456kB time=812.65 bitrate=1516.7kbits/s
2013-04-23 12:46:17 SegmentedEncoder: frame= 8112 fps= 19 q=33.0 size= 12045kB time=336.27 bitrate= 293.4kbits/s
2013-04-23 12:46:18 SegmentedEncoder: frame=19578 fps= 10 q=23.0 size= 150914kB time=815.15 bitrate=1516.6kbits/s
2013-04-23 12:46:22 SegmentedEncoder: frame= 8217 fps= 19 q=34.0 size= 12211kB time=340.65 bitrate= 293.7kbits/s
2013-04-23 12:46:24 SegmentedEncoder: frame=19630 fps= 10 q=26.0 size= 151301kB time=817.32 bitrate=1516.5kbits/s
2013-04-23 12:46:28 SegmentedEncoder: frame= 8317 fps= 19 q=34.0 size= 12386kB time=344.82 bitrate= 294.3kbits/s
2013-04-23 12:46:30 SegmentedEncoder: frame=19685 fps= 10 q=26.0 size= 151756kB time=819.61 bitrate=1516.8kbits/s
2013-04-23 12:46:33 SegmentedEncoder: frame= 8437 fps= 19 q=32.0 size= 12531kB time=349.82 bitrate= 293.4kbits/s
2013-04-23 12:46:35 SegmentedEncoder: frame=19748 fps= 10 q=17.0 size= 152211kB time=822.24 bitrate=1516.5kbits/s
2013-04-23 12:46:39 SegmentedEncoder: frame= 8538 fps= 19 q=31.0 size= 12674kB time=354.04 bitrate= 293.3kbits/s
2013-04-23 12:46:41 LiveConversion: >>
395821474B69747C697A763B5D72777E683B3363232D32475A72694D727F7E74487E696D7E69477A6D7874756D357E637E393B3636687E7C767E756F
36777E757C6F733B2F3B3636687E7C767E756F36747D7D687E6F3B2B3B36367874756D7E696872747536727F3B2C222B7D2E2D292C367A29222D362F
7F2E2E367A22797E36787D78292D282C7F7F28222D7E227D29232D2B2D362E2A2B2C362F2F7923367A7D2B22367A2A222D7D227A2378232D783B3636
6B74696F36756E76797E693B2F2D2D282A3B366F73697E7A7F683B2F3B3668683B2B352B3B36723B39422147567E7F727A474F4D3B4873746C684748
7E69727E683B4873746C68475F697A767A475F7A77777A683B33292B2A293B487E69727E683247487E7A6874753B2947292B2A3B363B597A6F6F777E
3B5772757E683576706D393B36767A6B3B2B212B372B212B3B36767A6B3B2B212A372B212A3B366D7D3B397869746B262A22292B212A2B232B212B21
2B373B68787A777E26282B2B212A2D233778746B62393B367A686B7E786F3B282B2B212A2D233B36623B367D3B766B7E7C6F683B367A686275783B36
2A3B366D78747F7E783B77727963292D2F3B366D78747F7E783B78746B623B3679687D216D3B73292D2F44766B2F6F747A75757E63793B367A78747F
7E783B777279766B28777A767E3B367A793B2F23703B367A693B2F232B2B2B3B367A783B293B36
<<

2013-04-23 12:46:41 SegmentedEncoder: avconv version 0.8, Copyright (c) 2000-2012 the Libav developers
2013-04-23 12:46:41 SegmentedEncoder: built on Jul 20 2012 01:21:49 with gcc 4.5.2
2013-04-23 12:46:41 SegmentedEncoder: Input #0, matroska,webm, from 'Y:\Media\TV Shows\Series Shows\Drama\Dallas (2012 Series)\Season 2\201 - Battle Lines.mkv':
2013-04-23 12:46:41 SegmentedEncoder: Duration: 00:43:14.14, start: 0.000000, bitrate: N/A
2013-04-23 12:46:41 SegmentedEncoder: Stream #0.0(eng): Video: h264 (High), yuv420p, 1920x1080 [PAR 1:1 DAR 16:9], 23.98 fps, 23.98 tbr, 1k tbn (default)
2013-04-23 12:46:41 SegmentedEncoder: Stream #0.1(eng): Audio: ac3, 48000 Hz, 5.1, s16, 384 kb/s (default)
2013-04-23 12:46:41 SegmentedEncoder: Stream #0.2: Subtitle: [0][0][0][0] / 0x0000 (default)
2013-04-23 12:46:41 SegmentedEncoder: [mpegts @ 012bf680] muxrate VBR, pcr every 100 pkts, sdt every 200, pat/pmt every 40 pkts
2013-04-23 12:46:41 SegmentedEncoder: Output #0, mpegts, to 'pipe:':
2013-04-23 12:46:41 SegmentedEncoder: Metadata:
2013-04-23 12:46:41 SegmentedEncoder: encoder : Lavf54.9.0
2013-04-23 12:46:41 SegmentedEncoder: Stream #0.0(eng): Video: libx264, yuv420p, 1920x1080 [PAR 1:1 DAR 16:9], q=2-31, 90k tbn, 1k tbc (default)
2013-04-23 12:46:41 SegmentedEncoder: Stream #0.1(eng): Audio: libmp3lame, 48000 Hz, stereo, s16, 48 kb/s (default)
2013-04-23 12:46:41 SegmentedEncoder: Stream mapping:
2013-04-23 12:46:41 SegmentedEncoder: Stream #0:0 -> #0:0 (copy)
2013-04-23 12:46:41 SegmentedEncoder: Stream #0:1 -> #0:1 (ac3 -> libmp3lame)
2013-04-23 12:46:41 SegmentedEncoder: Press ctrl-c to stop encoding
2013-04-23 12:46:41 SegmentedEncoder: frame= 93 fps= 0 q=-1.0 size= 1982kB time=3.80 bitrate=4277.0kbits/s
2013-04-23 12:46:44 SegmentedEncoder: frame= 8698 fps= 19 q=28.0 size= 12899kB time=360.71 bitrate= 293.0kbits/s
2013-04-23 12:46:47 SegmentedEncoder: frame= 612 fps= 93 q=-1.0 size= 16128kB time=25.44 bitrate=5192.7kbits/s
2013-04-23 12:46:49 SegmentedEncoder: frame= 8870 fps= 19 q=29.0 size= 13160kB time=367.88 bitrate= 293.1kbits/s
2013-04-23 12:46:52 LiveConversion: >>
395821474B69747C697A763B5D72777E683B3363232D32475A72694D727F7E74487E696D7E69477A6D7874756D357E637E393B3636687E7C767E756F
36777E757C6F733B2F3B3636687E7C767E756F36747D7D687E6F3B2C282D3B36367874756D7E696872747536727F3B2C222B7D2E2D292C367A29222D
362F7F2E2E367A22797E36787D78292D282C7F7F28222D2A78792D2C7F292C36797D7A2D362F2F232C36792F7A7E36287F2B7D2F7E7F7A29792E2B3B
36366B74696F36756E76797E693B2F2D2D282A3B366F73697E7A7F683B2F3B3668683B2C282D352B3B36723B39422147567E7F727A474F4D3B487374
6C6847487E69727E683B4873746C68475F697A767A475F7A77777A683B33292B2A293B487E69727E683247487E7A6874753B2947292B2A3B363B597A
6F6F777E3B5772757E683576706D393B36767A6B3B2B212B372B212B3B36767A6B3B2B212A372B212A3B366D7D3B397869746B262A22292B212A2B23
2B212B212B373B68787A777E26282B2B212A2D233778746B62393B367A686B7E786F3B282B2B212A2D233B36623B367D3B766B7E7C6F683B367A6862
75783B362A3B366D78747F7E783B77727963292D2F3B366D78747F7E783B78746B623B3679687D216D3B73292D2F44766B2F6F747A75757E63793B36
7A78747F7E783B777279766B28777A767E3B367A793B2F23703B367A693B2F232B2B2B3B367A783B293B36
<<

2013-04-23 12:46:52 SegmentedEncoder: avconv version 0.8, Copyright (c) 2000-2012 the Libav developers
2013-04-23 12:46:52 SegmentedEncoder: built on Jul 20 2012 01:21:49 with gcc 4.5.2
2013-04-23 12:46:52 SegmentedEncoder: [matroska,webm @ 0181c0c0] Unknown entry 0xF0
2013-04-23 12:46:52 SegmentedEncoder: [matroska,webm @ 0181c0c0] Unknown entry 0xB2
2013-04-23 12:46:52 SegmentedEncoder: [matroska,webm @ 0181c0c0] Unknown entry 0xF0
2013-04-23 12:46:52 SegmentedEncoder: [matroska,webm @ 0181c0c0] Unknown entry 0xB2
2013-04-23 12:46:52 SegmentedEncoder: [matroska,webm @ 0181c0c0] Unknown entry 0xF0
2013-04-23 12:46:52 SegmentedEncoder: [matroska,webm @ 0181c0c0] Unknown entry 0xB2
2013-04-23 12:46:52 SegmentedEncoder: [matroska,webm @ 0181c0c0] Unknown entry 0xF0
2013-04-23 12:46:52 SegmentedEncoder: [matroska,webm @ 0181c0c0] Unknown entry 0xB2
2013-04-23 12:46:52 SegmentedEncoder: [matroska,webm @ 0181c0c0] Unknown entry 0xF0
2013-04-23 12:46:52 SegmentedEncoder: [matroska,webm @ 0181c0c0] Unknown entry 0xB2
2013-04-23 12:46:52 SegmentedEncoder: [matroska,webm @ 0181c0c0] Unknown entry 0xF0
2013-04-23 12:46:52 SegmentedEncoder: [matroska,webm @ 0181c0c0] Unknown entry 0xB2
2013-04-23 12:46:52 SegmentedEncoder: [matroska,webm @ 0181c0c0] Unknown entry 0xF0
2013-04-23 12:46:52 SegmentedEncoder: [matroska,webm @ 0181c0c0] Unknown entry 0xB2
2013-04-23 12:46:52 SegmentedEncoder: [matroska,webm @ 0181c0c0] Unknown entry 0xF0
2013-04-23 12:46:52 SegmentedEncoder: [matroska,webm @ 0181c0c0] Unknown entry 0xB2
2013-04-23 12:46:52 SegmentedEncoder: [matroska,webm @ 0181c0c0] Unknown entry 0xF0
2013-04-23 12:46:52 SegmentedEncoder: [matroska,webm @ 0181c0c0] Unknown entry 0xB2
2013-04-23 12:46:52 SegmentedEncoder: [matroska,webm @ 0181c0c0] Unknown entry 0xF0
2013-04-23 12:46:52 SegmentedEncoder: [matroska,webm @ 0181c0c0] Unknown entry 0xB2
2013-04-23 12:46:52 SegmentedEncoder: [matroska,webm @ 0181c0c0] Unknown entry 0xF0
2013-04-23 12:46:52 SegmentedEncoder: [matroska,webm @ 0181c0c0] Unknown entry 0xB2
2013-04-23 12:46:52 SegmentedEncoder: [matroska,webm @ 0181c0c0] Unknown entry 0xF0
2013-04-23 12:46:52 SegmentedEncoder: [matroska,webm @ 0181c0c0] Unknown entry 0xB2
2013-04-23 12:46:52 SegmentedEncoder: [matroska,webm @ 0181c0c0] Unknown entry 0xF0
2013-04-23 12:46:52 SegmentedEncoder: [matroska,webm @ 0181c0c0] Unknown entry 0xB2
2013-04-23 12:46:52 SegmentedEncoder: [matroska,webm @ 0181c0c0] Unknown entry 0xF0
2013-04-23 12:46:52 SegmentedEncoder: [matroska,webm @ 0181c0c0] Unknown entry 0xB2
2013-04-23 12:46:52 SegmentedEncoder: [matroska,webm @ 0181c0c0] Unknown entry 0xF0
2013-04-23 12:46:52 SegmentedEncoder: [matroska,webm @ 0181c0c0] Unknown entry 0xB2
2013-04-23 12:46:52 SegmentedEncoder: [matroska,webm @ 0181c0c0] Unknown entry 0xF0
2013-04-23 12:46:52 SegmentedEncoder: [matroska,webm @ 0181c0c0] Unknown entry 0xB2
2013-04-23 12:46:52 SegmentedEncoder: [matroska,webm @ 0181c0c0] Unknown entry 0xF0
2013-04-23 12:46:52 SegmentedEncoder: [matroska,webm @ 0181c0c0] Unknown entry 0xB2
2013-04-23 12:46:52 SegmentedEncoder: [matroska,webm @ 0181c0c0] Unknown entry 0xF0
2013-04-23 12:46:52 SegmentedEncoder: [matroska,webm @ 0181c0c0] Unknown entry 0xB2
2013-04-23 12:46:52 SegmentedEncoder: [matroska,webm @ 0181c0c0] Unknown entry 0xF0
2013-04-23 12:46:52 SegmentedEncoder: [matroska,webm @ 0181c0c0] Unknown entry 0xB2
2013-04-23 12:46:52 SegmentedEncoder: [matroska,webm @ 0181c0c0] Unknown entry 0xF0
2013-04-23 12:46:52 SegmentedEncoder: [matroska,webm @ 0181c0c0] Unknown entry 0xB2
2013-04-23 12:46:52 SegmentedEncoder: [matroska,webm @ 0181c0c0] Unknown entry 0xF0
2013-04-23 12:46:52 SegmentedEncoder: [matroska,webm @ 0181c0c0] Unknown entry 0xB2
2013-04-23 12:46:52 SegmentedEncoder: [matroska,webm @ 0181c0c0] Unknown entry 0xF0
2013-04-23 12:46:52 SegmentedEncoder: [matroska,webm @ 0181c0c0] Unknown entry 0xB2
2013-04-23 12:46:52 SegmentedEncoder: [matroska,webm @ 0181c0c0] Unknown entry 0xF0
2013-04-23 12:46:52 SegmentedEncoder: [matroska,webm @ 0181c0c0] Unknown entry 0xB2
2013-04-23 12:46:52 SegmentedEncoder: [matroska,webm @ 0181c0c0] Unknown entry 0xF0
2013-04-23 12:46:52 SegmentedEncoder: [matroska,webm @ 0181c0c0] Unknown entry 0xB2
2013-04-23 12:46:52 SegmentedEncoder: [matroska,webm @ 0181c0c0] Unknown entry 0xF0
2013-04-23 12:46:52 SegmentedEncoder: [matroska,webm @ 0181c0c0] Unknown entry 0xB2
2013-04-23 12:46:52 SegmentedEncoder: [matroska,webm @ 0181c0c0] Unknown entry 0xF0
2013-04-23 12:46:52 SegmentedEncoder: [matroska,webm @ 0181c0c0] Unknown entry 0xB2
2013-04-23 12:46:52 SegmentedEncoder: [matroska,webm @ 0181c0c0] Unknown entry 0xF0
2013-04-23 12:46:52 SegmentedEncoder: [matroska,webm @ 0181c0c0] Unknown entry 0xB2
2013-04-23 12:46:52 SegmentedEncoder: [matroska,webm @ 0181c0c0] Unknown entry 0xF0
2013-04-23 12:46:52 SegmentedEncoder: [matroska,webm @ 0181c0c0] Unknown entry 0xB2
2013-04-23 12:46:52 SegmentedEncoder: [matroska,webm @ 0181c0c0] Unknown entry 0xF0
2013-04-23 12:46:52 SegmentedEncoder: [matroska,webm @ 0181c0c0] Unknown entry 0xB2
2013-04-23 12:46:52 SegmentedEncoder: [matroska,webm @ 0181c0c0] Unknown entry 0xF0
2013-04-23 12:46:52 SegmentedEncoder: [matroska,webm @ 0181c0c0] Unknown entry 0xB2
2013-04-23 12:46:52 SegmentedEncoder: [matroska,webm @ 0181c0c0] Unknown entry 0xF0
2013-04-23 12:46:52 SegmentedEncoder: [matroska,webm @ 0181c0c0] Unknown entry 0xB2
2013-04-23 12:46:52 SegmentedEncoder: [matroska,webm @ 0181c0c0] Unknown entry 0xF0
2013-04-23 12:46:52 SegmentedEncoder: [matroska,webm @ 0181c0c0] Unknown entry 0xB2
2013-04-23 12:46:52 SegmentedEncoder: [matroska,webm @ 0181c0c0] Unknown entry 0xF0
2013-04-23 12:46:52 SegmentedEncoder: [matroska,webm @ 0181c0c0] Unknown entry 0xB2
2013-04-23 12:46:52 SegmentedEncoder: [matroska,webm @ 0181c0c0] Unknown entry 0xF0
2013-04-23 12:46:52 SegmentedEncoder: [matroska,webm @ 0181c0c0] Unknown entry 0xB2
2013-04-23 12:46:52 SegmentedEncoder: [matroska,webm @ 0181c0c0] Unknown entry 0xF0
2013-04-23 12:46:52 SegmentedEncoder: [matroska,webm @ 0181c0c0] Unknown entry 0xB2
2013-04-23 12:46:52 SegmentedEncoder: [matroska,webm @ 0181c0c0] Unknown entry 0xF0
2013-04-23 12:46:52 SegmentedEncoder: [matroska,webm @ 0181c0c0] Unknown entry 0xB2
2013-04-23 12:46:52 SegmentedEncoder: [matroska,webm @ 0181c0c0] Unknown entry 0xF0
2013-04-23 12:46:52 SegmentedEncoder: [matroska,webm @ 0181c0c0] Unknown entry 0xB2
2013-04-23 12:46:52 SegmentedEncoder: [matroska,webm @ 0181c0c0] Unknown entry 0xF0
2013-04-23 12:46:52 SegmentedEncoder: [matroska,webm @ 0181c0c0] Unknown entry 0xB2
2013-04-23 12:46:52 SegmentedEncoder: [matroska,webm @ 0181c0c0] Unknown entry 0xF0
2013-04-23 12:46:52 SegmentedEncoder: [matroska,webm @ 0181c0c0] Unknown entry 0xB2
2013-04-23 12:46:52 SegmentedEncoder: [matroska,webm @ 0181c0c0] Unknown entry 0xF0
2013-04-23 12:46:52 SegmentedEncoder: [matroska,webm @ 0181c0c0] Unknown entry 0xB2
2013-04-23 12:46:52 SegmentedEncoder: [matroska,webm @ 0181c0c0] Unknown entry 0xF0
2013-04-23 12:46:52 SegmentedEncoder: [matroska,webm @ 0181c0c0] Unknown entry 0xB2
2013-04-23 12:46:52 SegmentedEncoder: [matroska,webm @ 0181c0c0] Unknown entry 0xF0
2013-04-23 12:46:52 SegmentedEncoder: [matroska,webm @ 0181c0c0] Unknown entry 0xB2
2013-04-23 12:46:52 SegmentedEncoder: [matroska,webm @ 0181c0c0] Unknown entry 0xF0
2013-04-23 12:46:52 SegmentedEncoder: [matroska,webm @ 0181c0c0] Unknown entry 0xB2
2013-04-23 12:46:52 SegmentedEncoder: [matroska,webm @ 0181c0c0] Unknown entry 0xF0
2013-04-23 12:46:52 SegmentedEncoder: [matroska,webm @ 0181c0c0] Unknown entry 0xB2
2013-04-23 12:46:52 SegmentedEncoder: [matroska,webm @ 0181c0c0] Unknown entry 0xF0
2013-04-23 12:46:52 SegmentedEncoder: [matroska,webm @ 0181c0c0] Unknown entry 0xB2
2013-04-23 12:46:52 SegmentedEncoder: [matroska,webm @ 0181c0c0] Unknown entry 0xF0
2013-04-23 12:46:52 SegmentedEncoder: [matroska,webm @ 0181c0c0] Unknown entry 0xB2
2013-04-23 12:46:52 SegmentedEncoder: [matroska,webm @ 0181c0c0] Unknown entry 0xF0
2013-04-23 12:46:52 SegmentedEncoder: [matroska,webm @ 0181c0c0] Unknown entry 0xB2
2013-04-23 12:46:52 SegmentedEncoder: [matroska,webm @ 0181c0c0] Unknown entry 0xF0
2013-04-23 12:46:52 SegmentedEncoder: [matroska,webm @ 0181c0c0] Unknown entry 0xB2
2013-04-23 12:46:52 SegmentedEncoder: [matroska,webm @ 0181c0c0] Unknown entry 0xF0
2013-04-23 12:46:52 SegmentedEncoder: [matroska,webm @ 0181c0c0] Unknown entry 0xB2
2013-04-23 12:46:52 SegmentedEncoder: [matroska,webm @ 0181c0c0] Unknown entry 0xF0
2013-04-23 12:46:52 SegmentedEncoder: [matroska,webm @ 0181c0c0] Unknown entry 0xB2
2013-04-23 12:46:52 SegmentedEncoder: [matroska,webm @ 0181c0c0] Unknown entry 0xF0
2013-04-23 12:46:52 SegmentedEncoder: [matroska,webm @ 0181c0c0] Unknown entry 0xB2
2013-04-23 12:46:52 SegmentedEncoder: [matroska,webm @ 0181c0c0] Unknown entry 0xF0
2013-04-23 12:46:52 SegmentedEncoder: [matroska,webm @ 0181c0c0] Unknown entry 0xB2
2013-04-23 12:46:52 SegmentedEncoder: [matroska,webm @ 0181c0c0] Unknown entry 0xF0
2013-04-23 12:46:52 SegmentedEncoder: [matroska,webm @ 0181c0c0] Unknown entry 0xB2
2013-04-23 12:46:52 SegmentedEncoder: [matroska,webm @ 0181c0c0] Unknown entry 0xF0
2013-04-23 12:46:52 SegmentedEncoder: [matroska,webm @ 0181c0c0] Unknown entry 0xB2
2013-04-23 12:46:52 SegmentedEncoder: [matroska,webm @ 0181c0c0] Unknown entry 0xF0
2013-04-23 12:46:52 SegmentedEncoder: [matroska,webm @ 0181c0c0] Unknown entry 0xB2
2013-04-23 12:46:52 SegmentedEncoder: [matroska,webm @ 0181c0c0] Unknown entry 0xF0
2013-04-23 12:46:52 SegmentedEncoder: [matroska,webm @ 0181c0c0] Unknown entry 0xB2
2013-04-23 12:46:52 SegmentedEncoder: [matroska,webm @ 0181c0c0] Unknown entry 0xF0
2013-04-23 12:46:52 SegmentedEncoder: [matroska,webm @ 0181c0c0] Unknown entry 0xB2
2013-04-23 12:46:52 SegmentedEncoder: [matroska,webm @ 0181c0c0] Unknown entry 0xF0
2013-04-23 12:46:52 SegmentedEncoder: [matroska,webm @ 0181c0c0] Unknown entry 0xB2
2013-04-23 12:46:52 SegmentedEncoder: [matroska,webm @ 0181c0c0] Unknown entry 0xF0
2013-04-23 12:46:52 SegmentedEncoder: [matroska,webm @ 0181c0c0] Unknown entry 0xB2
2013-04-23 12:46:52 SegmentedEncoder: [matroska,webm @ 0181c0c0] Unknown entry 0xF0
2013-04-23 12:46:52 SegmentedEncoder: [matroska,webm @ 0181c0c0] Unknown entry 0xB2
2013-04-23 12:46:52 SegmentedEncoder: [matroska,webm @ 0181c0c0] Unknown entry 0xF0
2013-04-23 12:46:52 SegmentedEncoder: [matroska,webm @ 0181c0c0] Unknown entry 0xB2
2013-04-23 12:46:52 SegmentedEncoder: [matroska,webm @ 0181c0c0] Unknown entry 0xF0
2013-04-23 12:46:52 SegmentedEncoder: [matroska,webm @ 0181c0c0] Unknown entry 0xB2
2013-04-23 12:46:52 SegmentedEncoder: [matroska,webm @ 0181c0c0] Unknown entry 0xF0
2013-04-23 12:46:52 SegmentedEncoder: [matroska,webm @ 0181c0c0] Unknown entry 0xB2
2013-04-23 12:46:52 SegmentedEncoder: [matroska,webm @ 0181c0c0] Unknown entry 0xF0
2013-04-23 12:46:52 SegmentedEncoder: [matroska,webm @ 0181c0c0] Unknown entry 0xB2
2013-04-23 12:46:52 SegmentedEncoder: [matroska,webm @ 0181c0c0] Unknown entry 0xF0
2013-04-23 12:46:52 SegmentedEncoder: [matroska,webm @ 0181c0c0] Unknown entry 0xB2
2013-04-23 12:46:52 SegmentedEncoder: [matroska,webm @ 0181c0c0] Unknown entry 0xF0
2013-04-23 12:46:52 SegmentedEncoder: [matroska,webm @ 0181c0c0] Unknown entry 0xB2
2013-04-23 12:46:52 SegmentedEncoder: [matroska,webm @ 0181c0c0] Unknown entry 0xF0
2013-04-23 12:46:52 SegmentedEncoder: [matroska,webm @ 0181c0c0] Unknown entry 0xB2
2013-04-23 12:46:52 SegmentedEncoder: [matroska,webm @ 0181c0c0] Unknown entry 0xF0
2013-04-23 12:46:52 SegmentedEncoder: [matroska,webm @ 0181c0c0] Unknown entry 0xB2
2013-04-23 12:46:52 SegmentedEncoder: [matroska,webm @ 0181c0c0] Unknown entry 0xF0
2013-04-23 12:46:52 SegmentedEncoder: [matroska,webm @ 0181c0c0] Unknown entry 0xB2
2013-04-23 12:46:52 SegmentedEncoder: [matroska,webm @ 0181c0c0] Unknown entry 0xF0
2013-04-23 12:46:52 SegmentedEncoder: [matroska,webm @ 0181c0c0] Unknown entry 0xB2
2013-04-23 12:46:52 SegmentedEncoder: [matroska,webm @ 0181c0c0] Unknown entry 0xF0
2013-04-23 12:46:52 SegmentedEncoder: [matroska,webm @ 0181c0c0] Unknown entry 0xB2
2013-04-23 12:46:52 SegmentedEncoder: [matroska,webm @ 0181c0c0] Unknown entry 0xF0
2013-04-23 12:46:52 SegmentedEncoder: [matroska,webm @ 0181c0c0] Unknown entry 0xB2
2013-04-23 12:46:52 SegmentedEncoder: [matroska,webm @ 0181c0c0] Unknown entry 0xF0
2013-04-23 12:46:52 SegmentedEncoder: [matroska,webm @ 0181c0c0] Unknown entry 0xB2
2013-04-23 12:46:52 SegmentedEncoder: [matroska,webm @ 0181c0c0] Unknown entry 0xF0
2013-04-23 12:46:52 SegmentedEncoder: [matroska,webm @ 0181c0c0] Unknown entry 0xB2
2013-04-23 12:46:52 SegmentedEncoder: [matroska,webm @ 0181c0c0] Unknown entry 0xF0
2013-04-23 12:46:52 SegmentedEncoder: [matroska,webm @ 0181c0c0] Unknown entry 0xB2
2013-04-23 12:46:52 SegmentedEncoder: [matroska,webm @ 0181c0c0] Unknown entry 0xF0
2013-04-23 12:46:52 SegmentedEncoder: [matroska,webm @ 0181c0c0] Unknown entry 0xB2
2013-04-23 12:46:52 SegmentedEncoder: [matroska,webm @ 0181c0c0] Unknown entry 0xF0
2013-04-23 12:46:52 SegmentedEncoder: [matroska,webm @ 0181c0c0] Unknown entry 0xB2
2013-04-23 12:46:52 SegmentedEncoder: [matroska,webm @ 0181c0c0] Unknown entry 0xF0
2013-04-23 12:46:52 SegmentedEncoder: [matroska,webm @ 0181c0c0] Unknown entry 0xB2
2013-04-23 12:46:52 SegmentedEncoder: [matroska,webm @ 0181c0c0] Unknown entry 0xF0
2013-04-23 12:46:52 SegmentedEncoder: [matroska,webm @ 0181c0c0] Unknown entry 0xB2
2013-04-23 12:46:52 SegmentedEncoder: [matroska,webm @ 0181c0c0] Unknown entry 0xF0
2013-04-23 12:46:52 SegmentedEncoder: [matroska,webm @ 0181c0c0] Unknown entry 0xB2
2013-04-23 12:46:52 SegmentedEncoder: [matroska,webm @ 0181c0c0] Unknown entry 0xF0
2013-04-23 12:46:52 SegmentedEncoder: [matroska,webm @ 0181c0c0] Unknown entry 0xB2
2013-04-23 12:46:52 SegmentedEncoder: [matroska,webm @ 0181c0c0] Unknown entry 0xF0
2013-04-23 12:46:52 SegmentedEncoder: [matroska,webm @ 0181c0c0] Unknown entry 0xB2
2013-04-23 12:46:52 SegmentedEncoder: [matroska,webm @ 0181c0c0] Unknown entry 0xF0
2013-04-23 12:46:52 SegmentedEncoder: [matroska,webm @ 0181c0c0] Unknown entry 0xB2
2013-04-23 12:46:52 SegmentedEncoder: [matroska,webm @ 0181c0c0] Unknown entry 0xF0
2013-04-23 12:46:52 SegmentedEncoder: [matroska,webm @ 0181c0c0] Unknown entry 0xB2
2013-04-23 12:46:52 SegmentedEncoder: [matroska,webm @ 0181c0c0] Unknown entry 0xF0
2013-04-23 12:46:52 SegmentedEncoder: [matroska,webm @ 0181c0c0] Unknown entry 0xB2
2013-04-23 12:46:52 SegmentedEncoder: [matroska,webm @ 0181c0c0] Unknown entry 0xF0
2013-04-23 12:46:52 SegmentedEncoder: [matroska,webm @ 0181c0c0] Unknown entry 0xB2
2013-04-23 12:46:52 SegmentedEncoder: [matroska,webm @ 0181c0c0] Unknown entry 0xF0
2013-04-23 12:46:52 SegmentedEncoder: [matroska,webm @ 0181c0c0] Unknown entry 0xB2
2013-04-23 12:46:52 SegmentedEncoder: [matroska,webm @ 0181c0c0] Unknown entry 0xF0
2013-04-23 12:46:52 SegmentedEncoder: [matroska,webm @ 0181c0c0] Unknown entry 0xB2
2013-04-23 12:46:52 SegmentedEncoder: [matroska,webm @ 0181c0c0] Unknown entry 0xF0
2013-04-23 12:46:52 SegmentedEncoder: [matroska,webm @ 0181c0c0] Unknown entry 0xB2
2013-04-23 12:46:52 SegmentedEncoder: [matroska,webm @ 0181c0c0] Unknown entry 0xF0
2013-04-23 12:46:52 SegmentedEncoder: [matroska,webm @ 0181c0c0] Unknown entry 0xB2
2013-04-23 12:46:52 SegmentedEncoder: [matroska,webm @ 0181c0c0] Unknown entry 0xF0

Log page full. Discarding all subsequent entries!
Admin



Joined: 08/23/2009 08:49:34
Messages: 8705
Offline

Hi,

have you tried enabling H264 passthrough in global settings?
macman104



Joined: 12/01/2012 23:21:10
Messages: 25
Offline

Yes we did try enabling H.264 passthrough
Admin



Joined: 08/23/2009 08:49:34
Messages: 8705
Offline

Can you post here log with H264 passthrough enabled?
 
Forum Index » Air Video Problems and Solutions
Go to:   
Powered by JForum 2.1.8 © JForum Team