[Logo] Air Video Forum
  [Search] Search   [Recent Topics] Recent Topics   [Hottest Topics] Hottest Topics   [Members]  Member Listing   [Groups] Back to home page 
[Moderation Log] Moderation Log   [Register] Register / 
[Login] Login 
New PC/Latest Server = Choppy playback?  XML
Forum Index » Air Video Problems and Solutions
Author Message
Allanon



Joined: 07/16/2013 05:33:35
Messages: 3
Offline

I just built a new pc and installed the latest server and updated the app on my ipad. On my old PC everything was running perfect but now I'm getting choppy playback on some files and I can't narrow down what's different between them. I will have problems with 720p files but not others and same for 1080p. Any suggestions? The middle conversion log is the file with choppy playback.

2013-07-15 20:41:47 LiveConversion: >>
5F21475A72694D727F7E74487E696D7E69477A6D7874756D357E637E3B3636687E7C767E756F36777E757C6F733B2F3B3636687E7C767E756F36747D
7D687E6F3B2A2A2D3B36367874756D7E696872747536727F3B7F2F2E2E7E2F787A367D2B7A22362F292D2836797A22793678232C29282C2B797F2A7D
7E2F29792D297A2E7D36282C2328362F232C7E362329237D367E23797E7F2C2E7923797A233B36366B74696F36756E76797E693B2F2D2D282A3B366F
73697E7A7F683B2F3B3668683B2A2A2D352B3B36723B395F21474E687E6968475A77777A757475474D727F7E74684748737A6C68737A75703B497E7F
7E766B6F727475474F737E3548737A6C68737A757035497E7F7E766B6F727475352A22222F352A2B232B6B3559776E497A623563292D2F365872555E
5D72575E3576706D393B36767A6B3B2B212B372B212B3B36767A6B3B2B212A372B212A3B366D7D3B397869746B262A22292B212A2B232B212B212B37
3B68787A777E26232B2B212F2F233778746B62393B367A686B7E786F3B232B2B212F2F233B36623B367D3B766B7E7C6F683B367A686275783B362A3B
366D78747F7E783B77727963292D2F3B366D78747F7E783B78746B623B3679687D216D3B73292D2F44766B2F6F747A75757E63793B367A78747F7E78
3B777279766B28777A767E3B367A793B292E2D703B367A693B2F232B2B2B3B367A783B293B36
<<

2013-07-15 20:41:50 LiveConversion: >>
5F21475A72694D727F7E74487E696D7E69477A6D7874756D357E637E3B3636687E7C767E756F36777E757C6F733B2F3B3636687E7C767E756F36747D
7D687E6F3B2A2A293B36367874756D7E696872747536727F3B7F2F2E2E7E2F787A367D2B7A22362F292D2836797A22793678232C29282C2B797F2A7D
7E7A2C2C2D282A2D28362928297F362F7A7F2C3622782C28367E7F7929282E2C297F2C222D3B36366B74696F36756E76797E693B2F2D2D282A3B366F
73697E7A7F683B2F3B3668683B2A2A29352B3B36723B395F21474E687E6968475A77777A757475474D727F7E74684748737A6C68737A75703B497E7F
7E766B6F727475474F737E3548737A6C68737A757035497E7F7E766B6F727475352A22222F352A2B232B6B3559776E497A623563292D2F365872555E
5D72575E3576706D393B36767A6B3B2B212B372B212B3B36767A6B3B2B212A372B212A3B366D7D3B397869746B262A22292B212A2B232B212B212B37
3B68787A777E26232B2B212F2F233778746B62393B367A686B7E786F3B232B2B212F2F233B36623B367D3B766B7E7C6F683B367A686275783B362A3B
366D78747F7E783B77727963292D2F3B366D78747F7E783B78746B623B3679687D216D3B73292D2F44766B2F6F747A75757E63793B367A78747F7E78
3B777279766B28777A767E3B367A793B292E2D703B367A693B2F232B2B2B3B367A783B293B36
<<

2013-07-15 20:41:52 SegmentedEncoder: avconv version 0.8, Copyright (c) 2000-2012 the Libav developers
2013-07-15 20:41:52 SegmentedEncoder: built on Jul 20 2012 01:21:49 with gcc 4.5.2
2013-07-15 20:41:52 SegmentedEncoder: Input #0, matroska,webm, from 'D:\Videos\Shawshank Redemption\The.Shawshank.Redemption.1994.1080p.BluRay.x264-CiNEFiLE.mkv':
2013-07-15 20:41:52 SegmentedEncoder: Duration: 02:22:32.44, start: 0.000000, bitrate: N/A
2013-07-15 20:41:52 SegmentedEncoder: Stream #0.0(eng): Video: h264 (High), yuv420p, 1920x1080, PAR 1:1 DAR 16:9, 23.98 fps, 23.98 tbr, 1k tbn, 47.95 tbc (default)
2013-07-15 20:41:52 SegmentedEncoder: Stream #0.1(eng): Audio: ac3, 48000 Hz, 5.1, s16, 640 kb/s (default)
2013-07-15 20:41:52 SegmentedEncoder: Stream #0.2(eng): Subtitle: [0][0][0][0] / 0x0000 (default)
2013-07-15 20:41:52 SegmentedEncoder: [mpegts @ 03320260] muxrate VBR, pcr every 100 pkts, sdt every 200, pat/pmt every 40 pkts
2013-07-15 20:41:52 SegmentedEncoder: Output #0, mpegts, to 'pipe:':
2013-07-15 20:41:52 SegmentedEncoder: Metadata:
2013-07-15 20:41:52 SegmentedEncoder: encoder : Lavf54.9.0
2013-07-15 20:41:52 SegmentedEncoder: Stream #0.0(eng): Video: libx264, yuv420p, 1920x1080 [PAR 1:1 DAR 16:9], q=2-31, 90k tbn, 1k tbc (default)
2013-07-15 20:41:52 SegmentedEncoder: Stream #0.1(eng): Audio: libmp3lame, 48000 Hz, stereo, s16, 256 kb/s (default)
2013-07-15 20:41:52 SegmentedEncoder: Stream mapping:
2013-07-15 20:41:52 SegmentedEncoder: Stream #0:0 -> #0:0 (copy)
2013-07-15 20:41:52 SegmentedEncoder: Stream #0:1 -> #0:1 (ac3 -> libmp3lame)
2013-07-15 20:41:52 SegmentedEncoder: Press ctrl-c to stop encoding
2013-07-15 20:41:52 SegmentedEncoder: frame= 234 fps=100 q=-1.0 size= 9628kB time=8.08 bitrate=9762.9kbits/s
2013-07-15 20:42:11 SegmentedEncoder: frame= 1193 fps= 58 q=-1.0 size= 45297kB time=48.08 bitrate=7718.4kbits/s
2013-07-15 20:42:30 SegmentedEncoder: frame= 2152 fps= 54 q=-1.0 size= 84525kB time=88.08 bitrate=7861.7kbits/s
2013-07-15 20:43:07 SegmentedEncoder: frame= 3111 fps= 40 q=-1.0 size= 127833kB time=128.07 bitrate=8176.6kbits/s
2013-07-15 20:43:47 SegmentedEncoder: frame= 4070 fps= 35 q=-1.0 size= 165852kB time=168.07 bitrate=8083.8kbits/s
2013-07-15 20:44:28 SegmentedEncoder: frame= 5029 fps= 32 q=-1.0 size= 208307kB time=208.07 bitrate=8201.3kbits/s
2013-07-15 20:45:07 SegmentedEncoder: frame= 5988 fps= 30 q=-1.0 size= 247690kB time=248.07 bitrate=8179.5kbits/s
2013-07-15 20:45:53 LiveConversion: >>
5F21475A72694D727F7E74487E696D7E69477A6D7874756D357E637E3B3636687E7C767E756F36777E757C6F733B2F3B3636687E7C767E756F36747D
7D687E6F3B2B3B36367874756D7E696872747536727F3B797F2379227F297F367A792278362F7F792D3623782B79367F792D2B2D2223227D2D79232B
292E79792B2D7936792B232F362F222F2A362329282F36232C7E2A2A237E7E78232D2E3B36366B74696F36756E76797E693B2F2D2D282A3B366F7369
7E7A7F683B2F3B3668683B2B352B3B36723B395F21474E687E6968475A77777A757475474D727F7E7468474F696E7E3B597774747F474F696E7E3559
7774747F35482B2D5E2B2E354F737E354B7A7275355A6C7A62352C292B6B354C5E59365F57355F5F2E352A355335292D2F36554F793576706D393B36
767A6B3B2B212B372B212B3B36767A6B3B2B212A372B212A3B366D7D3B397869746B262A29232B212C292B212B212B373B68787A777E26232B2B212F
2F233778746B62393B367A686B7E786F3B232B2B212F2F233B36623B367D3B766B7E7C6F683B367A686275783B362A3B366D78747F7E783B77727963
292D2F3B366D78747F7E783B78746B623B3679687D216D3B73292D2F44766B2F6F747A75757E63793B367A78747F7E783B777279766B28777A767E3B
367A793B292E2D703B367A693B2F232B2B2B3B367A783B293B36
<<

2013-07-15 20:45:58 SegmentedEncoder: avconv version 0.8, Copyright (c) 2000-2012 the Libav developers
2013-07-15 20:45:58 SegmentedEncoder: built on Jul 20 2012 01:21:49 with gcc 4.5.2
2013-07-15 20:45:58 SegmentedEncoder: Input #0, matroska,webm, from 'D:\Videos\True Blood\True.Blood.S06E05.The.Pain.Away.720p.WEB-DL.DD5.1.H.264-NTb.mkv':
2013-07-15 20:45:58 SegmentedEncoder: Duration: 00:56:01.21, start: 0.000000, bitrate: N/A
2013-07-15 20:45:58 SegmentedEncoder: Stream #0.0(eng): Video: h264 (High), yuv420p, 1280x720 [PAR 1:1 DAR 16:9], 23.98 fps, 23.98 tbr, 1k tbn (default)
2013-07-15 20:45:58 SegmentedEncoder: Stream #0.1(eng): Audio: ac3, 48000 Hz, 5.1, s16, 384 kb/s (default)
2013-07-15 20:45:58 SegmentedEncoder: [mpegts @ 03aec600] muxrate VBR, pcr every 100 pkts, sdt every 200, pat/pmt every 40 pkts
2013-07-15 20:45:58 SegmentedEncoder: Output #0, mpegts, to 'pipe:':
2013-07-15 20:45:58 SegmentedEncoder: Metadata:
2013-07-15 20:45:58 SegmentedEncoder: encoder : Lavf54.9.0
2013-07-15 20:45:58 SegmentedEncoder: Stream #0.0(eng): Video: libx264, yuv420p, 1280x720 [PAR 1:1 DAR 16:9], q=2-31, 90k tbn, 1k tbc (default)
2013-07-15 20:45:58 SegmentedEncoder: Stream #0.1(eng): Audio: libmp3lame, 48000 Hz, stereo, s16, 256 kb/s (default)
2013-07-15 20:45:58 SegmentedEncoder: Stream mapping:
2013-07-15 20:45:58 SegmentedEncoder: Stream #0:0 -> #0:0 (copy)
2013-07-15 20:45:58 SegmentedEncoder: Stream #0:1 -> #0:1 (ac3 -> libmp3lame)
2013-07-15 20:45:58 SegmentedEncoder: Press ctrl-c to stop encoding
2013-07-15 20:45:58 SegmentedEncoder: frame= 193 fps= 38 q=-1.0 size= 6737kB time=7.97 bitrate=6927.3kbits/s
2013-07-15 20:46:07 SegmentedEncoder: frame= 1154 fps= 79 q=-1.0 size= 25313kB time=48.13 bitrate=4308.2kbits/s
2013-07-15 20:46:32 SegmentedEncoder: frame= 2111 fps= 54 q=-1.0 size= 43248kB time=87.96 bitrate=4027.6kbits/s
2013-07-15 20:47:12 SegmentedEncoder: frame= 3070 fps= 39 q=-1.0 size= 62220kB time=127.96 bitrate=3983.2kbits/s
2013-07-15 20:47:52 SegmentedEncoder: frame= 4030 fps= 34 q=-1.0 size= 84044kB time=168.00 bitrate=4098.1kbits/s
2013-07-15 20:48:32 SegmentedEncoder: frame= 4989 fps= 31 q=-1.0 size= 121308kB time=208.00 bitrate=4777.6kbits/s
2013-07-15 20:49:12 SegmentedEncoder: frame= 5948 fps= 30 q=-1.0 size= 164250kB time=248.00 bitrate=5425.6kbits/s
2013-07-15 20:49:52 SegmentedEncoder: frame= 6908 fps= 29 q=-1.0 size= 194396kB time=288.04 bitrate=5528.7kbits/s
2013-07-15 20:50:07 LiveConversion: >>
5F21475A72694D727F7E74487E696D7E69477A6D7874756D357E637E3B3636687E7C767E756F36777E757C6F733B2F3B3636687E7C767E756F36747D
7D687E6F3B2A232F2F3B36367874756D7E696872747536727F3B2F7E782A287E2D2F362D7E2B2F362F782F23367A7F7F23367F282A7F2F7D2F2E2F29
78222F2379297E79227A36792B2E7F362F2C282B36232F7E7D36782D282B2B2F2B2A287E787A3B36366B74696F36756E76797E693B2F2D2D282A3B36
6F73697E7A7F683B2F3B3668683B2A232F2F352B3B36723B5F21474E687E6968475A77777A757475474D727F7E7468475F7E636F7E69475F7E636F7E
6935482B235E2B28352C292B6B35535F4F4D3563292D2F365256565E49485E3576706D3B36767A6B3B2B212B372B212B3B36767A6B3B2B212A372B21
2A3B366D7D3B397869746B262A29232B212C2A2F212B212B373B68787A777E26232B2B212F2F233778746B62393B367A686B7E786F3B232B2B212F2F
233B36623B367D3B766B7E7C6F683B367A686275783B362A3B366D78747F7E783B77727963292D2F3B366D78747F7E783B78746B623B3679687D216D
3B73292D2F44766B2F6F747A75757E63793B367A78747F7E783B777279766B28777A767E3B367A793B292E2D703B367A693B2F232B2B2B3B367A783B
293B36
<<

2013-07-15 20:50:15 SegmentedEncoder: avconv version 0.8, Copyright (c) 2000-2012 the Libav developers
2013-07-15 20:50:15 SegmentedEncoder: built on Jul 20 2012 01:21:49 with gcc 4.5.2
2013-07-15 20:50:15 SegmentedEncoder: Input #0, matroska,webm, from 'D:\Videos\Dexter\Dexter.S08E03.720p.HDTV.x264-IMMERSE.mkv':
2013-07-15 20:50:15 SegmentedEncoder: Duration: 00:49:05.06, start: 0.000000, bitrate: N/A
2013-07-15 20:50:15 SegmentedEncoder: Stream #0.0(eng): Video: h264 (High), yuv420p, 1280x714, PAR 1:1 DAR 640:357, 23.98 fps, 23.98 tbr, 1k tbn, 47.95 tbc (default)
2013-07-15 20:50:15 SegmentedEncoder: Stream #0.1(eng): Audio: ac3, 48000 Hz, 5.1, s16, 384 kb/s (default)
2013-07-15 20:50:15 SegmentedEncoder: [mpegts @ 0130ce80] muxrate VBR, pcr every 100 pkts, sdt every 200, pat/pmt every 40 pkts
2013-07-15 20:50:15 SegmentedEncoder: Output #0, mpegts, to 'pipe:':
2013-07-15 20:50:15 SegmentedEncoder: Metadata:
2013-07-15 20:50:15 SegmentedEncoder: encoder : Lavf54.9.0
2013-07-15 20:50:15 SegmentedEncoder: Stream #0.0(eng): Video: libx264, yuv420p, 1280x714 [PAR 1:1 DAR 640:357], q=2-31, 90k tbn, 1k tbc (default)
2013-07-15 20:50:15 SegmentedEncoder: Stream #0.1(eng): Audio: libmp3lame, 48000 Hz, stereo, s16, 256 kb/s (default)
2013-07-15 20:50:15 SegmentedEncoder: Stream mapping:
2013-07-15 20:50:15 SegmentedEncoder: Stream #0:0 -> #0:0 (copy)
2013-07-15 20:50:15 SegmentedEncoder: Stream #0:1 -> #0:1 (ac3 -> libmp3lame)
2013-07-15 20:50:15 SegmentedEncoder: Press ctrl-c to stop encoding
2013-07-15 20:50:15 SegmentedEncoder: frame= 404 fps= 54 q=-1.0 size= 8930kB time=8.06 bitrate=9076.9kbits/s
2013-07-15 20:50:23 SegmentedEncoder: frame= 1363 fps= 88 q=-1.0 size= 24929kB time=48.06 bitrate=4249.4kbits/s
2013-07-15 20:50:55 SegmentedEncoder: frame= 2322 fps= 49 q=-1.0 size= 40065kB time=88.06 bitrate=3727.3kbits/s
2013-07-15 20:51:36 SegmentedEncoder: frame= 3282 fps= 37 q=-1.0 size= 55060kB time=128.10 bitrate=3521.2kbits/s
2013-07-15 20:52:15 SegmentedEncoder: frame= 4241 fps= 33 q=-1.0 size= 70455kB time=168.09 bitrate=3433.6kbits/s
2013-07-15 20:52:55 SegmentedEncoder: frame= 5199 fps= 31 q=-1.0 size= 85597kB time=208.05 bitrate=3370.4kbits/s
2013-07-15 20:53:36 SegmentedEncoder: frame= 6160 fps= 30 q=-1.0 size= 101134kB time=248.13 bitrate=3338.9kbits/s
2013-07-15 20:54:15 SegmentedEncoder: frame= 7117 fps= 29 q=-1.0 size= 116392kB time=288.05 bitrate=3310.2kbits/s
2013-07-15 20:54:55 SegmentedEncoder: frame= 8076 fps= 28 q=-1.0 size= 133409kB time=328.05 bitrate=3331.5kbits/s
Admin



Joined: 08/23/2009 08:49:34
Messages: 8705
Offline

Hi,

the transcoding FPS does seem to be high enough, looks like a network throughput problem.

Could this perhaps be relevant in your case?

http://www.inmethod.com/forum/posts/list/15/5868.page#27836
Allanon



Joined: 07/16/2013 05:33:35
Messages: 3
Offline

Admin wrote:Hi,

the transcoding FPS does seem to be high enough, looks like a network throughput problem.

Could this perhaps be relevant in your case?

http://www.inmethod.com/forum/posts/list/15/5868.page#27836


I tried that but it didn't help.
Allanon



Joined: 07/16/2013 05:33:35
Messages: 3
Offline

I figured it out. The setting "Allow h.264 Video Passthrough" was causing the choppy playback during live conversion.

This all started with the most recent app update back in June. I think there is something buggy with that update that broke this setting. I know that setting was toggled "on" before the update and I never had this problem.
 
Forum Index » Air Video Problems and Solutions
Go to:   
Powered by JForum 2.1.8 © JForum Team