[Logo] Air Video Forum
  [Search] Search   [Recent Topics] Recent Topics   [Hottest Topics] Hottest Topics   [Members]  Member Listing   [Groups] Back to home page 
[Moderation Log] Moderation Log   [Register] Register / 
[Login] Login 
Live Conversion Error  XML
Forum Index » Air Video Problems and Solutions
Author Message
moving2



Joined: 09/17/2009 17:35:56
Messages: 4
Offline

AirVideo 2.1.0, Iphone 3G 3.0.1 firmware, Mac Mini Core 2 Duo 2.0GHz, 2GB RAM. I setup my port forwarding correctly and conversion works, but I get a message saying my computer is too slow for Live Conversion most of the time even when I am on my local wireless 802.11g network.

I've also seen what looks like an error in the logs when I try live conversion:

9/16/09 9:16:17 PM Air Video Server[269] Setting: LiveConversion: Begin Live Video Conversion
LiveConversion: >>39345A6B6B7772787A6F72747568345A72693B4D727F7E743B487E696D7E69357A6B6B345874756F7E756F6834497E68746E69787E68347D7D766B7E7C3672756F7E77393B36767A6B3B2B352B212B352B3B36767A6B3B2B352A212B352A3B3668683B2B352B3B36723B39344D74776E767E6834535A555F59495A505E2934444F5449495E554F4834444F4D3459697A7F623B596E757873344F737E3B59697A7F623B596E7578733B487E7A6874753B28344F737E3559697A7F6235596E7578733528632B29355C697A757F35587A7562747535546935596E686F35436D725F36697E6C6F7E69357A6D72393B366B7A7F777E7D6F3B2B3B366B7A7F69727C736F3B2B3B366B7A7F6F746B3B2B3B366B7A7F79746F6F74763B2B3B367869746B777E7D6F3B2B3B367869746B69727C736F3B2B3B367869746B6F746B3B2B3B367869746B79746F6F74763B2B3B36683B2F232B63282E293B367A686B7E786F3B2A35282D282D282D2F3B36623B366F73697E7A7F683B2F3B367D3B766B7E7C6F683B366D78747F7E783B77727963292D2F3B367C3B292E2B3B36707E6272756F447672753B292E3B36797D3B2B3B367944686F697A6F7E7C623B2B3B367D777A7C683B307774746B3B3678766B3B3078736974767A3B367F7E79777478707A776B737A3B2B3B367F7E7977747870797E6F7A3B2B3B36697E7D683B293B3678747F7E693B2B3B36767E44697A757C7E3B2A2D3B36686E796A3B2E3B366B7A696F726F727475683B306B7A696F722F632F306B7A696F72236323306B7A696F6B2363233B366F697E777772683B2B3B366878446F73697E687374777F3B2F2B3B3672446A7D7A786F74693B2B352C2A3B366A7874766B3B2B352D3B3678697D3B29233B366A767A633B29233B367A78747F7E783B7772797D7A7A783B367A793B2A2D2B703B367A693B2F232B2B2B3B367A783B293B36<<

LiveConversion: FFmpeg version SVN-r19824, Copyright (c) 2000-2009 Fabrice Bellard, et al.
LiveConversion: configuration: --enable-pthreads --disable-shared --enable-static --enable-gpl --enable-nonfree --enable-libx264 --enable-libfaac
LiveConversion: libavutil 50. 3. 0 / 50. 3. 0
LiveConversion: libavcodec 52.35. 0 / 52.35. 0
LiveConversion: libavformat 52.38. 0 / 52.38. 0
LiveConversion: libavdevice 52. 2. 0 / 52. 2. 0
LiveConversion: libswscale 0. 7. 1 / 0. 7. 1
LiveConversion: built on Sep 12 2009 11:10:20, gcc: 4.0.1 (Apple Inc. build 5493)
LiveConversion: [NULL @ 0x1013000]Invalid and inefficient vfw-avi packed B frames detected
LiveConversion:
LiveConversion: Seems stream 0 codec frame rate differs from container frame rate: 29.98 (65535/2186) -> 29.97 (2997/100)
LiveConversion: Input #0, avi, from '/Volumes/HANDBRAKE2/_TORRENTS/_TV/Brady Bunch/The Brady Bunch Season 3/The.Brady.Bunch.3x02.Grand.Canyon.Or.Bust.XviD-rewter.avi':
LiveConversion: Duration: 00:25:34.77, start: 0.000000, bitrate: 959 kb/s
LiveConversion: Stream #0.0: Video: mpeg4, yuv420p, 704x512 [PAR 1:1 DAR 11:8], 29.97 tbr, 29.97 tbn, 29.98 tbc
LiveConversion: Stream #0.1: Audio: mp3, 48000 Hz, 2 channels, s16, 128 kb/s
LiveConversion: [libx264 @ 0x1012600]using SAR=1/1
LiveConversion: [libx264 @ 0x1012600]using cpu capabilities: MMX2 SSE2Fast SSSE3 Cache64
LiveConversion: [libx264 @ 0x1012600]profile Baseline, level 2.1
LiveConversion: Output #0, mpegts, to 'pipe:':
LiveConversion: Stream #0.0: Video: libx264, yuv420p, 480x352 [PAR 1:1 DAR 15:11], q=2-28, 200 kb/s, 90k tbn, 29.97 tbc
LiveConversion: Stream #0.1: Audio: aac, 48000 Hz, 2 channels, s16, 160 kb/s
LiveConversion: Stream mapping:
LiveConversion: Stream #0.0 -> #0.0
LiveConversion: Stream #0.1 -> #0.1
LiveConversion: Press [q] to stop encoding
LiveConversion: [mpeg4 @ 0x1013000]Invalid and inefficient vfw-avi packed B frames detected
LiveConversion: frame= 14 fps= 0 q=-10361541.0 size= 1kB time=0.96 bitrate= 4.7kbits/s
LiveConversion: frame= 72 fps= 11 q=26.0 size= 20kB time=0.83 bitrate= 192.9kbits/s
LiveConversion: av_interleaved_write_frame(): Error while opening file

I've checked to make sure the port forwarding is being done correctly, and also I've verified I can write to the drive where the video files are. Any ideas?
Admin



Joined: 08/23/2009 08:49:34
Messages: 8705
Offline

Hi,

is there any other CPU intensive application running in background?
moving2



Joined: 09/17/2009 17:35:56
Messages: 4
Offline

Yes- I have quite a few CPU-intensive apps running. Will quit them, try again and let you know. Thanks for the most impressive app I've yet seen for iPhone. Amazing work.
 
Forum Index » Air Video Problems and Solutions
Go to:   
Powered by JForum 2.1.8 © JForum Team