[Logo] Air Video Forum
  [Search] Search   [Recent Topics] Recent Topics   [Hottest Topics] Hottest Topics   [Members]  Member Listing   [Groups] Back to home page 
[Moderation Log] Moderation Log   [Register] Register / 
[Login] Login 
Messages posted by: emax
Forum Index » Profile for emax » Messages posted by emax
Author Message
Fantastic news
Admin wrote:It's never a good idea to install first beta on a device you are actually using. We'll fix Air Video of course.


When is scheduled this update ?

Thanks
Yes, this is a another Series wih 10bit profile that not wok!!

2013-06-06 20:28:30 LiveConversion: >>
39345A6B6B7772787A6F72747568345A72693B4D727F7E743B487E696D7E69357A6B6B345874756F7E756F6834497E68746E69787E68347A6D787475
6D393B3636687E7C767E756F36777E757C6F733B2F3B3636687E7C767E756F36747D7D687E6F3B2B3B36367874756D7E696872747536727F3B2B7D29
782B2B2928362F232C2C362F2C797936792B23223628292B7F282B23237A7A2A2F7A7D232E7D2C2922362F2C7D2E362F7F232D36227F2E28362E297D
222C7F2E79232F28223B36366B74696F36756E76797E693B2F2D2D282A3B366F73697E7A7F683B2F3B3668683B2B352B3B36723B39344D74776E767E
68347E567A344D727F7E743444487E69727E3B52753B587469687434567A717E686F72783B4B697275787E3B3440486E79417E6974463B567A717E68
6F72783B4B697275787E3B363B2B223B4053722A2B4B3B2C292B6B464063292D2F365A5A584640524F5A463576706D393B36767A6B3B2B212B372B21
2B3B36767A6B3B2B212A372B212A3B366D7D3B397869746B262A29232B212C292B212B212B373B68787A777E262A29232B212C292B3778746B62393B
367A686B7E786F3B2A29232B212C292B3B36623B367D3B766B7E7C6F683B367A686275783B362A3B366D78747F7E783B77727963292D2F3B366D7874
7F7E783B77727963292D2F3B367D777A7C68293B307D7A686F3B367D777A7C683B307774746B3B367C3B282B3B36707E6272756F447672753B2A3B36
797D3B2B3B367944686F697A6F7E7C623B2B3B3678766B3B3078736974767A3B36697E7D683B2A3B3678747F7E693B2B3B36767E44697A757C7E3B2A
2D3B36686E796A3B2F3B366B7A696F726F727475683B306B7A696F722F632F306B7A696F72236323306B7A696F6B2363233B366F697E777772683B2B
3B366878446F73697E687374777F3B2F2B3B3672446A7D7A786F74693B2B352C2A3B366A7874766B3B2B352D3B36796E7D6872617E3B2A2B292F703B
36793B2F292E2B703B36796F3B2F2E2B2B703B366A767A633B2F233B366A7672753B293B36693B292835222C2E3B367A78747F7E783B777279766B28
777A767E3B367A793B292E2D703B367A693B2323292B2B3B367A783B293B36
<<

2013-06-06 20:28:30 SegmentedEncoder: avconv version v0.8-2343-g468e020, Copyright (c) 2000-2012 the Libav developers
2013-06-06 20:28:30 SegmentedEncoder: built on Jul 18 2012 00:40:03 with llvm_gcc 4.2.1 (Based on Apple Inc. build 565 (LLVM build 2336.11.00)
2013-06-06 20:28:30 SegmentedEncoder: Input #0, matroska,webm, from '/Volumes/Video/Majestic Prince /[SubZero] Majestic Prince - 09 [Hi10P 720p].mkv':
2013-06-06 20:28:30 SegmentedEncoder: Duration: 00:23:55.97, start: 0.000000, bitrate: 1378 kb/s
2013-06-06 20:28:30 SegmentedEncoder: Chapter #0.0: start 0.000000, end 134.008000
2013-06-06 20:28:30 SegmentedEncoder: Metadata:
2013-06-06 20:28:30 SegmentedEncoder: title : Prologo
2013-06-06 20:28:30 SegmentedEncoder: Chapter #0.1: start 134.008000, end 224.015000
2013-06-06 20:28:30 SegmentedEncoder: Metadata:
2013-06-06 20:28:30 SegmentedEncoder: title : Opening
2013-06-06 20:28:30 SegmentedEncoder: Chapter #0.2: start 224.015000, end 851.976000
2013-06-06 20:28:30 SegmentedEncoder: Metadata:
2013-06-06 20:28:30 SegmentedEncoder: title : Parte 1
2013-06-06 20:28:30 SegmentedEncoder: Chapter #0.3: start 851.976000, end 1329.995000
2013-06-06 20:28:30 SegmentedEncoder: Metadata:
2013-06-06 20:28:30 SegmentedEncoder: title : Parte 2
2013-06-06 20:28:30 SegmentedEncoder: Chapter #0.4: start 1329.995000, end 1419.960000
2013-06-06 20:28:30 SegmentedEncoder: Metadata:
2013-06-06 20:28:30 SegmentedEncoder: title : Ending
2013-06-06 20:28:30 SegmentedEncoder: Chapter #0.5: start 1419.960000, end 1435.976000
2013-06-06 20:28:30 SegmentedEncoder: Metadata:
2013-06-06 20:28:30 SegmentedEncoder: title : Anticipazioni
2013-06-06 20:28:30 SegmentedEncoder: Stream #0.0(jpn): Video: h264 (High 10), yuv420p10le, 1280x720 [PAR 1:1 DAR 16:9], 23.98 fps, 23.98 tbr, 1k tbn, 47.95 tbc (default)
2013-06-06 20:28:30 SegmentedEncoder: Metadata:
2013-06-06 20:28:30 SegmentedEncoder: title : Majestic Prince - 09
2013-06-06 20:28:30 SegmentedEncoder: Stream #0.1(jpn): Audio: aac, 88200 Hz, stereo, s16 (default)
2013-06-06 20:28:30 SegmentedEncoder: Stream #0.2(ita): Subtitle: ass (default)
2013-06-06 20:28:30 SegmentedEncoder: Metadata:
2013-06-06 20:28:30 SegmentedEncoder: title : Styled subs
2013-06-06 20:28:30 SegmentedEncoder: Stream #0.3: Attachment: [0][0][0][0] / 0x0000
2013-06-06 20:28:30 SegmentedEncoder: Metadata:
2013-06-06 20:28:30 SegmentedEncoder: filename : Diamante.ttf
2013-06-06 20:28:30 SegmentedEncoder: mimetype : application/x-truetype-font
2013-06-06 20:28:30 SegmentedEncoder: Stream #0.4: Attachment: [0][0][0][0] / 0x0000
2013-06-06 20:28:30 SegmentedEncoder: Metadata:
2013-06-06 20:28:30 SegmentedEncoder: filename : Elements.ttf
2013-06-06 20:28:30 SegmentedEncoder: mimetype : application/x-truetype-font
2013-06-06 20:28:30 SegmentedEncoder: Stream #0.5: Attachment: [0][0][0][0] / 0x0000
2013-06-06 20:28:30 SegmentedEncoder: Metadata:
2013-06-06 20:28:30 SegmentedEncoder: filename : Forgottb.ttf
2013-06-06 20:28:30 SegmentedEncoder: mimetype : application/x-truetype-font
2013-06-06 20:28:30 SegmentedEncoder: Stream #0.6: Attachment: [0][0][0][0] / 0x0000
2013-06-06 20:28:30 SegmentedEncoder: Metadata:
2013-06-06 20:28:30 SegmentedEncoder: filename : FTLTLT.TTF
2013-06-06 20:28:30 SegmentedEncoder: mimetype : application/x-truetype-font
2013-06-06 20:28:30 SegmentedEncoder: Stream #0.7: Attachment: [0][0][0][0] / 0x0000
2013-06-06 20:28:30 SegmentedEncoder: Metadata:
2013-06-06 20:28:30 SegmentedEncoder: filename : GARABD.TTF
2013-06-06 20:28:30 SegmentedEncoder: mimetype : application/x-truetype-font
2013-06-06 20:28:30 SegmentedEncoder: Stream #0.8: Attachment: [0][0][0][0] / 0x0000
2013-06-06 20:28:30 SegmentedEncoder: Metadata:
2013-06-06 20:28:30 SegmentedEncoder: filename : GosmickSansBold.ttf
2013-06-06 20:28:30 SegmentedEncoder: mimetype : application/x-truetype-font
2013-06-06 20:28:30 SegmentedEncoder: Stream #0.9: Attachment: [0][0][0][0] / 0x0000
2013-06-06 20:28:30 SegmentedEncoder: Metadata:
2013-06-06 20:28:30 SegmentedEncoder: filename : KozMinPr6N-Bold.otf
2013-06-06 20:28:30 SegmentedEncoder: mimetype : application/x-truetype-font
2013-06-06 20:28:30 SegmentedEncoder: Stream #0.10: Attachment: [0][0][0][0] / 0x0000
2013-06-06 20:28:30 SegmentedEncoder: Metadata:
2013-06-06 20:28:30 SegmentedEncoder: filename : Sugo.otf
2013-06-06 20:28:30 SegmentedEncoder: mimetype : application/x-truetype-font
2013-06-06 20:28:30 SegmentedEncoder: Stream #0.11: Attachment: [0][0][0][0] / 0x0000
2013-06-06 20:28:30 SegmentedEncoder: Metadata:
2013-06-06 20:28:30 SegmentedEncoder: filename : Tuffy.ttf
2013-06-06 20:28:30 SegmentedEncoder: mimetype : application/x-truetype-font
2013-06-06 20:28:30 SegmentedEncoder: [libx264 @ 0x1010f5820] VBV maxrate unspecified, assuming CBR
2013-06-06 20:28:30 SegmentedEncoder: [libx264 @ 0x1010f5820] using SAR=1/1
2013-06-06 20:28:30 SegmentedEncoder: [libx264 @ 0x1010f5820] using cpu capabilities: MMX2 SSE2Fast SSSE3 FastShuffle SSE4.2 AVX
2013-06-06 20:28:30 SegmentedEncoder: [libx264 @ 0x1010f5820] profile High, level 3.1
2013-06-06 20:28:30 SegmentedEncoder: [libmp3lame @ 0x1010c3a20] Specified sample_rate is not supported
2013-06-06 20:28:30 SegmentedEncoder: Output #0, mpegts, to 'pipe:':
2013-06-06 20:28:30 SegmentedEncoder: Chapter #0.0: start 0.000000, end 134.008000
2013-06-06 20:28:30 SegmentedEncoder: Metadata:
2013-06-06 20:28:30 SegmentedEncoder: title : Prologo
2013-06-06 20:28:30 SegmentedEncoder: Chapter #0.1: start 134.008000, end 224.015000
2013-06-06 20:28:30 SegmentedEncoder: Metadata:
2013-06-06 20:28:30 SegmentedEncoder: title : Opening
2013-06-06 20:28:30 SegmentedEncoder: Chapter #0.2: start 224.015000, end 851.976000
2013-06-06 20:28:30 SegmentedEncoder: Metadata:
2013-06-06 20:28:30 SegmentedEncoder: title : Parte 1
2013-06-06 20:28:30 SegmentedEncoder: Chapter #0.3: start 851.976000, end 1329.995000
2013-06-06 20:28:30 SegmentedEncoder: Metadata:
2013-06-06 20:28:30 SegmentedEncoder: title : Parte 2
2013-06-06 20:28:30 SegmentedEncoder: Chapter #0.4: start 1329.995000, end 1419.960000
2013-06-06 20:28:30 SegmentedEncoder: Metadata:
2013-06-06 20:28:30 SegmentedEncoder: title : Ending
2013-06-06 20:28:30 SegmentedEncoder: Chapter #0.5: start 1419.960000, end 1435.976000
2013-06-06 20:28:30 SegmentedEncoder: Metadata:
2013-06-06 20:28:30 SegmentedEncoder: title : Anticipazioni
2013-06-06 20:28:30 SegmentedEncoder: Stream #0.0(jpn): Video: libx264, yuv420p, 1280x720 [PAR 1:1 DAR 16:9], q=2-48, 4250 kb/s, 90k tbn, 23.98 tbc (default)
2013-06-06 20:28:30 SegmentedEncoder: Metadata:
2013-06-06 20:28:30 SegmentedEncoder: title : Majestic Prince - 09
2013-06-06 20:28:30 SegmentedEncoder: Stream #0.1(jpn): Audio: libmp3lame, 88200 Hz, stereo, s16, 256 kb/s (default)
2013-06-06 20:28:30 SegmentedEncoder: Stream mapping:
2013-06-06 20:28:30 SegmentedEncoder: Stream #0:0 -> #0:0 (h264 -> libx264)
2013-06-06 20:28:30 SegmentedEncoder: Stream #0:1 -> #0:1 (aac -> libmp3lame)
2013-06-06 20:28:30 SegmentedEncoder: Error while opening encoder for output stream #0:1 - maybe incorrect parameters such as bit_rate, rate, width or height
2013-06-04 20:58:57 LiveConversion: >>
39345A6B6B7772787A6F72747568345A72693B4D727F7E743B487E696D7E69357A6B6B345874756F7E756F6834497E68746E69787E68347A6D787475
6D393B3636687E7C767E756F36777E757C6F733B2F3B3636687E7C767E756F36747D7D687E6F3B2B3B36367874756D7E696872747536727F3B297E78
292D79237D362A797F22362F2E792C3679227D2F367D7F222E282D7878297F2F2F787F2A2C2D2D2B2D36797A287D362F2A2F2A36237F7D2D367E7F7D
2D2F287A222E2A797A3B36366B74696F36756E76797E693B2F2D2D282A3B366F73697E7A7F683B2F3B3668683B2B352B3B36723B39344D74776E767E
68347E567A344D727F7E743444487E69727E3B52753B587469687434417E7C7A6B7A72753B3440486E79417E6974463B417E7C7A6B7A72753B363B2B
293B4059776E36697A623B53722A2B4B3B2C292B6B464063292D2F365A5A584640524F5A463576706D393B36767A6B3B2B212B372B212B3B36767A6B
3B2B212A372B212A3B366D7D3B397869746B262A29232B212C292B212B212B373B68787A777E262A29232B212C292B3778746B62393B367A686B7E78
6F3B2A29232B212C292B3B36623B367D3B766B7E7C6F683B367A686275783B362A3B366D78747F7E783B77727963292D2F3B366D78747F7E783B7772
7963292D2F3B367D777A7C68293B307D7A686F3B367D777A7C683B307774746B3B367C3B282B3B36707E6272756F447672753B2A3B36797D3B2B3B36
7944686F697A6F7E7C623B2B3B3678766B3B3078736974767A3B36697E7D683B2A3B3678747F7E693B2B3B36767E44697A757C7E3B2A2D3B36686E79
6A3B2F3B366B7A696F726F727475683B306B7A696F722F632F306B7A696F72236323306B7A696F6B2363233B366F697E777772683B2B3B366878446F
73697E687374777F3B2F2B3B3672446A7D7A786F74693B2B352C2A3B366A7874766B3B2B352D3B36796E7D6872617E3B2A2B292F703B36793B2F292E
2B703B36796F3B2F2E2B2B703B366A767A633B2F233B366A7672753B293B36693B292835222C2E3B367A78747F7E783B777279766B28777A767E3B36
7A793B292E2D703B367A693B222D2B2B2B3B367A783B293B36
<<

2013-06-04 20:58:57 SegmentedEncoder: avconv version v0.8-2343-g468e020, Copyright (c) 2000-2012 the Libav developers
2013-06-04 20:58:57 SegmentedEncoder: built on Jul 18 2012 00:40:03 with llvm_gcc 4.2.1 (Based on Apple Inc. build 565 (LLVM build 2336.11.00)
2013-06-04 20:58:57 SegmentedEncoder: Input #0, matroska,webm, from '/Video/[SubZero] Zegapain - 02 [Blu-ray Hi10P 720p][x264-AAC].mkv':
2013-06-04 20:58:57 SegmentedEncoder: Duration: 00:23:22.47, start: 0.000000, bitrate: 1916 kb/s
2013-06-04 20:58:57 SegmentedEncoder: Chapter #0.0: start 0.000000, end 90.090000
2013-06-04 20:58:57 SegmentedEncoder: Metadata:
2013-06-04 20:58:57 SegmentedEncoder: title : Opening
2013-06-04 20:58:57 SegmentedEncoder: Chapter #0.1: start 90.090000, end 672.213000
2013-06-04 20:58:57 SegmentedEncoder: Metadata:
2013-06-04 20:58:57 SegmentedEncoder: title : Parte 1
2013-06-04 20:58:57 SegmentedEncoder: Chapter #0.2: start 672.213000, end 1280.320000
2013-06-04 20:58:57 SegmentedEncoder: Metadata:
2013-06-04 20:58:57 SegmentedEncoder: title : Parte 2
2013-06-04 20:58:57 SegmentedEncoder: Chapter #0.3: start 1280.320000, end 1370.369000
2013-06-04 20:58:57 SegmentedEncoder: Metadata:
2013-06-04 20:58:57 SegmentedEncoder: title : Ending
2013-06-04 20:58:57 SegmentedEncoder: Chapter #0.4: start 1370.369000, end 1402.474000
2013-06-04 20:58:57 SegmentedEncoder: Metadata:
2013-06-04 20:58:57 SegmentedEncoder: title : Anticipazioni
2013-06-04 20:58:57 SegmentedEncoder: Stream #0.0(jpn): Video: h264 (High 10), yuv420p10le, 1280x720 [PAR 1:1 DAR 16:9], 23.98 fps, 23.98 tbr, 1k tbn, 47.95 tbc (default)
2013-06-04 20:58:57 SegmentedEncoder: Metadata:
2013-06-04 20:58:57 SegmentedEncoder: title : Zegapain - 02
2013-06-04 20:58:57 SegmentedEncoder: Stream #0.1(jpn): Audio: aac, 96000 Hz, stereo, s16 (default)
2013-06-04 20:58:57 SegmentedEncoder: Stream #0.2(ita): Subtitle: ass (default)
2013-06-04 20:58:57 SegmentedEncoder: Metadata:
2013-06-04 20:58:57 SegmentedEncoder: title : Sottotitoli con karaoke e credits
2013-06-04 20:58:57 SegmentedEncoder: Stream #0.3(ita): Subtitle: ass
2013-06-04 20:58:57 SegmentedEncoder: Metadata:
2013-06-04 20:58:57 SegmentedEncoder: title : Sottotitoli senza karaoke e credits
2013-06-04 20:58:57 SegmentedEncoder: Stream #0.4: Attachment: [0][0][0][0] / 0x0000
2013-06-04 20:58:57 SegmentedEncoder: Metadata:
2013-06-04 20:58:57 SegmentedEncoder: filename : Amira-Semibold_0.otf
2013-06-04 20:58:57 SegmentedEncoder: mimetype : application/x-truetype-font
2013-06-04 20:58:57 SegmentedEncoder: Stream #0.5: Attachment: [0][0][0][0] / 0x0000
2013-06-04 20:58:57 SegmentedEncoder: Metadata:
2013-06-04 20:58:57 SegmentedEncoder: filename : BNEG98.ttf
2013-06-04 20:58:57 SegmentedEncoder: mimetype : application/x-truetype-font
2013-06-04 20:58:57 SegmentedEncoder: Stream #0.6: Attachment: [0][0][0][0] / 0x0000
2013-06-04 20:58:57 SegmentedEncoder: Metadata:
2013-06-04 20:58:57 SegmentedEncoder: filename : Bodonitown.ttf
2013-06-04 20:58:57 SegmentedEncoder: mimetype : application/x-truetype-font
2013-06-04 20:58:57 SegmentedEncoder: Stream #0.7: Attachment: [0][0][0][0] / 0x0000
2013-06-04 20:58:57 SegmentedEncoder: Metadata:
2013-06-04 20:58:57 SegmentedEncoder: filename : Forgottb.ttf
2013-06-04 20:58:57 SegmentedEncoder: mimetype : application/x-truetype-font
2013-06-04 20:58:57 SegmentedEncoder: Stream #0.8: Attachment: [0][0][0][0] / 0x0000
2013-06-04 20:58:57 SegmentedEncoder: Metadata:
2013-06-04 20:58:57 SegmentedEncoder: filename : gishabd.ttf
2013-06-04 20:58:57 SegmentedEncoder: mimetype : application/x-truetype-font
2013-06-04 20:58:57 SegmentedEncoder: Stream #0.9: Attachment: [0][0][0][0] / 0x0000
2013-06-04 20:58:57 SegmentedEncoder: Metadata:
2013-06-04 20:58:57 SegmentedEncoder: filename : PTS75F.ttf
2013-06-04 20:58:57 SegmentedEncoder: mimetype : application/x-truetype-font
2013-06-04 20:58:57 SegmentedEncoder: Stream #0.10: Attachment: [0][0][0][0] / 0x0000
2013-06-04 20:58:57 SegmentedEncoder: Metadata:
2013-06-04 20:58:57 SegmentedEncoder: filename : PTS76F.ttf
2013-06-04 20:58:57 SegmentedEncoder: mimetype : application/x-truetype-font
2013-06-04 20:58:57 SegmentedEncoder: Stream #0.11: Attachment: [0][0][0][0] / 0x0000
2013-06-04 20:58:57 SegmentedEncoder: Metadata:
2013-06-04 20:58:57 SegmentedEncoder: filename : ZEGAfont.ttf
2013-06-04 20:58:57 SegmentedEncoder: mimetype : application/x-truetype-font
2013-06-04 20:58:57 SegmentedEncoder: [libx264 @ 0x1010bf820] VBV maxrate unspecified, assuming CBR
2013-06-04 20:58:57 SegmentedEncoder: [libx264 @ 0x1010bf820] using SAR=1/1
2013-06-04 20:58:57 SegmentedEncoder: [libx264 @ 0x1010bf820] using cpu capabilities: MMX2 SSE2Fast SSSE3 FastShuffle SSE4.2 AVX
2013-06-04 20:58:57 SegmentedEncoder: [libx264 @ 0x1010bf820] profile High, level 3.1
2013-06-04 20:58:57 SegmentedEncoder: [libmp3lame @ 0x1010c0620] Specified sample_rate is not supported
2013-06-04 20:58:57 SegmentedEncoder: Output #0, mpegts, to 'pipe:':
2013-06-04 20:58:57 SegmentedEncoder: Chapter #0.0: start 0.000000, end 90.090000
2013-06-04 20:58:57 SegmentedEncoder: Metadata:
2013-06-04 20:58:57 SegmentedEncoder: title : Opening
2013-06-04 20:58:57 SegmentedEncoder: Chapter #0.1: start 90.090000, end 672.213000
2013-06-04 20:58:57 SegmentedEncoder: Metadata:
2013-06-04 20:58:57 SegmentedEncoder: title : Parte 1
2013-06-04 20:58:57 SegmentedEncoder: Chapter #0.2: start 672.213000, end 1280.320000
2013-06-04 20:58:57 SegmentedEncoder: Metadata:
2013-06-04 20:58:57 SegmentedEncoder: title : Parte 2
2013-06-04 20:58:57 SegmentedEncoder: Chapter #0.3: start 1280.320000, end 1370.369000
2013-06-04 20:58:57 SegmentedEncoder: Metadata:
2013-06-04 20:58:57 SegmentedEncoder: title : Ending
2013-06-04 20:58:57 SegmentedEncoder: Chapter #0.4: start 1370.369000, end 1402.474000
2013-06-04 20:58:57 SegmentedEncoder: Metadata:
2013-06-04 20:58:57 SegmentedEncoder: title : Anticipazioni
2013-06-04 20:58:57 SegmentedEncoder: Stream #0.0(jpn): Video: libx264, yuv420p, 1280x720 [PAR 1:1 DAR 16:9], q=2-48, 4250 kb/s, 90k tbn, 23.98 tbc (default)
2013-06-04 20:58:57 SegmentedEncoder: Metadata:
2013-06-04 20:58:57 SegmentedEncoder: title : Zegapain - 02
2013-06-04 20:58:57 SegmentedEncoder: Stream #0.1(jpn): Audio: libmp3lame, 96000 Hz, stereo, s16, 256 kb/s (default)
2013-06-04 20:58:57 SegmentedEncoder: Stream mapping:
2013-06-04 20:58:57 SegmentedEncoder: Stream #0:0 -> #0:0 (h264 -> libx264)
2013-06-04 20:58:57 SegmentedEncoder: Stream #0:1 -> #0:1 (aac -> libmp3lame)
2013-06-04 20:58:57 SegmentedEncoder: Error while opening encoder for output stream #0:1 - maybe incorrect parameters such as bit_rate, rate, width or height

Help
Admin wrote:Hi,

next Air Video version will have soft subtitles.


Eta for this next version ?
+1
No ETA per new version ?
When go out from 2.4.6 beta
Hi,

It's possible add a support for last X86 dual core Synology ( Intel Atom 2.13GHz ) ?
Admin wrote:Which bitrates do you have enabled in Air Video Global Settings?


sorry sorry sorry

i solved my problem: bitrate is was set to 64k (why?) Now i select 5120k and now works
emax wrote:After update to 10.8.2 (official build 12C54), i have sound (orrible quality) and no video ( screen black )
Whit previous 10.8.2 build ( 12C50 ) no problem with AirVide o


Help
Hi,

when new beta to fix problem with OS X 10.8.2 ?
After update to 10.8.2 (official build 12C54), i have sound (orrible quality) and no video ( screen black )
Whit previous 10.8.2 build ( 12C50 ) no problem with AirVide o
Out beta 3
Admin wrote:On the other hand, submitting the update today might not have been best idea

http://arstechnica.com/apple/2012/07/recent-ios-mac-app-crashes-linked-to-botched-fairplay-drm/


News from App Store ???
 
Forum Index » Profile for emax » Messages posted by emax
Go to:   
Powered by JForum 2.1.8 © JForum Team