[Logo] Air Video Forum
  [Search] Search   [Recent Topics] Recent Topics   [Hottest Topics] Hottest Topics   [Members]  Member Listing   [Groups] Back to home page 
[Moderation Log] Moderation Log   [Register] Register / 
[Login] Login 
Messages posted by: bry2k
Forum Index » Profile for bry2k » Messages posted by bry2k
Author Message
On a related note, it would also be nice if Air Video could follow aliases to files (Mac version of the server).

Thanks,
Bryan
Here's a really cool product for Mac users that can solve port forwarding issues in a variety of cases.

http://codelaide.com/blog/products/lighthouse/

-Bryan
I would just like to observe that "Ronnel" is a *****.

I love Air Video and look forward to it's continued development.

-Bryan
I would like Air Video to scan subfolders of the folders I've added in the Shared Folders.

ie, if I add ~/Movies/ then Air Video would find movie files ie, ~/Movies/Education/movie.mov

Perhaps add a checkbox for "Scan subfolders" next to each folder added to the Shared Folders. That would be quite useful.

Thanks,
Bryan
Here's the logs from the Air Server logs window...case it helps.

LiveConversion: >>
39345A6B6B7772787A6F72747568344D727F7E743B5A6B6B7772787A6F72747568344D727F7E743B4B777A627E6968345A72693B4D727F7E743B487E
696D7E69357A6B6B345874756F7E756F6834497E68746E69787E68347D7D766B7E7C393B36367874756D7E696872747536727F3B227D2D282B2A2F23
36792E7828362F2B2B2D36792F292336282A2B232C237A2E2A7E792C3B36366B74696F36756E76797E693B2F2D2D282A3B366F73697E7A7F683B2F3B
367D777A7C68293B307D7A686F3B367D777A7C683B307774746B3B367C3B292E2B3B36707E6272756F447672753B292E3B36797D3B2B3B367944686F
697A6F7E7C623B2B3B3678766B3B3078736974767A3B367F7E79777478707A776B737A3B2B3B367F7E7977747870797E6F7A3B2B3B36697E7D683B2A
3B3678747F7E693B2B3B36767E44697A757C7E3B2A2D3B36686E796A3B2E3B366B7A696F726F727475683B306B7A696F722F632F306B7A696F722363
23306B7A696F6B2363233B366F697E777772683B2B3B366878446F73697E687374777F3B2F2B3B3672446A7D7A786F74693B2B352C2A3B366A787476
6B3B2B352D3B36767A6B3B2B352B212B352B3B367A753B3668683B2B352B3B36723B39344E687E696834797C74777F7E693456746D727E683436575E
5A495552555C3B4B4954515E584F4836345A5E285F3B4B6974717E786F34697E757F7E6935762F6D393B367869746B777E7D6F3B2B3B367869746B69
727C736F3B2B3B367869746B6F746B3B2B3B367869746B79746F6F74763B2B3B36683B2E2D236328292B3B367A686B7E786F3B2A352C2C2E3B36623B
367D3B766B7E7C6F683B366D78747F7E783B77727963292D2F3B36796E7D6872617E3B2A2923703B36793B2A2C2B2B703B36796F3B2A232B2B703B36
6A767A633B2F233B366A7672753B293B367A78747F7E783B777279766B28777A767E3B367A793B2A2229703B367A693B2F2F2A2B2B3B367A783B293B
36
<<

Encoder: FFmpeg version UNKNOWN, Copyright (c) 2000-2010 Fabrice Bellard, et al.
Encoder: built on Feb 7 2010 11:39:45 with gcc 4.0.1 (Apple Inc. build 5493)
Encoder: configuration: --enable-pthreads --disable-shared --enable-static --enable-gpl --enable-libx264 --enable-libmp3lame --enable-libfaad --disable-decoder=aac
Encoder: libavutil 50. 8. 0 / 50. 8. 0
Encoder: libavcodec 52.52. 0 / 52.52. 0
Encoder: libavformat 52.50. 0 / 52.50. 0
Encoder: libavdevice 52. 2. 0 / 52. 2. 0
Encoder: libswscale 0.10. 0 / 0.10. 0
Encoder:
Encoder: Seems stream 0 codec frame rate differs from container frame rate: 5994.00 (5994/1) -> 23.98 (24000/1001)
Encoder: Input #0, mov,mp4,m4a,3gp,3g2,mj2, from '/Users/bgolder/Movies/-LEARNING PROJECTS-/AE3D Project/render.m4v':
Encoder: Metadata:
Encoder: major_brand : M4VH
Encoder: minor_version : 1
Encoder: compatible_brands: M4VHM4A mp42isom
Encoder: Duration: 00:00:02.87, start: 0.000000, bitrate: 4977 kb/s
Encoder: Stream #0.0(eng): Video: h264, yuv420p, 1280x720, 4972 kb/s, 23.98 fps, 23.98 tbr, 2997 tbn, 5994 tbc
Encoder: [libx264 @ 0x1004800]using SAR=1/1
Encoder: [libx264 @ 0x1004800]using cpu capabilities: MMX2 SSE2Fast SSSE3 FastShuffle SSE4.1 Cache64
Encoder: [libx264 @ 0x1004800]VBV maxrate unspecified, assuming CBR
Encoder: [libx264 @ 0x1004800]profile Baseline, level 2.1
Encoder: Output #0, mpegts, to 'pipe:':
Encoder: Stream #0.0(eng): Video: libx264, yuv420p, 568x320 [PAR 1:1 DAR 71:40], q=2-48, 1700 kb/s, 90k tbn, 23.98 tbc
Encoder: Stream mapping:
Encoder: Stream #0.0 -> #0.0
Encoder: Press [q] to stop encoding
LiveConversion: >>
39345A6B6B7772787A6F72747568344D727F7E743B5A6B6B7772787A6F72747568344D727F7E743B4B777A627E6968345A72693B4D727F7E743B487E
696D7E69357A6B6B345874756F7E756F6834497E68746E69787E68347D7D766B7E7C393B687E7C767E756F7E693B2A2B3B2B
<<

Encoder: frame= 49 fps= 0 q=7.0 size= 8kB time=0.08 bitrate= 757.2kbits/s
Encoder: video:517kB audio:0kB global headers:0kB muxing overhead 5.977361%
Encoder: [libx264 @ 0x1004800]frame I:1 Avg QP: 6.22 size: 4582
Encoder: [libx264 @ 0x1004800]frame P:68 Avg QP:16.55 size: 7712
Encoder: [libx264 @ 0x1004800]mb I I16..4: 93.1% 0.0% 6.9%
Encoder: [libx264 @ 0x1004800]mb P I16..4: 4.6% 0.0% 5.6% P16..4: 18.2% 15.3% 11.6% 0.0% 0.0% skip:44.7%
Encoder: [libx264 @ 0x1004800]coded y,uvDC,uvAC intra: 49.5% 60.0% 38.7% inter: 30.5% 27.9% 14.3%
Encoder: [libx264 @ 0x1004800]i16 v,h,dc,p: 59% 20% 16% 5%
Encoder: [libx264 @ 0x1004800]i4 v,h,dc,ddl,ddr,vr,hd,vl,hu: 23% 17% 24% 4% 9% 8% 6% 5% 4%
Encoder: [libx264 @ 0x1004800]kb/s:1470.52
LiveConversion: Encoder Process Done, closing segmenter.
Segmenter: [h264 @ 0x1004200]missing picture in access unit
Segmenter: [mpegts @ 0x1000200]Estimating duration from bitrate, this may be inaccurate
Segmenter: Output #0, mpegts, to '':
Segmenter: Stream #0.0: Video: libx264, yuv420p, 568x320, q=2-31, 90k tbn, 23.98 tbc
Segmenter: [mpegts @ 0x1012e00]stream 0, bit rate is not set, this will cause problems
Segmenter: Offsetting timestamps by:0.000000
Segmenter: [NULL @ 0x1004200]missing picture in access unit
Segmenter: Wrote segment 0 -- final
LiveConversion: >>
39345A6B6B7772787A6F72747568344D727F7E743B5A6B6B7772787A6F72747568344D727F7E743B4B777A627E6968345A72693B4D727F7E743B487E
696D7E69357A6B6B345874756F7E756F6834497E68746E69787E68347D7D766B7E7C393B36367874756D7E696872747536727F3B2D2929287E22237E
362A2B7D7D362F7D7D2C367923282336787D797D2E2C7F2C2A2D7E283B36366B74696F36756E76797E693B2F2D2D282A3B366F73697E7A7F683B2F3B
367D777A7C68293B307D7A686F3B367D777A7C683B307774746B3B367C3B292E2B3B36707E6272756F447672753B292E3B36797D3B2B3B367944686F
697A6F7E7C623B2B3B3678766B3B3078736974767A3B367F7E79777478707A776B737A3B2B3B367F7E7977747870797E6F7A3B2B3B36697E7D683B2A
3B3678747F7E693B2B3B36767E44697A757C7E3B2A2D3B36686E796A3B2E3B366B7A696F726F727475683B306B7A696F722F632F306B7A696F722363
23306B7A696F6B2363233B366F697E777772683B2B3B366878446F73697E687374777F3B2F2B3B3672446A7D7A786F74693B2B352C2A3B366A787476
6B3B2B352D3B36767A6B3B2B352B212B352B3B367A753B3668683B2B352B3B36723B39344E687E696834797C74777F7E693456746D727E683436575E
5A495552555C3B4B4954515E584F4836345A5E3B363B4D727F58746B7277746F3B577E7A697572757C34697E757F7E69442A365335292D2F3B7D7469
3B5A6B6B777E3B4F4D35762F6D393B367869746B777E7D6F3B2B3B367869746B69727C736F3B2B3B367869746B6F746B3B2B3B367869746B79746F6F
74763B2B3B36683B2E2D236328292B3B367A686B7E786F3B2A352C2C2E3B36623B367D3B766B7E7C6F683B366D78747F7E783B77727963292D2F3B36
796E7D6872617E3B2A2923703B36793B2A2C2B2B703B36796F3B2A232B2B703B366A767A633B2F233B366A7672753B293B367A78747F7E783B777279
766B28777A767E3B367A793B2A2229703B367A693B2F2F2A2B2B3B367A783B293B36
<<

Encoder: FFmpeg version UNKNOWN, Copyright (c) 2000-2010 Fabrice Bellard, et al.
Encoder: built on Feb 7 2010 11:39:45 with gcc 4.0.1 (Apple Inc. build 5493)
Encoder: configuration: --enable-pthreads --disable-shared --enable-static --enable-gpl --enable-libx264 --enable-libmp3lame --enable-libfaad --disable-decoder=aac
Encoder: libavutil 50. 8. 0 / 50. 8. 0
Encoder: libavcodec 52.52. 0 / 52.52. 0
Encoder: libavformat 52.50. 0 / 52.50. 0
Encoder: libavdevice 52. 2. 0 / 52. 2. 0
Encoder: libswscale 0.10. 0 / 0.10. 0
Encoder:
Encoder: Seems stream 0 codec frame rate differs from container frame rate: 5994.00 (5994/1) -> 23.98 (24000/1001)
Encoder: Input #0, mov,mp4,m4a,3gp,3g2,mj2, from '/Users/bgolder/Movies/-LEARNING PROJECTS-/AE - VidCopilot Learning/render_1-H.264 for Apple TV.m4v':
Encoder: Metadata:
Encoder: major_brand : M4VH
Encoder: minor_version : 1
Encoder: compatible_brands: M4VHM4A mp42isom
Encoder: Duration: 00:00:05.08, start: 0.000000, bitrate: 4967 kb/s
Encoder: Stream #0.0(eng): Video: h264, yuv420p, 1280x720, 4964 kb/s, 23.98 fps, 23.98 tbr, 2997 tbn, 5994 tbc
Encoder: [libx264 @ 0x1005800]using SAR=1/1
Encoder: [libx264 @ 0x1005800]using cpu capabilities: MMX2 SSE2Fast SSSE3 FastShuffle SSE4.1 Cache64
Encoder: [libx264 @ 0x1005800]VBV maxrate unspecified, assuming CBR
Encoder: [libx264 @ 0x1005800]profile Baseline, level 2.1
Encoder: Output #0, mpegts, to 'pipe:':
Encoder: Stream #0.0(eng): Video: libx264, yuv420p, 568x320 [PAR 1:1 DAR 71:40], q=2-48, 1700 kb/s, 90k tbn, 23.98 tbc
Encoder: Stream mapping:
Encoder: Stream #0.0 -> #0.0
Encoder: Press [q] to stop encoding
LiveConversion: >>
39345A6B6B7772787A6F72747568344D727F7E743B5A6B6B7772787A6F72747568344D727F7E743B4B777A627E6968345A72693B4D727F7E743B487E
696D7E69357A6B6B345874756F7E756F6834497E68746E69787E68347D7D766B7E7C393B687E7C767E756F7E693B2A2B3B2B
<<

Encoder: frame= 49 fps= 0 q=21.0 size= 15kB time=0.08 bitrate=1460.3kbits/s
Encoder: video:968kB audio:0kB global headers:0kB muxing overhead 5.839381%
Encoder: [libx264 @ 0x1005800]frame I:1 Avg QP: 9.81 size: 5811
Encoder: [libx264 @ 0x1005800]frame P:121 Avg QP:16.49 size: 8140
Encoder: [libx264 @ 0x1005800]mb I I16..4: 89.0% 0.0% 11.0%
Encoder: [libx264 @ 0x1005800]mb P I16..4: 12.0% 0.0% 15.8% P16..4: 31.7% 30.5% 7.7% 0.0% 0.0% skip: 2.3%
Encoder: [libx264 @ 0x1005800]coded y,uvDC,uvAC intra: 63.6% 96.5% 87.2% inter: 34.0% 71.8% 21.7%
Encoder: [libx264 @ 0x1005800]i16 v,h,dc,p: 28% 41% 17% 14%
Encoder: [libx264 @ 0x1005800]i4 v,h,dc,ddl,ddr,vr,hd,vl,hu: 20% 39% 23% 3% 4% 3% 4% 2% 3%
Encoder: [libx264 @ 0x1005800]kb/s:1557.75
LiveConversion: Encoder Process Done, closing segmenter.
Segmenter: [h264 @ 0x1004200]missing picture in access unit
Segmenter: [mpegts @ 0x1000200]Estimating duration from bitrate, this may be inaccurate
Segmenter: Output #0, mpegts, to '':
Segmenter: Stream #0.0: Video: libx264, yuv420p, 568x320, q=2-31, 90k tbn, 23.98 tbc
Segmenter: [mpegts @ 0x1047600]stream 0, bit rate is not set, this will cause problems
Segmenter: Offsetting timestamps by:0.000000
Segmenter: [NULL @ 0x1004200]missing picture in access unit
Segmenter: Wrote segment 0 -- final
LiveConversion: >>
39345A6B6B7772787A6F72747568344D727F7E743B5A6B6B7772787A6F72747568344D727F7E743B4B777A627E6968345A72693B4D727F7E743B487E
696D7E69357A6B6B345874756F7E756F6834497E68746E69787E68347D7D766B7E7C393B36367874756D7E696872747536727F3B2D2A7D7D29222C2B
362A237D2E362F7D782F367A7A2F2A362C787E297A2D2A787A2C2C2D3B36366B74696F36756E76797E693B2F2D2D282A3B366F73697E7A7F683B2F3B
367D777A7C68293B307D7A686F3B367D777A7C683B307774746B3B367C3B292E2B3B36707E6272756F447672753B292E3B36797D3B2B3B367944686F
697A6F7E7C623B2B3B3678766B3B3078736974767A3B367F7E79777478707A776B737A3B2B3B367F7E7977747870797E6F7A3B2B3B36697E7D683B2A
3B3678747F7E693B2B3B36767E44697A757C7E3B2A2D3B36686E796A3B2E3B366B7A696F726F727475683B306B7A696F722F632F306B7A696F722363
23306B7A696F6B2363233B366F697E777772683B2B3B366878446F73697E687374777F3B2F2B3B3672446A7D7A786F74693B2B352C2A3B366A787476
6B3B2B352D3B36767A6B3B2B352B212B352B3B367A753B3668683B2B352B3B36723B39344E687E696834797C74777F7E693456746D727E683436575E
5A495552555C3B4B4954515E584F4836345A5E3659777E757F7E69365C74777F7E69767E7F727A3B57747C7434697E757F7E696834697E757F7E693B
6D2834697E757F7E694429446C726F733B7D7A7F7E683663292D2F362A3576746D393B367869746B777E7D6F3B2B3B367869746B69727C736F3B2B3B
367869746B6F746B3B2B3B367869746B79746F6F74763B2B3B36683B2E2D236328292B3B367A686B7E786F3B2A352C2C2E3B36623B367D3B766B7E7C
6F683B366D78747F7E783B77727963292D2F3B36796E7D6872617E3B2A2923703B36793B2A2C2B2B703B36796F3B2A232B2B703B366A767A633B2F23
3B366A7672753B293B367A78747F7E783B777279766B28777A767E3B367A793B2A2229703B367A693B2F2F2A2B2B3B367A783B293B36
<<

Encoder: FFmpeg version UNKNOWN, Copyright (c) 2000-2010 Fabrice Bellard, et al.
Encoder: built on Feb 7 2010 11:39:45 with gcc 4.0.1 (Apple Inc. build 5493)
Encoder: configuration: --enable-pthreads --disable-shared --enable-static --enable-gpl --enable-libx264 --enable-libmp3lame --enable-libfaad --disable-decoder=aac
Encoder: libavutil 50. 8. 0 / 50. 8. 0
Encoder: libavcodec 52.52. 0 / 52.52. 0
Encoder: libavformat 52.50. 0 / 52.50. 0
Encoder: libavdevice 52. 2. 0 / 52. 2. 0
Encoder: libswscale 0.10. 0 / 0.10. 0
Encoder:
Encoder: Seems stream 0 codec frame rate differs from container frame rate: 47.95 (48000/1001) -> 23.98 (24000/1001)
Encoder: Input #0, mov,mp4,m4a,3gp,3g2,mj2, from '/Users/bgolder/Movies/-LEARNING PROJECTS-/AE-Blender-Goldermedia Logo/renders/render v3/render_2_with fades-x264-1.mov':
Encoder: Metadata:
Encoder: major_brand : qt
Encoder: minor_version : 537199360
Encoder: compatible_brands: qt
Encoder: Duration: 00:00:03.00, start: 0.000000, bitrate: 6628 kb/s
Encoder: Stream #0.0(eng): Video: h264, yuv420p, 1280x720 [PAR 1:1 DAR 16:9], 6625 kb/s, 23.98 fps, 23.98 tbr, 23976 tbn, 47.95 tbc
Encoder: [libx264 @ 0x101c600]using SAR=1/1
Encoder: [libx264 @ 0x101c600]using cpu capabilities: MMX2 SSE2Fast SSSE3 FastShuffle SSE4.1 Cache64
Encoder: [libx264 @ 0x101c600]VBV maxrate unspecified, assuming CBR
Encoder: [libx264 @ 0x101c600]profile Baseline, level 2.1
Encoder: Output #0, mpegts, to 'pipe:':
Encoder: Stream #0.0(eng): Video: libx264, yuv420p, 568x320 [PAR 1:1 DAR 71:40], q=2-48, 1700 kb/s, 90k tbn, 23.98 tbc
Encoder: Stream mapping:
Encoder: Stream #0.0 -> #0.0
Encoder: Press [q] to stop encoding
Encoder: frame= 29 fps= 0 q=11821055.0 size= 1kB time=10000000000.00 bitrate= 0.0kbits/s
LiveConversion: >>
39345A6B6B7772787A6F72747568344D727F7E743B5A6B6B7772787A6F72747568344D727F7E743B4B777A627E6968345A72693B4D727F7E743B487E
696D7E69357A6B6B345874756F7E756F6834497E68746E69787E68347D7D766B7E7C393B687E7C767E756F7E693B2A2B3B2B
<<

Encoder: video:545kB audio:0kB global headers:0kB muxing overhead 5.965780%
Encoder: [libx264 @ 0x101c600]frame I:3 Avg QP:15.16 size: 7619
Encoder: [libx264 @ 0x101c600]frame P:69 Avg QP:22.95 size: 7758
Encoder: [libx264 @ 0x101c600]mb I I16..4: 69.8% 0.0% 30.2%
Encoder: [libx264 @ 0x101c600]mb P I16..4: 27.1% 0.0% 13.3% P16..4: 28.9% 21.2% 5.5% 0.0% 0.0% skip: 4.0%
Encoder: [libx264 @ 0x101c600]coded y,uvDC,uvAC intra: 38.4% 76.5% 61.0% inter: 46.3% 69.3% 24.7%
Encoder: [libx264 @ 0x101c600]i16 v,h,dc,p: 25% 36% 13% 26%
Encoder: [libx264 @ 0x101c600]i4 v,h,dc,ddl,ddr,vr,hd,vl,hu: 19% 30% 23% 4% 5% 6% 4% 3% 6%
Encoder: [libx264 @ 0x101c600]kb/s:1486.91
LiveConversion: Encoder Process Done, closing segmenter.
Segmenter: [h264 @ 0x1004200]missing picture in access unit
Segmenter: [mpegts @ 0x1000200]Estimating duration from bitrate, this may be inaccurate
Segmenter: Output #0, mpegts, to '':
Segmenter: Stream #0.0: Video: libx264, yuv420p, 568x320, q=2-31, 90k tbn, 23.98 tbc
Segmenter: [mpegts @ 0x1012c00]stream 0, bit rate is not set, this will cause problems
Segmenter: Offsetting timestamps by:0.000000
Segmenter: [NULL @ 0x1004200]missing picture in access unit
Segmenter: Wrote segment 0 -- final
LiveConversion: >>
39345A6B6B7772787A6F72747568344D727F7E743B5A6B6B7772787A6F72747568344D727F7E743B4B777A627E6968345A72693B4D727F7E743B487E
696D7E69357A6B6B345874756F7E756F6834497E68746E69787E68347D7D766B7E7C393B36367874756D7E696872747536727F3B2B2F7F7A797D282D
362E28792A362F2A227A36792E2A78367F7A2F2B2D2B7E2A297A7E2F3B36366B74696F36756E76797E693B2F2D2D282A3B366F73697E7A7F683B2F3B
367D777A7C68293B307D7A686F3B367D777A7C683B307774746B3B367C3B292E2B3B36707E6272756F447672753B292E3B36797D3B2B3B367944686F
697A6F7E7C623B2B3B3678766B3B3078736974767A3B367F7E79777478707A776B737A3B2B3B367F7E7977747870797E6F7A3B2B3B36697E7D683B2A
3B3678747F7E693B2B3B36767E44697A757C7E3B2A2D3B36686E796A3B2E3B366B7A696F726F727475683B306B7A696F722F632F306B7A696F722363
23306B7A696F6B2363233B366F697E777772683B2B3B366878446F73697E687374777F3B2F2B3B3672446A7D7A786F74693B2B352C2A3B366A787476
6B3B2B352D3B36767A6B3B2B352B212B352B3B367A753B3668683B2B352B3B36723B39344E687E696834797C74777F7E693456746D727E683436575E
5A495552555C3B4B4954515E584F4836345A5E3659777E757F7E69365C74777F7E69767E7F727A3B57747C7434697E757F7E696834697E757F7E693B
6D29347469727C72757A77347C74777F7E69767E7F727A3576746D393B367869746B777E7D6F3B2B3B367869746B69727C736F3B2B3B367869746B6F
746B3B2B3B367869746B79746F6F74763B2B3B36683B2E2D236328292B3B367A686B7E786F3B2A352C2C2E3B36623B367D3B766B7E7C6F683B366D78
747F7E783B77727963292D2F3B36796E7D6872617E3B2A2923703B36793B2A2C2B2B703B36796F3B2A232B2B703B366A767A633B2F233B366A767275
3B293B367A78747F7E783B777279766B28777A767E3B367A793B2A2229703B367A693B2F2F2A2B2B3B367A783B293B36
<<

Encoder: FFmpeg version UNKNOWN, Copyright (c) 2000-2010 Fabrice Bellard, et al.
Encoder: built on Feb 7 2010 11:39:45 with gcc 4.0.1 (Apple Inc. build 5493)
Encoder: configuration: --enable-pthreads --disable-shared --enable-static --enable-gpl --enable-libx264 --enable-libmp3lame --enable-libfaad --disable-decoder=aac
Encoder: libavutil 50. 8. 0 / 50. 8. 0
Encoder: libavcodec 52.52. 0 / 52.52. 0
Encoder: libavformat 52.50. 0 / 52.50. 0
Encoder: libavdevice 52. 2. 0 / 52. 2. 0
Encoder: libswscale 0.10. 0 / 0.10. 0
Encoder:
Encoder: Seems stream 0 codec frame rate differs from container frame rate: 47.95 (48000/1001) -> 24.21 (799/33)
Encoder: Input #0, mov,mp4,m4a,3gp,3g2,mj2, from '/Users/bgolder/Movies/-LEARNING PROJECTS-/AE-Blender-Goldermedia Logo/renders/render v2/original/goldermedia.mov':
Encoder: Metadata:
Encoder: major_brand : qt
Encoder: minor_version : 537199360
Encoder: compatible_brands: qt
Encoder: Duration: 00:00:02.97, start: 0.000000, bitrate: 1975 kb/s
Encoder: Stream #0.0(eng): Video: h264, yuv420p, 640x360 [PAR 1:1 DAR 16:9], 1970 kb/s, 24.21 fps, 24.21 tbr, 2397 tbn, 47.95 tbc
Encoder: [libx264 @ 0x1012200]using SAR=1/1
Encoder: [libx264 @ 0x1012200]using cpu capabilities: MMX2 SSE2Fast SSSE3 FastShuffle SSE4.1 Cache64
Encoder: [libx264 @ 0x1012200]VBV maxrate unspecified, assuming CBR
Encoder: [libx264 @ 0x1012200]profile Baseline, level 2.1
Encoder: Output #0, mpegts, to 'pipe:':
Encoder: Stream #0.0(eng): Video: libx264, yuv420p, 568x320 [PAR 1:1 DAR 71:40], q=2-48, 1700 kb/s, 90k tbn, 24.21 tbc
Encoder: Stream mapping:
Encoder: Stream #0.0 -> #0.0
Encoder: Press [q] to stop encoding
LiveConversion: >>
39345A6B6B7772787A6F72747568344D727F7E743B5A6B6B7772787A6F72747568344D727F7E743B4B777A627E6968345A72693B4D727F7E743B487E
696D7E69357A6B6B345874756F7E756F6834497E68746E69787E68347D7D766B7E7C393B687E7C767E756F7E693B2A2B3B2B
<<

Encoder: frame= 61 fps= 0 q=24.0 size= 99kB time=0.58 bitrate=1396.8kbits/s
Encoder: video:548kB audio:0kB global headers:0kB muxing overhead 5.910113%
Encoder: [libx264 @ 0x1012200]frame I:1 Avg QP:28.60 size: 9222
Encoder: [libx264 @ 0x1012200]frame P:71 Avg QP:21.90 size: 7773
Encoder: [libx264 @ 0x1012200]mb I I16..4: 61.9% 0.0% 38.1%
Encoder: [libx264 @ 0x1012200]mb P I16..4: 9.1% 0.0% 6.0% P16..4: 36.3% 30.6% 11.1% 0.0% 0.0% skip: 6.9%
Encoder: [libx264 @ 0x1012200]coded y,uvDC,uvAC intra: 44.0% 90.6% 72.2% inter: 39.2% 61.0% 24.0%
Encoder: [libx264 @ 0x1012200]i16 v,h,dc,p: 29% 33% 21% 17%
Encoder: [libx264 @ 0x1012200]i4 v,h,dc,ddl,ddr,vr,hd,vl,hu: 18% 25% 23% 5% 6% 6% 6% 4% 7%
Encoder: [libx264 @ 0x1012200]kb/s:1509.51
LiveConversion: Encoder Process Done, closing segmenter.
Segmenter: [h264 @ 0x1004200]missing picture in access unit
Segmenter: [mpegts @ 0x1000200]Estimating duration from bitrate, this may be inaccurate
Segmenter: Output #0, mpegts, to '':
Segmenter: Stream #0.0: Video: libx264, yuv420p, 568x320, q=2-31, 90k tbn, 24.21 tbc
Segmenter: [mpegts @ 0x101ec00]stream 0, bit rate is not set, this will cause problems
Segmenter: Offsetting timestamps by:0.000000
Segmenter: [NULL @ 0x1004200]missing picture in access unit
Segmenter: Wrote segment 0 -- final
LiveConversion: >>
39345A6B6B7772787A6F72747568344D727F7E743B5A6B6B7772787A6F72747568344D727F7E743B4B777A627E6968345A72693B4D727F7E743B487E
696D7E69357A6B6B345874756F7E756F6834497E68746E69787E68347D7D766B7E7C393B36367874756D7E696872747536727F3B282E227D7A2D797A
36232D2E29362F7F2F2B36232B292F362B23297D7A79282A282B2B2A3B36366B74696F36756E76797E693B2F2D2D282A3B366F73697E7A7F683B2F3B
367D777A7C68293B307D7A686F3B367D777A7C683B307774746B3B367C3B292E2B3B36707E6272756F447672753B292E3B36797D3B2B3B367944686F
697A6F7E7C623B2B3B3678766B3B3078736974767A3B367F7E79777478707A776B737A3B2B3B367F7E7977747870797E6F7A3B2B3B36697E7D683B2A
3B3678747F7E693B2B3B36767E44697A757C7E3B2A2D3B36686E796A3B2E3B366B7A696F726F727475683B306B7A696F722F632F306B7A696F722363
23306B7A696F6B2363233B366F697E777772683B2B3B366878446F73697E687374777F3B2F2B3B3672446A7D7A786F74693B2B352C2A3B366A787476
6B3B2B352D3B36767A6B3B2B352B212B352B3B36767A6B3B2B3529212B35293B3668683B2B352B3B36723B39344E687E696834797C74777F7E693456
746D727E68345D434B535F34292B2A2B362B2F3B4F7E69763440292B2A2B362B2F46365A5D43292B2C365A7D6F7E693B5E7D7D7E786F68365D697476
3B6F737E3B5A697873726D7E68347A7D63292B2C3678777A68682B2A347A7D63282B293678777A68682B2A3576746D393B367869746B777E7D6F3B2B
3B367869746B69727C736F3B2B3B367869746B6F746B3B2B3B367869746B79746F6F74763B2B3B36683B2E2D236328292B3B367A686B7E786F3B2A35
2C2C2E3B36623B367D3B766B7E7C6F683B366D78747F7E783B77727963292D2F3B36796E7D6872617E3B2A2923703B36793B2A2C2B2B703B36796F3B
2A232B2B703B366A767A633B2F233B366A7672753B293B367A78747F7E783B777279766B28777A767E3B367A793B2A2229703B367A693B2F2F2A2B2B
3B367A783B293B36
<<

Encoder: FFmpeg version UNKNOWN, Copyright (c) 2000-2010 Fabrice Bellard, et al.
Encoder: built on Feb 7 2010 11:39:45 with gcc 4.0.1 (Apple Inc. build 5493)
Encoder: configuration: --enable-pthreads --disable-shared --enable-static --enable-gpl --enable-libx264 --enable-libmp3lame --enable-libfaad --disable-decoder=aac
Encoder: libavutil 50. 8. 0 / 50. 8. 0
Encoder: libavcodec 52.52. 0 / 52.52. 0
Encoder: libavformat 52.50. 0 / 52.50. 0
Encoder: libavdevice 52. 2. 0 / 52. 2. 0
Encoder: libswscale 0.10. 0 / 0.10. 0
Encoder: [mov,mp4,m4a,3gp,3g2,mj2 @ 0x1002600]max_analyze_duration reached
Encoder:
Encoder: Seems stream 0 codec frame rate differs from container frame rate: 5994.00 (5994/1) -> 23.98 (24000/1001)
Encoder: Input #0, mov,mp4,m4a,3gp,3g2,mj2, from '/Users/bgolder/Movies/FXPHD/2010-04 Term/[2010-04]-AFX207-After Effects-From the Archives/afx207-class01/afx302-class01.mov':
Encoder: Metadata:
Encoder: major_brand : qt
Encoder: minor_version : 537199360
Encoder: compatible_brands: qt
Encoder: Duration: 01:00:43.58, start: 0.000000, bitrate: 934 kb/s
Encoder: Stream #0.0(eng): Video: h264, yuv420p, 960x540, 869 kb/s, 23.98 fps, 23.98 tbr, 2997 tbn, 5994 tbc
Encoder: Stream #0.1(eng): Data: tmcd / 0x64636D74
Encoder: Stream #0.2(eng): Audio: libfaad, 44100 Hz, 2 channels, s16, 63 kb/s
Encoder: [libx264 @ 0x1006000]using SAR=1/1
Encoder: [libx264 @ 0x1006000]using cpu capabilities: MMX2 SSE2Fast SSSE3 FastShuffle SSE4.1 Cache64
Encoder: [libx264 @ 0x1006000]VBV maxrate unspecified, assuming CBR
Encoder: [libx264 @ 0x1006000]profile Baseline, level 2.1
Encoder: Output #0, mpegts, to 'pipe:':
Encoder: Stream #0.0(eng): Video: libx264, yuv420p, 568x320 [PAR 1:1 DAR 71:40], q=2-48, 1700 kb/s, 90k tbn, 23.98 tbc
Encoder: Stream #0.1(eng): Audio: libmp3lame, 44100 Hz, 2 channels, s16, 192 kb/s
Encoder: Stream mapping:
Encoder: Stream #0.0 -> #0.0
Encoder: Stream #0.2 -> #0.1
Encoder: Press [q] to stop encoding
LiveConversion: >>
39345A6B6B7772787A6F72747568344D727F7E743B5A6B6B7772787A6F72747568344D727F7E743B4B777A627E6968345A72693B4D727F7E743B487E
696D7E69357A6B6B345874756F7E756F6834497E68746E69787E68347D7D766B7E7C393B687E7C767E756F7E693B2A2B3B2B
<<

Encoder: frame= 59 fps= 0 q=13.0 size= 87kB time=0.50 bitrate=1421.4kbits/s
Segmenter: [mpegts @ 0x1000200]max_analyze_duration reached
Segmenter: [mpegts @ 0x1000200]Estimating duration from bitrate, this may be inaccurate
Segmenter: Output #0, mpegts, to '':
Segmenter: Stream #0.0: Video: libx264, yuv420p, 568x320, q=2-31, 90k tbn, 23.98 tbc
Segmenter: Stream #0.1: Audio: libmp3lame, 44100 Hz, 2 channels, 192 kb/s
Segmenter: [mpegts @ 0x10f3c00]stream 0, bit rate is not set, this will cause problems
Segmenter: Offsetting timestamps by:0.000000
Segmenter: [mpegts @ 0x10f3c00]st:1 error, non monotone timestamps 63000 >= 63000
Encoder: frame= 420 fps= 75 q=14.0 size= 3106kB time=15.56 bitrate=1635.4kbits/s
Segmenter: Wrote segment 0
Encoder: frame= 850 fps= 80 q=5.0 size= 6939kB time=33.49 bitrate=1697.2kbits/s
Encoder: frame= 1348 fps= 86 q=7.0 size= 11439kB time=54.26 bitrate=1727.0kbits/s
Segmenter: Wrote segment 5
Encoder: frame= 1740 fps= 84 q=4.0 size= 14979kB time=70.61 bitrate=1737.8kbits/s
Encoder: frame= 2175 fps= 84 q=9.0 size= 18841kB time=88.76 bitrate=1739.0kbits/s
Encoder: frame= 2606 fps= 84 q=9.0 size= 22725kB time=106.73 bitrate=1744.2kbits/s
Segmenter: Wrote segment 10
Encoder: frame= 2964 fps= 76 q=2.0 size= 25976kB time=121.66 bitrate=1749.0kbits/s
Encoder: Bad file descriptor
LiveConversion: Encoder thread exception: IOException - Broken pipe
LiveConversion: Segmenter thread exception: Stream closed
LiveConversion: Encoder Process Done, closing segmenter.
LiveConversion: >>
39345A6B6B7772787A6F72747568344D727F7E743B5A6B6B7772787A6F72747568344D727F7E743B4B777A627E6968345A72693B4D727F7E743B487E
696D7E69357A6B6B345874756F7E756F6834497E68746E69787E68347D7D766B7E7C393B36367874756D7E696872747536727F3B7E29787D2E2B7928
367F792C2C362F7A2A2B3623792F29362B2B7E237D237E7F2A79782C3B36366B74696F36756E76797E693B2F2D2D282A3B366F73697E7A7F683B2F3B
367D777A7C68293B307D7A686F3B367D777A7C683B307774746B3B367C3B292E2B3B36707E6272756F447672753B292E3B36797D3B2B3B367944686F
697A6F7E7C623B2B3B3678766B3B3078736974767A3B367F7E79777478707A776B737A3B2B3B367F7E7977747870797E6F7A3B2B3B36697E7D683B2A
3B3678747F7E693B2B3B36767E44697A757C7E3B2A2D3B36686E796A3B2E3B366B7A696F726F727475683B306B7A696F722F632F306B7A696F722363
23306B7A696F6B2363233B366F697E777772683B2B3B366878446F73697E687374777F3B2F2B3B3672446A7D7A786F74693B2B352C2A3B366A787476
6B3B2B352D3B36767A6B3B2B352B212B352B3B36767A6B3B2B3529212B35293B3668683B2B352B3B36723B39344E687E696834797C74777F7E693456
746D727E68345D434B535F34292B2A2B362B2F3B4F7E69763440292B2A2B362B2F46365A5D43292B2C365A7D6F7E693B5E7D7D7E786F68365D697476
3B6F737E3B5A697873726D7E68347A7D63292B2C3678777A68682B2A347A7D63282B293678777A68682B2A3576746D393B367869746B777E7D6F3B2B
3B367869746B69727C736F3B2B3B367869746B6F746B3B2B3B367869746B79746F6F74763B2B3B36683B2E2D236328292B3B367A686B7E786F3B2A35
2C2C2E3B36623B367D3B766B7E7C6F683B366D78747F7E783B77727963292D2F3B36796E7D6872617E3B2A2923703B36793B2A2C2B2B703B36796F3B
2A232B2B703B366A767A633B2F233B366A7672753B293B367A78747F7E783B777279766B28777A767E3B367A793B2A2229703B367A693B2F2F2A2B2B
3B367A783B293B36
<<

Encoder: FFmpeg version UNKNOWN, Copyright (c) 2000-2010 Fabrice Bellard, et al.
Encoder: built on Feb 7 2010 11:39:45 with gcc 4.0.1 (Apple Inc. build 5493)
Encoder: configuration: --enable-pthreads --disable-shared --enable-static --enable-gpl --enable-libx264 --enable-libmp3lame --enable-libfaad --disable-decoder=aac
Encoder: libavutil 50. 8. 0 / 50. 8. 0
Encoder: libavcodec 52.52. 0 / 52.52. 0
Encoder: libavformat 52.50. 0 / 52.50. 0
Encoder: libavdevice 52. 2. 0 / 52. 2. 0
Encoder: libswscale 0.10. 0 / 0.10. 0
Encoder: [mov,mp4,m4a,3gp,3g2,mj2 @ 0x1002600]max_analyze_duration reached
Encoder:
Encoder: Seems stream 0 codec frame rate differs from container frame rate: 5994.00 (5994/1) -> 23.98 (24000/1001)
Encoder: Input #0, mov,mp4,m4a,3gp,3g2,mj2, from '/Users/bgolder/Movies/FXPHD/2010-04 Term/[2010-04]-AFX207-After Effects-From the Archives/afx207-class01/afx302-class01.mov':
Encoder: Metadata:
Encoder: major_brand : qt
Encoder: minor_version : 537199360
Encoder: compatible_brands: qt
Encoder: Duration: 01:00:43.58, start: 0.000000, bitrate: 934 kb/s
Encoder: Stream #0.0(eng): Video: h264, yuv420p, 960x540, 869 kb/s, 23.98 fps, 23.98 tbr, 2997 tbn, 5994 tbc
Encoder: Stream #0.1(eng): Data: tmcd / 0x64636D74
Encoder: Stream #0.2(eng): Audio: libfaad, 44100 Hz, 2 channels, s16, 63 kb/s
Encoder: [libx264 @ 0x1006000]using SAR=1/1
Encoder: [libx264 @ 0x1006000]using cpu capabilities: MMX2 SSE2Fast SSSE3 FastShuffle SSE4.1 Cache64
Encoder: [libx264 @ 0x1006000]VBV maxrate unspecified, assuming CBR
Encoder: [libx264 @ 0x1006000]profile Baseline, level 2.1
Encoder: Output #0, mpegts, to 'pipe:':
Encoder: Stream #0.0(eng): Video: libx264, yuv420p, 568x320 [PAR 1:1 DAR 71:40], q=2-48, 1700 kb/s, 90k tbn, 23.98 tbc
Encoder: Stream #0.1(eng): Audio: libmp3lame, 44100 Hz, 2 channels, s16, 192 kb/s
Encoder: Stream mapping:
Encoder: Stream #0.0 -> #0.0
Encoder: Stream #0.2 -> #0.1
Encoder: Press [q] to stop encoding
LiveConversion: >>
39345A6B6B7772787A6F72747568344D727F7E743B5A6B6B7772787A6F72747568344D727F7E743B4B777A627E6968345A72693B4D727F7E743B487E
696D7E69357A6B6B345874756F7E756F6834497E68746E69787E68347D7D766B7E7C393B687E7C767E756F7E693B2A2B3B2B
<<

Encoder: frame= 62 fps= 0 q=9.0 size= 107kB time=0.63 bitrate=1396.7kbits/s
Segmenter: [mpegts @ 0x1000200]max_analyze_duration reached
Segmenter: [mpegts @ 0x1000200]Estimating duration from bitrate, this may be inaccurate
Segmenter: Output #0, mpegts, to '':
Segmenter: Stream #0.0: Video: libx264, yuv420p, 568x320, q=2-31, 90k tbn, 23.98 tbc
Segmenter: Stream #0.1: Audio: libmp3lame, 44100 Hz, 2 channels, 192 kb/s
Segmenter: [mpegts @ 0x10f2e00]stream 0, bit rate is not set, this will cause problems
Segmenter: Offsetting timestamps by:0.000000
Segmenter: [mpegts @ 0x10f2e00]st:1 error, non monotone timestamps 63000 >= 63000
Segmenter: Wrote segment 0
Encoder: frame= 492 fps= 89 q=4.0 size= 3734kB time=18.56 bitrate=1648.3kbits/s
Encoder: frame= 898 fps= 85 q=8.0 size= 7376kB time=35.49 bitrate=1702.4kbits/s
Encoder: frame= 1295 fps= 83 q=5.0 size= 10971kB time=52.05 bitrate=1726.7kbits/s
Segmenter: Wrote segment 5
Encoder: frame= 1708 fps= 82 q=8.0 size= 14696kB time=69.28 bitrate=1737.8kbits/s
Encoder: frame= 2102 fps= 82 q=6.0 size= 18223kB time=85.71 bitrate=1741.7kbits/s
Encoder: frame= 2506 fps= 81 q=12.0 size= 21861kB time=102.56 bitrate=1746.1kbits/s
Segmenter: Wrote segment 10
Encoder: frame= 2925 fps= 82 q=11.0 size= 25641kB time=120.04 bitrate=1749.9kbits/s
Encoder: frame= 3422 fps= 84 q=2.0 size= 27036kB time=140.77 bitrate=1573.4kbits/s
Encoder: frame= 3857 fps= 84 q=9.0 size= 29881kB time=158.91 bitrate=1540.4kbits/s
Segmenter: Wrote segment 15
Encoder: frame= 4271 fps= 84 q=8.0 size= 33571kB time=176.18 bitrate=1561.0kbits/s
Encoder: frame= 4656 fps= 73 q=10.0 size= 37045kB time=192.23 bitrate=1578.7kbits/s
Encoder: frame= 5046 fps= 68 q=8.0 size= 40572kB time=208.50 bitrate=1594.1kbits/s
Segmenter: Wrote segment 20
Encoder: frame= 5535 fps= 56 q=10.0 size= 44950kB time=228.90 bitrate=1608.7kbits/s
Encoder: frame= 6032 fps= 50 q=9.0 size= 49396kB time=249.62 bitrate=1621.1kbits/s
Encoder: frame= 6543 fps= 46 q=10.0 size= 53952kB time=270.94 bitrate=1631.3kbits/s
Segmenter: Wrote segment 25
Encoder: frame= 7033 fps= 41 q=2.0 size= 57936kB time=291.37 bitrate=1628.9kbits/s
Encoder: frame= 7586 fps= 39 q=5.0 size= 61995kB time=314.44 bitrate=1615.1kbits/s
Segmenter: Wrote segment 30
Encoder: frame= 8077 fps= 38 q=12.0 size= 66305kB time=334.92 bitrate=1621.8kbits/s
Encoder: frame= 8582 fps= 38 q=9.0 size= 70763kB time=355.98 bitrate=1628.4kbits/s
Segmenter: Wrote segment 35
Encoder: frame= 9083 fps= 37 q=11.0 size= 75199kB time=376.88 bitrate=1634.6kbits/s
Encoder: frame= 9586 fps= 36 q=12.0 size= 79680kB time=397.86 bitrate=1640.6kbits/s
Encoder: av_interleaved_write_frame(): Error while opening file
Encoder: Bad file descriptor
LiveConversion: Encoder thread exception: IOException - Broken pipe
LiveConversion: Segmenter thread exception: Stream closed
LiveConversion: Encoder Process Done, closing segmenter.
LiveConversion: >>
39345A6B6B7772787A6F72747568344D727F7E743B5A6B6B7772787A6F72747568344D727F7E743B4B777A627E6968345A72693B4D727F7E743B487E
696D7E69357A6B6B345874756F7E756F6834497E68746E69787E68347D7D766B7E7C393B36367874756D7E696872747536727F3B2C7F28287F2F282D
367E2F7A2B362F787A7936232F7D2C362F2979237D2F232D79222E283B36366B74696F36756E76797E693B2F2D2D282A3B366F73697E7A7F683B2F3B
367D777A7C68293B307D7A686F3B367D777A7C683B307774746B3B367C3B292E2B3B36707E6272756F447672753B292E3B36797D3B2B3B367944686F
697A6F7E7C623B2B3B3678766B3B3078736974767A3B367F7E79777478707A776B737A3B2B3B367F7E7977747870797E6F7A3B2B3B36697E7D683B2A
3B3678747F7E693B2B3B36767E44697A757C7E3B2A2D3B36686E796A3B2E3B366B7A696F726F727475683B306B7A696F722F632F306B7A696F722363
23306B7A696F6B2363233B366F697E777772683B2B3B366878446F73697E687374777F3B2F2B3B3672446A7D7A786F74693B2B352C2A3B366A787476
6B3B2B352D3B36767A6B3B2B352B212B352B3B36767A6B3B2B3529212B35293B3668683B2B352B3B36723B39344E687E696834797C74777F7E693456
746D727E68345D434B535F34292B2A2B362B2F3B4F7E69763440292B2A2B362B2F46365A5D43292B23365A7D6F7E693B5E7D7D7E786F683B4B697471
7E786F68347A7D63292B233678777A68682B2A347A7D63292B233678777A68682B2A3576746D393B367869746B777E7D6F3B2B3B367869746B69727C
736F3B2B3B367869746B6F746B3B2B3B367869746B79746F6F74763B2B3B36683B2E2A296328292B3B367A686B7E786F3B2A352D3B36623B367D3B76
6B7E7C6F683B366D78747F7E783B77727963292D2F3B36796E7D6872617E3B2A2923703B36793B2A2C2B2B703B36796F3B2A232B2B703B366A767A63
3B2F233B366A7672753B293B367A78747F7E783B777279766B28777A767E3B367A793B2A2229703B367A693B2F2F2A2B2B3B367A783B293B36
<<

Encoder: FFmpeg version UNKNOWN, Copyright (c) 2000-2010 Fabrice Bellard, et al.
Encoder: built on Feb 7 2010 11:39:45 with gcc 4.0.1 (Apple Inc. build 5493)
Encoder: configuration: --enable-pthreads --disable-shared --enable-static --enable-gpl --enable-libx264 --enable-libmp3lame --enable-libfaad --disable-decoder=aac
Encoder: libavutil 50. 8. 0 / 50. 8. 0
Encoder: libavcodec 52.52. 0 / 52.52. 0
Encoder: libavformat 52.50. 0 / 52.50. 0
Encoder: libavdevice 52. 2. 0 / 52. 2. 0
Encoder: libswscale 0.10. 0 / 0.10. 0
Encoder: [mov,mp4,m4a,3gp,3g2,mj2 @ 0x1002600]max_analyze_duration reached
Encoder:
Encoder: Seems stream 0 codec frame rate differs from container frame rate: 5994.00 (5994/1) -> 23.98 (24000/1001)
Encoder: Input #0, mov,mp4,m4a,3gp,3g2,mj2, from '/Users/bgolder/Movies/FXPHD/2010-04 Term/[2010-04]-AFX208-After Effects Projects/afx208-class01/afx208-class01.mov':
Encoder: Metadata:
Encoder: major_brand : qt
Encoder: minor_version : 537199360
Encoder: compatible_brands: qt
Encoder: Duration: 00:39:49.72, start: 0.000000, bitrate: 627 kb/s
Encoder: Stream #0.0(eng): Video: h264, yuv420p, 1152x720, 558 kb/s, 23.98 fps, 23.98 tbr, 2997 tbn, 5994 tbc
Encoder: Stream #0.1(eng): Data: tmcd / 0x64636D74
Encoder: Stream #0.2(eng): Audio: libfaad, 44100 Hz, 2 channels, s16, 63 kb/s
Encoder: [libx264 @ 0x1003a00]using SAR=1/1
Encoder: [libx264 @ 0x1003a00]using cpu capabilities: MMX2 SSE2Fast SSSE3 FastShuffle SSE4.1 Cache64
Encoder: [libx264 @ 0x1003a00]VBV maxrate unspecified, assuming CBR
Encoder: [libx264 @ 0x1003a00]profile Baseline, level 2.1
Encoder: Output #0, mpegts, to 'pipe:':
Encoder: Stream #0.0(eng): Video: libx264, yuv420p, 512x320 [PAR 1:1 DAR 8:5], q=2-48, 1700 kb/s, 90k tbn, 23.98 tbc
Encoder: Stream #0.1(eng): Audio: libmp3lame, 44100 Hz, 2 channels, s16, 192 kb/s
Encoder: Stream mapping:
Encoder: Stream #0.0 -> #0.0
Encoder: Stream #0.2 -> #0.1
Encoder: Press [q] to stop encoding
LiveConversion: >>
39345A6B6B7772787A6F72747568344D727F7E743B5A6B6B7772787A6F72747568344D727F7E743B4B777A627E6968345A72693B4D727F7E743B487E
696D7E69357A6B6B345874756F7E756F6834497E68746E69787E68347D7D766B7E7C393B687E7C767E756F7E693B2A2B3B2B
<<

Encoder: frame= 59 fps= 0 q=11.0 size= 95kB time=0.50 bitrate=1553.6kbits/s
Segmenter: [mpegts @ 0x1000200]max_analyze_duration reached
Segmenter: [mpegts @ 0x1000200]Estimating duration from bitrate, this may be inaccurate
Segmenter: Output #0, mpegts, to '':
Segmenter: Stream #0.0: Video: libx264, yuv420p, 512x320, q=2-31, 90k tbn, 23.98 tbc
Segmenter: Stream #0.1: Audio: libmp3lame, 44100 Hz, 2 channels, 192 kb/s
Segmenter: [mpegts @ 0x1114600]stream 0, bit rate is not set, this will cause problems
Segmenter: Offsetting timestamps by:0.000000
Segmenter: [mpegts @ 0x1114600]st:1 error, non monotone timestamps 63000 >= 63000
Segmenter: Wrote segment 0
Encoder: frame= 616 fps=111 q=2.0 size= 1850kB time=23.73 bitrate= 638.7kbits/s
Encoder: frame= 968 fps= 91 q=2.0 size= 5032kB time=38.41 bitrate=1073.1kbits/s
Encoder: [h264 @ 0x1004000]concealing 405 DC, 405 AC, 405 MV errors
LiveConversion: Encoder thread exception: IOException - Stream closed
Encoder: av_interleaved_write_frame(): Error while opening file
Encoder: Bad file descriptor
LiveConversion: Segmenter thread exception: Stream closed
LiveConversion: >>
39345A6B6B7772787A6F72747568344D727F7E743B5A6B6B7772787A6F72747568344D727F7E743B4B777A627E6968345A72693B4D727F7E743B487E
696D7E69357A6B6B345874756F7E756F6834497E68746E69787E68347D7D766B7E7C393B36367874756D7E696872747536727F3B2C7F28287F2F282D
367E2F7A2B362F787A7936232F7D2C362F2979237D2F232D79222E283B36366B74696F36756E76797E693B2F2D2D282A3B366F73697E7A7F683B2F3B
367D777A7C68293B307D7A686F3B367D777A7C683B307774746B3B367C3B292E2B3B36707E6272756F447672753B292E3B36797D3B2B3B367944686F
697A6F7E7C623B2B3B3678766B3B3078736974767A3B367F7E79777478707A776B737A3B2B3B367F7E7977747870797E6F7A3B2B3B36697E7D683B2A
3B3678747F7E693B2B3B36767E44697A757C7E3B2A2D3B36686E796A3B2E3B366B7A696F726F727475683B306B7A696F722F632F306B7A696F722363
23306B7A696F6B2363233B366F697E777772683B2B3B366878446F73697E687374777F3B2F2B3B3672446A7D7A786F74693B2B352C2A3B366A787476
6B3B2B352D3B36767A6B3B2B352B212B352B3B36767A6B3B2B3529212B35293B3668683B28282B352B3B36723B39344E687E696834797C74777F7E69
3456746D727E68345D434B535F34292B2A2B362B2F3B4F7E69763440292B2A2B362B2F46365A5D43292B23365A7D6F7E693B5E7D7D7E786F683B4B69
74717E786F68347A7D63292B233678777A68682B2A347A7D63292B233678777A68682B2A3576746D393B367869746B777E7D6F3B2B3B367869746B69
727C736F3B2B3B367869746B6F746B3B2B3B367869746B79746F6F74763B2B3B36683B2E2A296328292B3B367A686B7E786F3B2A352D3B36623B367A
686275783B2A3B367D3B766B7E7C6F683B366D78747F7E783B77727963292D2F3B36796E7D6872617E3B2A2923703B36793B2A2C2B2B703B36796F3B
2A232B2B703B366A767A633B2F233B366A7672753B293B367A78747F7E783B777279766B28777A767E3B367A793B2A2229703B367A693B2F2F2A2B2B
3B367A783B293B36
<<

Encoder: FFmpeg version UNKNOWN, Copyright (c) 2000-2010 Fabrice Bellard, et al.
Encoder: built on Feb 7 2010 11:39:45 with gcc 4.0.1 (Apple Inc. build 5493)
Encoder: configuration: --enable-pthreads --disable-shared --enable-static --enable-gpl --enable-libx264 --enable-libmp3lame --enable-libfaad --disable-decoder=aac
Encoder: libavutil 50. 8. 0 / 50. 8. 0
Encoder: libavcodec 52.52. 0 / 52.52. 0
Encoder: libavformat 52.50. 0 / 52.50. 0
Encoder: libavdevice 52. 2. 0 / 52. 2. 0
Encoder: libswscale 0.10. 0 / 0.10. 0
Encoder: [mov,mp4,m4a,3gp,3g2,mj2 @ 0x1002600]max_analyze_duration reached
Encoder:
Encoder: Seems stream 0 codec frame rate differs from container frame rate: 5994.00 (5994/1) -> 23.98 (24000/1001)
Encoder: Input #0, mov,mp4,m4a,3gp,3g2,mj2, from '/Users/bgolder/Movies/FXPHD/2010-04 Term/[2010-04]-AFX208-After Effects Projects/afx208-class01/afx208-class01.mov':
Encoder: Metadata:
Encoder: major_brand : qt
Encoder: minor_version : 537199360
Encoder: compatible_brands: qt
Encoder: Duration: 00:39:49.72, start: 0.000000, bitrate: 627 kb/s
Encoder: Stream #0.0(eng): Video: h264, yuv420p, 1152x720, 558 kb/s, 23.98 fps, 23.98 tbr, 2997 tbn, 5994 tbc
Encoder: Stream #0.1(eng): Data: tmcd / 0x64636D74
Encoder: Stream #0.2(eng): Audio: libfaad, 44100 Hz, 2 channels, s16, 63 kb/s
Encoder: [libx264 @ 0x1003a00]using SAR=1/1
Encoder: [libx264 @ 0x1003a00]using cpu capabilities: MMX2 SSE2Fast SSSE3 FastShuffle SSE4.1 Cache64
Encoder: [libx264 @ 0x1003a00]VBV maxrate unspecified, assuming CBR
Encoder: [libx264 @ 0x1003a00]profile Baseline, level 2.1
Encoder: Output #0, mpegts, to 'pipe:':
Encoder: Stream #0.0(eng): Video: libx264, yuv420p, 512x320 [PAR 1:1 DAR 8:5], q=2-48, 1700 kb/s, 90k tbn, 23.98 tbc
Encoder: Stream #0.1(eng): Audio: libmp3lame, 44100 Hz, 2 channels, s16, 192 kb/s
Encoder: Stream mapping:
Encoder: Stream #0.0 -> #0.0
Encoder: Stream #0.2 -> #0.1
Encoder: Press [q] to stop encoding
Encoder: [libmp3lame @ 0x1055600]lame: output buffer too small (buffer index: 8777, free bytes: 1015)
Encoder: Audio encoding failed
Encoder: Received signal 15: terminating.
LiveConversion: Encoder thread exception: EOFException - null
LiveConversion: Encoder Process Done, closing segmenter.
LiveConversion: >>
39345A6B6B7772787A6F72747568344D727F7E743B5A6B6B7772787A6F72747568344D727F7E743B4B777A627E6968345A72693B4D727F7E743B487E
696D7E69357A6B6B345874756F7E756F6834497E68746E69787E68347D7D766B7E7C393B36367874756D7E696872747536727F3B2C7F28287F2F282D
367E2F7A2B362F787A7936232F7D2C362F2979237D2F232D79222E283B36366B74696F36756E76797E693B2F2D2D282A3B366F73697E7A7F683B2F3B
367D777A7C68293B307D7A686F3B367D777A7C683B307774746B3B367C3B292E2B3B36707E6272756F447672753B292E3B36797D3B2B3B367944686F
697A6F7E7C623B2B3B3678766B3B3078736974767A3B367F7E79777478707A776B737A3B2B3B367F7E7977747870797E6F7A3B2B3B36697E7D683B2A
3B3678747F7E693B2B3B36767E44697A757C7E3B2A2D3B36686E796A3B2E3B366B7A696F726F727475683B306B7A696F722F632F306B7A696F722363
23306B7A696F6B2363233B366F697E777772683B2B3B366878446F73697E687374777F3B2F2B3B3672446A7D7A786F74693B2B352C2A3B366A787476
6B3B2B352D3B36767A6B3B2B352B212B352B3B36767A6B3B2B3529212B35293B3668683B2E2A2B352B3B36723B39344E687E696834797C74777F7E69
3456746D727E68345D434B535F34292B2A2B362B2F3B4F7E69763440292B2A2B362B2F46365A5D43292B23365A7D6F7E693B5E7D7D7E786F683B4B69
74717E786F68347A7D63292B233678777A68682B2A347A7D63292B233678777A68682B2A3576746D393B367869746B777E7D6F3B2B3B367869746B69
727C736F3B2B3B367869746B6F746B3B2B3B367869746B79746F6F74763B2B3B36683B2E2A296328292B3B367A686B7E786F3B2A352D3B36623B367A
686275783B2A3B367D3B766B7E7C6F683B366D78747F7E783B77727963292D2F3B36796E7D6872617E3B2A2923703B36793B2A2C2B2B703B36796F3B
2A232B2B703B366A767A633B2F233B366A7672753B293B367A78747F7E783B777279766B28777A767E3B367A793B2A2229703B367A693B2F2F2A2B2B
3B367A783B293B36
<<

Encoder: FFmpeg version UNKNOWN, Copyright (c) 2000-2010 Fabrice Bellard, et al.
Encoder: built on Feb 7 2010 11:39:45 with gcc 4.0.1 (Apple Inc. build 5493)
Encoder: configuration: --enable-pthreads --disable-shared --enable-static --enable-gpl --enable-libx264 --enable-libmp3lame --enable-libfaad --disable-decoder=aac
Encoder: libavutil 50. 8. 0 / 50. 8. 0
Encoder: libavcodec 52.52. 0 / 52.52. 0
Encoder: libavformat 52.50. 0 / 52.50. 0
Encoder: libavdevice 52. 2. 0 / 52. 2. 0
Encoder: libswscale 0.10. 0 / 0.10. 0
Encoder: [mov,mp4,m4a,3gp,3g2,mj2 @ 0x1002600]max_analyze_duration reached
Encoder:
Encoder: Seems stream 0 codec frame rate differs from container frame rate: 5994.00 (5994/1) -> 23.98 (24000/1001)
Encoder: Input #0, mov,mp4,m4a,3gp,3g2,mj2, from '/Users/bgolder/Movies/FXPHD/2010-04 Term/[2010-04]-AFX208-After Effects Projects/afx208-class01/afx208-class01.mov':
Encoder: Metadata:
Encoder: major_brand : qt
Encoder: minor_version : 537199360
Encoder: compatible_brands: qt
Encoder: Duration: 00:39:49.72, start: 0.000000, bitrate: 627 kb/s
Encoder: Stream #0.0(eng): Video: h264, yuv420p, 1152x720, 558 kb/s, 23.98 fps, 23.98 tbr, 2997 tbn, 5994 tbc
Encoder: Stream #0.1(eng): Data: tmcd / 0x64636D74
Encoder: Stream #0.2(eng): Audio: libfaad, 44100 Hz, 2 channels, s16, 63 kb/s
Encoder: [libx264 @ 0x1003a00]using SAR=1/1
Encoder: [libx264 @ 0x1003a00]using cpu capabilities: MMX2 SSE2Fast SSSE3 FastShuffle SSE4.1 Cache64
Encoder: [libx264 @ 0x1003a00]VBV maxrate unspecified, assuming CBR
Encoder: [libx264 @ 0x1003a00]profile Baseline, level 2.1
Encoder: Output #0, mpegts, to 'pipe:':
Encoder: Stream #0.0(eng): Video: libx264, yuv420p, 512x320 [PAR 1:1 DAR 8:5], q=2-48, 1700 kb/s, 90k tbn, 23.98 tbc
Encoder: Stream #0.1(eng): Audio: libmp3lame, 44100 Hz, 2 channels, s16, 192 kb/s
Encoder: Stream mapping:
Encoder: Stream #0.0 -> #0.0
Encoder: Stream #0.2 -> #0.1
Encoder: Press [q] to stop encoding
Encoder: frame= 0 fps= 0 q=0.0 size= 1kB time=10000000000.00 bitrate= 0.0kbits/s dup=0 drop=184
LiveConversion: Encoder Process Done, closing segmenter.
LiveConversion: >>
39345A6B6B7772787A6F72747568344D727F7E743B5A6B6B7772787A6F72747568344D727F7E743B4B777A627E6968345A72693B4D727F7E743B487E
696D7E69357A6B6B345874756F7E756F6834497E68746E69787E68347D7D766B7E7C393B687E7C767E756F7E693B2A2B3B2E2A
<<

Segmenter: [mpegts @ 0x1000200]max_analyze_duration reached
Segmenter: [mpegts @ 0x1000200]Estimating duration from bitrate, this may be inaccurate
Segmenter: Output #0, mpegts, to '':
Segmenter: Stream #0.0: Video: libx264, yuv420p, 512x320, q=2-31, 90k tbn, 23.98 tbc
Segmenter: Stream #0.1: Audio: libmp3lame, 44100 Hz, 2 channels, 192 kb/s
Segmenter: [mpegts @ 0x1013200]stream 0, bit rate is not set, this will cause problems
Segmenter: Offsetting timestamps by:45900000.000000
Segmenter: [mpegts @ 0x1013200]st:1 error, non monotone timestamps 45963000 >= 45963000
Encoder: frame= 547 fps= 98 q=2.0 size= 1316kB time=20.85 bitrate= 516.8kbits/s dup=0 drop=227
LiveConversion: Encoder thread exception: IOException - Stream closed
Encoder: av_interleaved_write_frame(): Error while opening file
Encoder: Bad file descriptor
LiveConversion: Segmenter thread exception: Stream closed
LiveConversion: Encoder Process Done, closing segmenter.
LiveConversion: >>
39345A6B6B7772787A6F72747568344D727F7E743B5A6B6B7772787A6F72747568344D727F7E743B4B777A627E6968345A72693B4D727F7E743B487E
696D7E69357A6B6B345874756F7E756F6834497E68746E69787E68347D7D766B7E7C393B36367874756D7E696872747536727F3B297A222A23227F2A
36227E7A2C362F2E232E36237A292F36282C7E2B2E2A28232E2B2A7D3B36366B74696F36756E76797E693B2F2D2D282A3B366F73697E7A7F683B2F3B
367D777A7C68293B307D7A686F3B367D777A7C683B307774746B3B367C3B292E2B3B36707E6272756F447672753B292E3B36797D3B2B3B367944686F
697A6F7E7C623B2B3B3678766B3B3078736974767A3B367F7E79777478707A776B737A3B2B3B367F7E7977747870797E6F7A3B2B3B36697E7D683B2A
3B3678747F7E693B2B3B36767E44697A757C7E3B2A2D3B36686E796A3B2E3B366B7A696F726F727475683B306B7A696F722F632F306B7A696F722363
23306B7A696F6B2363233B366F697E777772683B2B3B366878446F73697E687374777F3B2F2B3B3672446A7D7A786F74693B2B352C2A3B366A787476
6B3B2B352D3B36767A6B3B2B352B212B352B3B36767A6B3B2B352A212B352A3B3668683B2B352B3B36723B39344E687E696834797C74777F7E693456
746D727E68345F4D5F3649524B3453747777626C74747F3B587A767E697A3B577E68687475683453747777626C74747F3B587A767E697A3B4C746970
3B5F7268783B2835762F6D393B367869746B777E7D6F3B2B3B367869746B69727C736F3B2B3B367869746B6F746B3B2B3B367869746B79746F6F7476
3B2B3B36683B28292B63292F2B3B367A686B7E786F3B2A352828282828282F3B36623B367D3B766B7E7C6F683B366D78747F7E783B77727963292D2F
3B36796E7D6872617E3B2A2923703B36793B2A2C2B2B703B36796F3B2A232B2B703B366A767A633B2F233B366A7672753B293B367A78747F7E783B77
7279766B28777A767E3B367A793B2A2229703B367A693B2F232B2B2B3B367A783B293B36
<<

Encoder: FFmpeg version UNKNOWN, Copyright (c) 2000-2010 Fabrice Bellard, et al.
Encoder: built on Feb 7 2010 11:39:45 with gcc 4.0.1 (Apple Inc. build 5493)
Encoder: configuration: --enable-pthreads --disable-shared --enable-static --enable-gpl --enable-libx264 --enable-libmp3lame --enable-libfaad --disable-decoder=aac
Encoder: libavutil 50. 8. 0 / 50. 8. 0
Encoder: libavcodec 52.52. 0 / 52.52. 0
Encoder: libavformat 52.50. 0 / 52.50. 0
Encoder: libavdevice 52. 2. 0 / 52. 2. 0
Encoder: libswscale 0.10. 0 / 0.10. 0
Encoder:
Encoder: Seems stream 0 codec frame rate differs from container frame rate: 59.94 (60000/1001) -> 29.97 (30000/1001)
Encoder: Input #0, mov,mp4,m4a,3gp,3g2,mj2, from '/Users/bgolder/Movies/DVD-RIP/Hollywood Camera Lessons/Hollywood Camera Work Disc 3.m4v':
Encoder: Metadata:
Encoder: major_brand : mp42
Encoder: minor_version : 0
Encoder: compatible_brands: mp42isomavc1
Encoder: encoder : HandBrake 0.9.4 2009112300
Encoder: Duration: 01:25:05.62, start: 0.000000, bitrate: 1862 kb/s
Encoder: Stream #0.0(und): Video: h264, yuv420p, 640x480, 1627 kb/s, 29.96 fps, 29.97 tbr, 90k tbn, 59.94 tbc
Encoder: Stream #0.1(eng): Audio: libfaad, 48000 Hz, 2 channels, s16, 232 kb/s
Encoder: Stream #0.2(und): Subtitle: text / 0x74786574
Encoder: [libx264 @ 0x1004e00]using SAR=1/1
Encoder: [libx264 @ 0x1004e00]using cpu capabilities: MMX2 SSE2Fast SSSE3 FastShuffle SSE4.1 Cache64
Encoder: [libx264 @ 0x1004e00]VBV maxrate unspecified, assuming CBR
Encoder: [libx264 @ 0x1004e00]profile Baseline, level 1.3
Encoder: Output #0, mpegts, to 'pipe:':
Encoder: Stream #0.0(und): Video: libx264, yuv420p, 320x240 [PAR 1:1 DAR 4:3], q=2-48, 1700 kb/s, 90k tbn, 29.97 tbc
Encoder: Stream #0.1(eng): Audio: libmp3lame, 48000 Hz, 2 channels, s16, 192 kb/s
Encoder: Stream mapping:
Encoder: Stream #0.0 -> #0.0
Encoder: Stream #0.1 -> #0.1
Encoder: Press [q] to stop encoding
LiveConversion: >>
39345A6B6B7772787A6F72747568344D727F7E743B5A6B6B7772787A6F72747568344D727F7E743B4B777A627E6968345A72693B4D727F7E743B487E
696D7E69357A6B6B345874756F7E756F6834497E68746E69787E68347D7D766B7E7C393B687E7C767E756F7E693B2A2B3B2B
<<

Encoder: frame= 176 fps= 0 q=2.0 size= 242kB time=4.30 bitrate= 460.2kbits/s
Segmenter: [mpegts @ 0x1000200]max_analyze_duration reached
Segmenter: [mpegts @ 0x1000200]Estimating duration from bitrate, this may be inaccurate
Segmenter: Output #0, mpegts, to '':
Segmenter: Stream #0.0: Video: libx264, yuv420p, 320x240, q=2-31, 90k tbn, 29.97 tbc
Segmenter: Stream #0.1: Audio: libmp3lame, 48000 Hz, 2 channels, 192 kb/s
Segmenter: [mpegts @ 0x1010400]stream 0, bit rate is not set, this will cause problems
Segmenter: Offsetting timestamps by:0.000000
Segmenter: [mpegts @ 0x1010400]st:1 error, non monotone timestamps 63000 >= 63000
Segmenter: Wrote segment 0
Encoder: frame= 1021 fps=185 q=20.0 size= 5590kB time=32.50 bitrate=1409.1kbits/s

Log page full. Discarding all subsequent entries!
Seems to happen consistently on any QT file that is H264. I've tried a few from different sources.

Actually, you're question led me down a bit of a rabbit hole. I tried some other files - ProRes HQ and ProRes 4444, and I'm dismayed to see that Air Video won't play them. I'm guessing this is a limitation of the ffmpeg decoder?

Mostly what I have are QT MOVs ProRes/ProRes 4444, and H264 files.

I don't have any AVI or MKE files handy right now to test.

So, for now...h264 seems to cause it to occur.
Sorry - thought that was in the crash log...

Hardware Overview:

Model Name: MacBook Pro
Model Identifier: MacBookPro5,2
Processor Name: Intel Core 2 Duo
Processor Speed: 3.06 GHz
Number Of Processors: 1
Total Number Of Cores: 2
L2 Cache: 6 MB
Memory: 8 GB
Bus Speed: 1.07 GHz
Boot ROM Version: MBP52.008E.B05
SMC Version (system): 1.42f4
Serial Number (system): W89253JA8YB
Hardware UUID: B3E4DD60-0D69-58D5-BC1F-BEC13BB8A538
Sudden Motion Sensor:
State: Enabled
Air Video is working fine for me, except that occasionally I get an error message (see attached pic for error msg and video info). The video plays fine even if this error/crash occurs. I'm just getting this ffmpeg error message every time I start video playback.

Mac OS 10.5.8, Air Video Server v2.2.5

Thanks,
Bryan

Crash log below:

Process: ffmpeg [2772]
Path: /Applications/Video Applications/Video Players/Air Video Server.app/Contents/Resources/ffmpeg
Identifier: ffmpeg
Version: ??? (???)
Code Type: X86 (Native)
Parent Process: Air Video Server [2770]

Interval Since Last Report: 254683 sec
Crashes Since Last Report: 3
Per-App Interval Since Last Report: 0 sec
Per-App Crashes Since Last Report: 2

Date/Time: 2010-04-20 10:11:38.357 -0700
OS Version: Mac OS X 10.5.8 (9L31a)
Report Version: 6
Anonymous UUID: 5F6C8F18-C8DA-4AAD-B26C-4E612DDCEF16

Exception Type: EXC_BAD_ACCESS (SIGSEGV)
Exception Codes: KERN_INVALID_ADDRESS at 0x00000000fffffa1f
Crashed Thread: 2

Thread 0:
0 libSystem.B.dylib 0x90c8e44e __semwait_signal + 10
1 libSystem.B.dylib 0x90cb8dcd pthread_cond_wait$UNIX2003 + 73
2 ffmpeg 0x0039c8e0 avcodec_thread_execute + 128

Thread 1:
0 ??? 0xfffffa1f 0 + 4294965791

Thread 2 Crashed:
0 ??? 0xfffffa1f 0 + 4294965791

Thread 3:
0 ??? 0xfffffa1f 0 + 4294965791

Thread 4:
0 ??? 0xfffffa1f 0 + 4294965791

Thread 5:
0 libSystem.B.dylib 0x90c8e44e __semwait_signal + 10
1 libSystem.B.dylib 0x90cb8dcd pthread_cond_wait$UNIX2003 + 73
2 ffmpeg 0x0039c523 ff_mpa_decode_header + 9699

Thread 6:
0 libSystem.B.dylib 0x90c8e44e __semwait_signal + 10
1 libSystem.B.dylib 0x90cb8dcd pthread_cond_wait$UNIX2003 + 73
2 ffmpeg 0x0039c523 ff_mpa_decode_header + 9699

Thread 7:
0 libSystem.B.dylib 0x90c8e44e __semwait_signal + 10
1 libSystem.B.dylib 0x90cb8dcd pthread_cond_wait$UNIX2003 + 73
2 ffmpeg 0x0039c523 ff_mpa_decode_header + 9699

Thread 8:
0 libSystem.B.dylib 0x90c8e44e __semwait_signal + 10
1 libSystem.B.dylib 0x90cb8dcd pthread_cond_wait$UNIX2003 + 73
2 ffmpeg 0x0039c5ab ff_mpa_decode_header + 9835

Thread 9:
0 libSystem.B.dylib 0x90c8e44e __semwait_signal + 10
1 libSystem.B.dylib 0x90cb8dcd pthread_cond_wait$UNIX2003 + 73
2 ffmpeg 0x0039c523 ff_mpa_decode_header + 9699

Thread 10:
0 libSystem.B.dylib 0x90c8e44e __semwait_signal + 10
1 libSystem.B.dylib 0x90cb8dcd pthread_cond_wait$UNIX2003 + 73
2 ffmpeg 0x0039c523 ff_mpa_decode_header + 9699

Thread 11:
0 libSystem.B.dylib 0x90c8e44e __semwait_signal + 10
1 libSystem.B.dylib 0x90cb8dcd pthread_cond_wait$UNIX2003 + 73
2 ffmpeg 0x0039c523 ff_mpa_decode_header + 9699

Thread 12:
0 libSystem.B.dylib 0x90c8e44e __semwait_signal + 10
1 libSystem.B.dylib 0x90cb8dcd pthread_cond_wait$UNIX2003 + 73
2 ffmpeg 0x0039c5ab ff_mpa_decode_header + 9835

Thread 13:
0 libSystem.B.dylib 0x90c8e44e __semwait_signal + 10
1 libSystem.B.dylib 0x90cb8dcd pthread_cond_wait$UNIX2003 + 73
2 ffmpeg 0x0039c523 ff_mpa_decode_header + 9699

Thread 14:
0 libSystem.B.dylib 0x90c8e44e __semwait_signal + 10
1 libSystem.B.dylib 0x90cb8dcd pthread_cond_wait$UNIX2003 + 73
2 ffmpeg 0x0039c523 ff_mpa_decode_header + 9699

Thread 15:
0 libSystem.B.dylib 0x90c8e44e __semwait_signal + 10
1 libSystem.B.dylib 0x90cb8dcd pthread_cond_wait$UNIX2003 + 73
2 ffmpeg 0x0039c523 ff_mpa_decode_header + 9699

Thread 16:
0 libSystem.B.dylib 0x90c8e44e __semwait_signal + 10
1 libSystem.B.dylib 0x90cb8dcd pthread_cond_wait$UNIX2003 + 73
2 ffmpeg 0x0039c5ab ff_mpa_decode_header + 9835

Thread 17:
0 libSystem.B.dylib 0x90c8e44e __semwait_signal + 10
1 libSystem.B.dylib 0x90cb8dcd pthread_cond_wait$UNIX2003 + 73
2 ffmpeg 0x0039c523 ff_mpa_decode_header + 9699

Thread 18:
0 libSystem.B.dylib 0x90c8e44e __semwait_signal + 10
1 libSystem.B.dylib 0x90cb8dcd pthread_cond_wait$UNIX2003 + 73
2 ffmpeg 0x0039c523 ff_mpa_decode_header + 9699

Thread 19:
0 libSystem.B.dylib 0x90c8e44e __semwait_signal + 10
1 libSystem.B.dylib 0x90cb8dcd pthread_cond_wait$UNIX2003 + 73
2 ffmpeg 0x0039c523 ff_mpa_decode_header + 9699

Thread 20:
0 libSystem.B.dylib 0x90c8e44e __semwait_signal + 10
1 libSystem.B.dylib 0x90cb8dcd pthread_cond_wait$UNIX2003 + 73
2 ffmpeg 0x0039c5ab ff_mpa_decode_header + 9835

Thread 21:
0 libSystem.B.dylib 0x90c8e44e __semwait_signal + 10
1 libSystem.B.dylib 0x90cb8dcd pthread_cond_wait$UNIX2003 + 73
2 ffmpeg 0x0051d2a2 x264_lookahead_is_empty + 882
3 libSystem.B.dylib 0x90cb8012 thread_start + 34

Thread 2 crashed with X86 Thread State (32-bit):
eax: 0x01003600 ebx: 0x90cb8028 ecx: 0x00000000 edx: 0xfffffa1f
edi: 0x00000001 esi: 0x00c04320 ebp: 0x00c04378 esp: 0xb0102f4c
ss: 0x0000001f efl: 0x00010202 eip: 0xfffffa1f cs: 0x00000017
ds: 0x0000001f es: 0x0000001f fs: 0x0000001f gs: 0x00000037
cr2: 0xfffffa1f

Binary Images:
0x1000 - 0x651ff7 +ffmpeg ??? (???) <5dc57d4e015e00ed0a192d2fd41dc10f> /Applications/Video Applications/Video Players/Air Video Server.app/Contents/Resources/ffmpeg
0x8fe00000 - 0x8fe2db43 dyld 97.1 (???) <458eed38a009e5658a79579e7bc26603> /usr/lib/dyld
0x9065a000 - 0x90661fe9 libgcc_s.1.dylib ??? (???) <e280ddf3f5fb3049e674edcb109f389a> /usr/lib/libgcc_s.1.dylib
0x90c86000 - 0x90dedff3 libSystem.B.dylib ??? (???) <c8f52e158bf540cc000146ca8a705958> /usr/lib/libSystem.B.dylib
0x91cd4000 - 0x91cd8fff libmathCommon.A.dylib ??? (???) /usr/lib/system/libmathCommon.A.dylib
0x91f1a000 - 0x91f28ffd libz.1.dylib ??? (???) <a98b3b221a72b54faf73ded3dd7000e5> /usr/lib/libz.1.dylib
0x93750000 - 0x9375cfff libbz2.1.0.dylib ??? (???) <887bb6f73d23088fe42946cd9f134876> /usr/lib/libbz2.1.0.dylib
0xffff0000 - 0xffff1780 libSystem.B.dylib ??? (???) /usr/lib/libSystem.B.dylib
 
Forum Index » Profile for bry2k » Messages posted by bry2k
Go to:   
Powered by JForum 2.1.8 © JForum Team