[Logo] Air Video Forum
  [Search] Search   [Recent Topics] Recent Topics   [Hottest Topics] Hottest Topics   [Members]  Member Listing   [Groups] Back to home page 
[Moderation Log] Moderation Log   [Register] Register / 
[Login] Login 
Messages posted by: jorisdepres
Forum Index » Profile for jorisdepres » Messages posted by jorisdepres
Author Message
This is the log for 2.4.3 which does work for files that are already in mp4 when playing them with live converstion:

2012-06-08 17:01:28 LiveConversion: >>
395821474B69747C697A763B5D72777E683B3363232D32475A72694D727F7E74487E696D7E69477D7D766B7E7C357E637E393B36367874756D7E6968
72747536727F3B2B7E7F28297F2D7D362922797F362F7D7F2A367A7D2C22362C797978237A2E292E232E2B3B36366B74696F36756E76797E693B2F2D
2D282A3B366F73697E7A7F683B2F3B367D777A7C68293B307D7A686F3B367D777A7C683B307774746B3B367C3B282B3B36707E6272756F447672753B
2A3B36797D3B2B3B367944686F697A6F7E7C623B2B3B367D777A7C68293B366C6B697E7F367F786F2363233B3678766B3B3078736974767A3B367F7E
79777478707A776B737A3B2B3B367F7E7977747870797E6F7A3B2B3B36697E7D683B2A3B3678747F7E693B2B3B36767E44697A757C7E3B2A2D3B3668
6E796A3B2E3B366B7A696F726F727475683B306B7A696F722F632F306B7A696F72236323306B7A696F6B2363233B366F697E777772683B2B3B366878
446F73697E687374777F3B2F2B3B3672446A7D7A786F74693B2B352C2A3B366A7874766B3B2B352D3B36767A6B3B2B352B212B352B3B36767A6B3B2B
352A212B352A3B3668683B2B352B3B36723B39582147474E687E69684747517469726847475F746C7577747A7F6847475D727776683B3D3B4F4D4747
4F737E3B546F737E693B5C6E62683B292B2A2B3B5E636F7E757F7E7F3B594949726B3B2C292B6B3B53292D2F3628577247474F737E3B546F737E693B
5C6E626835766B2F393B367869746B777E7D6F3B2B3B367869746B69727C736F3B2B3B367869746B6F746B3B2B3B367869746B79746F6F74763B2B3B
36683B2D2F2B63292D2F3B367A686B7E786F3B29352F292F292F292E3B36623B367D3B766B7E7C6F683B366D78747F7E783B77727963292D2F3B3679
6E7D6872617E3B2E2A29703B36793B292A292E703B36796F3B29292E2B703B366A767A633B2F233B366A7672753B293B36693B292835222C2D3B367A
78747F7E783B777279766B28777A767E3B367A793B292E2D703B367A693B2F232B2B2B3B367A783B293B36
<<

2012-06-08 17:01:29 LiveConversion: >>
395821474B69747C697A763B5D72777E683B3363232D32475A72694D727F7E74487E696D7E69477D7D766B7E7C357E637E393B687E7C767E756F7E69
3B2A2B3B2B
<<

2012-06-08 17:01:29 Encoder: FFmpeg version UNKNOWN, Copyright (c) 2000-2010 Fabrice Bellard, et al.
2012-06-08 17:01:29 Encoder: built on Feb 7 2010 20:00:41 with gcc 4.4.0
2012-06-08 17:01:29 Encoder: configuration: --enable-memalign-hack --prefix=/mingw --target-os=mingw32 --arch=i686 --cpu=i686 --enable-gpl --enable-libx264 --enable-static --disable-shared --enable-pthreads --enable-libmp3lame --enable-libfaad --disable-decoder=aac
2012-06-08 17:01:29 Encoder: libavutil 50. 8. 0 / 50. 8. 0
2012-06-08 17:01:29 Encoder: libavcodec 52.52. 0 / 52.52. 0
2012-06-08 17:01:29 Encoder: libavformat 52.50. 0 / 52.50. 0
2012-06-08 17:01:29 Encoder: libavdevice 52. 2. 0 / 52. 2. 0
2012-06-08 17:01:29 Encoder: libswscale 0.10. 0 / 0.10. 0
2012-06-08 17:01:29 Encoder:
2012-06-08 17:01:29 Encoder: Seems stream 0 codec frame rate differs from container frame rate: 47.95 (20000000/417083) -> 23.98 (24000/1001)
2012-06-08 17:01:29 Encoder: Input #0, mov,mp4,m4a,3gp,3g2,mj2, from 'C:\\Users\\Joris\\Downloads\\Films & TV\\The Other Guys 2010 Extended BRRip 720p H264-3Li\\The Other Guys.mp4':
2012-06-08 17:01:29 Encoder: Metadata:
2012-06-08 17:01:29 Encoder: major_brand : isom
2012-06-08 17:01:29 Encoder: minor_version : 1
2012-06-08 17:01:29 Encoder: compatible_brands: isomavc1
2012-06-08 17:01:29 Encoder: Duration: 01:56:15.09, start: 0.000000, bitrate: 2687 kb/s
2012-06-08 17:01:29 Encoder: Stream #0.0(und): Video: h264, yuv420p, 1280x528 [PAR 1:1 DAR 80:33], 2299 kb/s, 23.98 fps, 23.98 tbr, 24k tbn, 47.95 tbc
2012-06-08 17:01:29 Encoder: Stream #0.1(eng): Audio: libfaad, 48000 Hz, 6 channels, s16, 383 kb/s
2012-06-08 17:01:29 Encoder: [libx264 @ 0x295bb20]using SAR=1/1
2012-06-08 17:01:29 Encoder: [libx264 @ 0x295bb20]using cpu capabilities: MMX2 SSE2Fast SSSE3 FastShuffle SSE4.2
2012-06-08 17:01:29 Encoder: [libx264 @ 0x295bb20]VBV maxrate unspecified, assuming CBR
2012-06-08 17:01:29 Encoder: [libx264 @ 0x295bb20]profile Baseline, level 2.1
2012-06-08 17:01:29 Encoder: Output #0, mpegts, to 'pipe:':
2012-06-08 17:01:29 Encoder: Stream #0.0(und): Video: libx264, yuv420p, 640x264 [PAR 1:1 DAR 80:33], q=2-48, 2125 kb/s, 90k tbn, 23.98 tbc
2012-06-08 17:01:29 Encoder: Stream #0.1(eng): Audio: libmp3lame, 48000 Hz, 2 channels, s16, 256 kb/s
2012-06-08 17:01:29 Encoder: Stream mapping:
2012-06-08 17:01:29 Encoder: Stream #0.0 -> #0.0
2012-06-08 17:01:29 Encoder: Stream #0.1 -> #0.1
2012-06-08 17:01:29 Encoder: Press [q] to stop encoding
2012-06-08 17:01:29 Encoder: frame= 44 fps= 0 q=2.0 size= 10kB time=0.29 bitrate= 283.3kbits/s dup=1 drop=0
2012-06-08 17:01:32 Segmenter: [mpegts @ 0x111a9b0]max_analyze_duration reached
2012-06-08 17:01:32 Segmenter: [mpegts @ 0x111a9b0]Estimating duration from bitrate, this may be inaccurate
2012-06-08 17:01:32 Segmenter: Output #0, mpegts, to '':
2012-06-08 17:01:32 Segmenter: Stream #0.0: Video: libx264, yuv420p, 640x264, q=2-31, 90k tbn, 23.98 tbc
2012-06-08 17:01:32 Segmenter: Stream #0.1: Audio: libmp3lame, 48000 Hz, 2 channels, 256 kb/s
2012-06-08 17:01:32 Segmenter: [mpegts @ 0x111dff0]stream 0, bit rate is not set, this will cause problems
2012-06-08 17:01:32 Segmenter: Offsetting timestamps by:0.000000
2012-06-08 17:01:32 Segmenter: [mpegts @ 0x111dff0]st:1 error, non monotone timestamps 63000 >= 63000
2012-06-08 17:01:32 Segmenter: Wrote segment 0
2012-06-08 17:01:34 Encoder: frame= 409 fps= 73 q=7.0 size= 4034kB time=15.52 bitrate=2129.8kbits/s dup=1 drop=0
2012-06-08 17:01:39 Encoder: frame= 870 fps= 82 q=14.0 size= 7160kB time=34.74 bitrate=1688.3kbits/s dup=1 drop=0
_______________________________________________________________________________________________________________________

And this is the log for 2.4.5-beta7 which doesn't let me play mp4 files with live conversion:

2012-06-08 17:05:39 LiveConversion: >>
395821474B69747C697A763B5D72777E683B3363232D32475A72694D727F7E74487E696D7E69477D7D766B7E7C357E637E393B3636687E7C767E756F
36777E757C6F733B2F3B3636687E7C767E756F36747D7D687E6F3B2B3B36367874756D7E696872747536727F3B782D2E7A2F2A237D36232E2B2F362F
2E2B7D3679282B2A36292D7D7E2B7D78222D7A2F2A7F2D7F282B7A2E28362A22297A362F28282C367A7F782F362E7979792A7A222B792F2F2A3B3636
6B74696F36756E76797E693B2F2D2D282A3B366F73697E7A7F683B2F3B36767A6B3B2B352B212B352B3B36767A6B3B2B352A212B352A3B3668683B2B
352B3B36723B395821474E687E6968475174697268475F746C7577747A7F68475D727776683B3D3B4F4D474F737E3B546F737E693B5C6E62683B292B
2A2B3B5E636F7E757F7E7F3B594949726B3B2C292B6B3B53292D2F36285772474F737E3B546F737E693B5C6E626835766B2F393B366D7D3B39786974
6B262A29232B212E2923212B212B373B68787A777E262D2F2B21292D2F393B367A686B7E786F3B2D2F2B21292D2F3B36623B367D3B766B7E7C6F683B
366D78747F7E783B77727963292D2F3B367D777A7C68293B307D7A686F3B367D777A7C683B307774746B3B367C3B282B3B36707E6272756F44767275
3B2A3B36797D3B2B3B367944686F697A6F7E7C623B2B3B367D777A7C68293B366C6B697E7F367F786F2363233B3678766B3B3078736974767A3B367F
7E79777478707A776B737A3B2B3B367F7E7977747870797E6F7A3B2B3B36697E7D683B2A3B3678747F7E693B2B3B36767E44697A757C7E3B2A2D3B36
686E796A3B2E3B366B7A696F726F727475683B306B7A696F722F632F306B7A696F72236323306B7A696F6B2363233B366F697E777772683B2B3B3668
78446F73697E687374777F3B2F2B3B3672446A7D7A786F74693B2B352C2A3B366A7874766B3B2B352D3B36796E7D6872617E3B2A2B292F703B36793B
292A292E703B36796F3B29292E2B703B366A767A633B2F233B366A7672753B293B36693B292835222C2D3B367A78747F7E783B7772796D74447A7A78
7E75783B367A793B292E2D703B367A693B2F232B2B2B3B367A783B293B36
<<

2012-06-08 17:05:40 SegmentedEncoder: ffmpeg version 0.7, Copyright (c) 2000-2011 the Libav developers
2012-06-08 17:05:40 SegmentedEncoder: built on Nov 9 2011 12:00:29 with gcc 4.5.2
2012-06-08 17:05:40 SegmentedEncoder: This program is not developed anymore and is only provided for compatibility. Use avconv instead (see Changelog for the list of incompatible changes).
2012-06-08 17:05:40 SegmentedEncoder:
2012-06-08 17:05:40 SegmentedEncoder: Seems stream 0 codec frame rate differs from container frame rate: 47.95 (20000000/417083) -> 23.98 (24000/1001)
2012-06-08 17:05:40 SegmentedEncoder: Input #0, mov,mp4,m4a,3gp,3g2,mj2, from 'C:\Users\Joris\Downloads\Films & TV\The Other Guys 2010 Extended BRRip 720p H264-3Li\The Other Guys.mp4':
2012-06-08 17:05:40 SegmentedEncoder: Metadata:
2012-06-08 17:05:40 SegmentedEncoder: major_brand : isom
2012-06-08 17:05:40 SegmentedEncoder: minor_version : 1
2012-06-08 17:05:40 SegmentedEncoder: compatible_brands: isomavc1
2012-06-08 17:05:40 SegmentedEncoder: creation_time : 2010-11-25 20:03:57
2012-06-08 17:05:40 SegmentedEncoder: Duration: 01:56:15.09, start: 0.000000, bitrate: 2687 kb/s
2012-06-08 17:05:40 SegmentedEncoder: Stream #0.0(und): Video: h264 (High), yuv420p, 1280x528 [PAR 1:1 DAR 80:33], 2299 kb/s, 23.98 fps, 23.98 tbr, 24k tbn, 47.95 tbc
2012-06-08 17:05:40 SegmentedEncoder: Metadata:
2012-06-08 17:05:40 SegmentedEncoder: creation_time : 2010-11-25 20:03:57
2012-06-08 17:05:40 SegmentedEncoder: Stream #0.1(eng): Audio: aac, 48000 Hz, 5.1, s16, 383 kb/s
2012-06-08 17:05:40 SegmentedEncoder: Metadata:
2012-06-08 17:05:40 SegmentedEncoder: creation_time : 2010-11-25 20:06:08
2012-06-08 17:05:40 SegmentedEncoder: [buffer @ 01147520] w:1280 h:528 pixfmt:yuv420p
2012-06-08 17:05:40 SegmentedEncoder: [crop @ 0129f8e0] w:1280 h:528 -> w:1280 h:528
2012-06-08 17:05:40 SegmentedEncoder: [scale @ 0129f8a0] w:1280 h:528 fmt:yuv420p -> w:640 h:264 fmt:yuv420p flags:0x4
2012-06-08 17:05:40 SegmentedEncoder: [libx264 @ 03ce0240] VBV maxrate unspecified, assuming CBR
2012-06-08 17:05:40 SegmentedEncoder: [libx264 @ 03ce0240] using SAR=1/1
2012-06-08 17:05:40 SegmentedEncoder: [libx264 @ 03ce0240] using cpu capabilities: MMX2 SSE2Fast SSSE3 FastShuffle SSE4.2
2012-06-08 17:05:40 SegmentedEncoder: [libx264 @ 03ce0240] profile Main, level 2.1
2012-06-08 17:05:40 SegmentedEncoder: [mpegts @ 0129f9a0] muxrate VBR, pcr every 2 pkts, sdt every 200, pat/pmt every 40 pkts
2012-06-08 17:05:40 SegmentedEncoder: Output #0, mpegts, to 'pipe:':
2012-06-08 17:05:40 SegmentedEncoder: Metadata:
2012-06-08 17:05:40 SegmentedEncoder: major_brand : isom
2012-06-08 17:05:40 SegmentedEncoder: minor_version : 1
2012-06-08 17:05:40 SegmentedEncoder: compatible_brands: isomavc1
2012-06-08 17:05:40 SegmentedEncoder: creation_time : 2010-11-25 20:03:57
2012-06-08 17:05:40 SegmentedEncoder: encoder : Lavf53.14.0
2012-06-08 17:05:40 SegmentedEncoder: Stream #0.0(und): Video: libx264, yuv420p, 640x264 [PAR 1:1 DAR 80:33], q=2-48, 2125 kb/s, 90k tbn, 23.98 tbc
2012-06-08 17:05:40 SegmentedEncoder: Metadata:
2012-06-08 17:05:40 SegmentedEncoder: creation_time : 2010-11-25 20:03:57
2012-06-08 17:05:40 SegmentedEncoder: Stream #0.1(eng): Audio: libvo_aacenc, 48000 Hz, 2 channels, s16, 256 kb/s
2012-06-08 17:05:40 SegmentedEncoder: Metadata:
2012-06-08 17:05:40 SegmentedEncoder: creation_time : 2010-11-25 20:06:08
2012-06-08 17:05:40 SegmentedEncoder: Stream mapping:
2012-06-08 17:05:40 SegmentedEncoder: Stream #0.0 -> #0.0
2012-06-08 17:05:40 SegmentedEncoder: Stream #0.1 -> #0.1
2012-06-08 17:05:40 SegmentedEncoder: Press ctrl-c to stop encoding
2012-06-08 17:05:40 SegmentedEncoder: Resampling output channel count must be 1 or 2 for mono input; 1, 2 or 6 for stereo input; or N for N channel input.
2012-06-08 17:05:40 SegmentedEncoder: Can not resample 6 channels @ 48000 Hz to 2 channels @ 48000 Hz


Hope this helps
I will upgrade again and post the conversion log here ASAP. Good to know you are still working om improving the app and server.
Hi, I've tested the 2.4.5-beta7 for a couple of month now and have come across what troubles me as a major bug; when playing a video that already is in mp4 format I can only play it, thus only stream it without converting. This is a problem because subtitles included in .srt format do not apear because the video is not converted. However, as soon as I hit 'play with live conversion' the video tries to load up for about 2-3 seconds then shuts down. Tested it on the iPhone and iPad.

The solution to this was for me to downgrade to the stable version 2.4.3. When i press play with live conversion it does load up fine.

I hope you keep suporting this awesome app!
 
Forum Index » Profile for jorisdepres » Messages posted by jorisdepres
Go to:   
Powered by JForum 2.1.8 © JForum Team