[Logo] Air Video Forum
  [Search] Search   [Recent Topics] Recent Topics   [Hottest Topics] Hottest Topics   [Members]  Member Listing   [Groups] Back to home page 
[Moderation Log] Moderation Log   [Register] Register / 
[Login] Login 
Messages posted by: Aurora13
Forum Index » Profile for Aurora13 » Messages posted by Aurora13
Author Message
Admin wrote:
Aurora13 wrote:
Admin wrote:You need to use Play with live conversion even with passthrough enabled. I admit it is a bit confusing. This will be reworked in Air Video 3.


Oké but that still doesn't explain why it doen't use passthrough when I play H264 files.

It really doesn't. Can you try to remove Air Video completely from your device and reinstall it from App Store?


Yes I did that and after that I saw what the problem was:
I always entered my internetname instead of my hostname.

Thanks for all sugestions to figure this out.
Admin wrote:You need to use Play with live conversion even with passthrough enabled. I admit it is a bit confusing. This will be reworked in Air Video 3.


Oké but that still doesn't explain why it doen't use passthrough when I play H264 files.
Admin wrote:This doesn't look like the passthrough is enabled. Did you enable it in Global Settings?


Yes I have checked it in the Global Settings.
After that it still gives me only the option Play with Live Conversion.
Admin wrote:How do you know they are still being converted? Can you post here live conversion log? It could be the container.


Because my CPU is 100% while watching a movie, it has lots of compression artifacts and it still shows the subtitles from a .srt file.
Reasons enough to believe it isn't doing passthrough.

here are my logs

2012-07-21 08:08:04 LiveConversion: >>
395821474B69747C697A763B5D72777E683B3363232D32475A72694D727F7E74487E696D7E69477A6D7874756D357E637E393B3636687E7C767E756F
36777E757C6F733B2F3B3636687E7C767E756F36747D7D687E6F3B2F2B3B36367874756D7E696872747536727F3B2E28282822227E7D3623787D2D36
2F7E232C3679287929367E287F292A7A2328782B2D2B7E782C2F782B2F7D362F7D7A7A362F2E2D7A36792D292F367A792F2C2E222C7D78222D2F3B36
366B74696F36756E76797E693B2F2D2D282A3B366F73697E7A7F683B2F3B3668683B2F2B352B3B36723B395F2147566E776F72767E7F727A474D727F
7E746847487E69727E684757727E3B6F743B567E47487E7A6874753B2B284757727E3B6F743B567E3B363B482B285E2A293B363B5C74757E3576706D
393B36767A6B3B2B212B372B212B3B36767A6B3B2B212A372B212A3B366D7D3B397869746B262A29232B212C292B212B212B373B68787A777E262A29
232B212C292B3778746B62393B367A686B7E786F3B2A29232B212C292B3B36623B367D3B766B7E7C6F683B367A686275783B362A3B366D78747F7E78
3B77727963292D2F3B366D78747F7E783B77727963292D2F3B367D777A7C68293B307D7A686F3B367D777A7C683B307774746B3B367C3B282B3B3670
7E6272756F447672753B2A3B36797D3B2B3B367944686F697A6F7E7C623B2B3B3678766B3B3078736974767A3B36697E7D683B2A3B3678747F7E693B
2B3B36767E44697A757C7E3B2A2D3B36686E796A3B2F3B366B7A696F726F727475683B306B7A696F722F632F306B7A696F72236323306B7A696F6B23
63233B366F697E777772683B2B3B366878446F73697E687374777F3B2F2B3B3672446A7D7A786F74693B2B352C2A3B366A7874766B3B2B352D3B3679
6E7D6872617E3B2A2B292F703B36793B2A292B2B703B36796F3B2A282B2B703B366A767A633B2F233B366A7672753B293B36693B292835222C2D3B36
7A78747F7E783B777279766B28777A767E3B367A793B2A2229703B367A693B2F232B2B2B3B367A783B293B36
<<

2012-07-21 08:08:05 SegmentedEncoder: avconv version 0.8, Copyright (c) 2000-2012 the Libav developers
2012-07-21 08:08:05 SegmentedEncoder: built on Jul 20 2012 01:21:49 with gcc 4.5.2
2012-07-21 08:08:05 SegmentedEncoder: Input #0, matroska,webm, from 'D:\Multimedia\Videos\Series\Lie to Me\Season 03\Lie to Me - S03E12 - Gone.mkv':
2012-07-21 08:08:05 SegmentedEncoder: Duration: 00:45:41.63, start: 0.000000, bitrate: N/A
2012-07-21 08:08:05 SegmentedEncoder: Stream #0.0(eng): Video: h264 (High), yuv420p, 1280x720 [PAR 1:1 DAR 16:9], 23.98 fps, 23.98 tbr, 1k tbn (default)
2012-07-21 08:08:05 SegmentedEncoder: Metadata:
2012-07-21 08:08:05 SegmentedEncoder: title : Lie to Me - Season 3, Episode 12: Gone Baby Gone
2012-07-21 08:08:05 SegmentedEncoder: Stream #0.1(eng): Audio: ac3, 48000 Hz, 5.1, s16, 384 kb/s (default)
2012-07-21 08:08:05 SegmentedEncoder: Metadata:
2012-07-21 08:08:05 SegmentedEncoder: title : Dolby Digital 5.1 @ 384 kbps
2012-07-21 08:08:05 SegmentedEncoder: [libx264 @ 01333bc0] VBV maxrate unspecified, assuming CBR
2012-07-21 08:08:05 SegmentedEncoder: [libx264 @ 01333bc0] using SAR=1/1
2012-07-21 08:08:05 SegmentedEncoder: [libx264 @ 01333bc0] using cpu capabilities: MMX2 SSE2Fast SSSE3 FastShuffle SSE4.2
2012-07-21 08:08:05 SegmentedEncoder: [libx264 @ 01333bc0] profile High, level 3.1
2012-07-21 08:08:05 SegmentedEncoder: [mpegts @ 0003fa80] muxrate VBR, pcr every 2 pkts, sdt every 200, pat/pmt every 40 pkts
2012-07-21 08:08:05 SegmentedEncoder: Output #0, mpegts, to 'pipe:':
2012-07-21 08:08:05 SegmentedEncoder: Metadata:
2012-07-21 08:08:05 SegmentedEncoder: encoder : Lavf54.9.0
2012-07-21 08:08:05 SegmentedEncoder: Stream #0.0(eng): Video: libx264, yuv420p, 1280x720 [PAR 1:1 DAR 16:9], q=2-48, 1200 kb/s, 90k tbn, 23.98 tbc (default)
2012-07-21 08:08:05 SegmentedEncoder: Metadata:
2012-07-21 08:08:05 SegmentedEncoder: title : Lie to Me - Season 3, Episode 12: Gone Baby Gone
2012-07-21 08:08:05 SegmentedEncoder: Stream #0.1(eng): Audio: libmp3lame, 48000 Hz, stereo, s16, 192 kb/s (default)
2012-07-21 08:08:05 SegmentedEncoder: Metadata:
2012-07-21 08:08:05 SegmentedEncoder: title : Dolby Digital 5.1 @ 384 kbps
2012-07-21 08:08:05 SegmentedEncoder: Stream mapping:
2012-07-21 08:08:05 SegmentedEncoder: Stream #0:0 -> #0:0 (h264 -> libx264)
2012-07-21 08:08:05 SegmentedEncoder: Stream #0:1 -> #0:1 (ac3 -> libmp3lame)
2012-07-21 08:08:05 SegmentedEncoder: Press ctrl-c to stop encoding
2012-07-21 08:08:05 SegmentedEncoder: [libx264 @ 01333bc0] non-strictly-monotonic PTS
2012-07-21 08:08:05 SegmentedEncoder: frame= 23 fps= 0 q=0.0 size= 0kB time=0.91 bitrate= 0.0kbits/s
2012-07-21 08:08:10 SegmentedEncoder: frame= 297 fps= 53 q=34.0 size= 2002kB time=10.43 bitrate=1572.8kbits/s
2012-07-21 08:08:15 SegmentedEncoder: frame= 585 fps= 55 q=37.0 size= 4238kB time=22.44 bitrate=1547.3kbits/s
2012-07-21 08:08:20 SegmentedEncoder: frame= 872 fps= 55 q=32.0 size= 6437kB time=34.41 bitrate=1532.5kbits/s
2012-07-21 08:08:25 SegmentedEncoder: frame= 1162 fps= 56 q=34.0 size= 8685kB time=46.50 bitrate=1530.0kbits/s
2012-07-21 08:08:59 LiveConversion: >>
395821474B69747C697A763B5D72777E683B3363232D32475A72694D727F7E74487E696D7E69477A6D7874756D357E637E393B3636687E7C767E756F
36777E757C6F733B2F3B3636687E7C767E756F36747D7D687E6F3B2B3B36367874756D7E696872747536727F3B787A2F782C792E78367D2A2978362F
2B782D367A2223293678282A2C2B292F22787A2B232F7D2E2B227F2F2A36782A2928362F232F2936792F2D7F3679292E2C2E2F222E22222F2A3B3636
6B74696F36756E76797E693B2F2D2D282A3B366F73697E7A7F683B2F3B3668683B2B352B3B36723B395F2147566E776F72767E7F727A474D727F7E74
6847487E69727E68474C73726F7E3B587477777A6947487E7A6874753B2B28474C73726F7E35587477777A6935482B285E2A2D35516E7F7C767E756F
355F7A62352C292B6B354C5E59365F57355F5F2E352A357335292D2F36554F793576706D393B36767A6B3B2B212B372B212B3B36767A6B3B2B212A37
2B212A3B366D7D3B397869746B262A29232B212C292B212B212B373B68787A777E262A29232B212C292B3778746B62393B367A686B7E786F3B2A2923
2B212C292B3B36623B367D3B766B7E7C6F683B367A686275783B362A3B366D78747F7E783B77727963292D2F3B366D78747F7E783B77727963292D2F
3B367D777A7C68293B307D7A686F3B367D777A7C683B307774746B3B367C3B282B3B36707E6272756F447672753B2A3B36797D3B2B3B367944686F69
7A6F7E7C623B2B3B3678766B3B3078736974767A3B36697E7D683B2A3B3678747F7E693B2B3B36767E44697A757C7E3B2A2D3B36686E796A3B2F3B36
6B7A696F726F727475683B306B7A696F722F632F306B7A696F72236323306B7A696F6B2363233B366F697E777772683B2B3B366878446F73697E6873
74777F3B2F2B3B3672446A7D7A786F74693B2B352C2A3B366A7874766B3B2B352D3B36796E7D6872617E3B2A2B292F703B36793B2A292B2B703B3679
6F3B2A282B2B703B366A767A633B2F233B366A7672753B293B36693B292835222C2D3B367A78747F7E783B777279766B28777A767E3B367A793B2A22
29703B367A693B2F232B2B2B3B367A783B293B36
<<

2012-07-21 08:09:00 SegmentedEncoder: avconv version 0.8, Copyright (c) 2000-2012 the Libav developers
2012-07-21 08:09:00 SegmentedEncoder: built on Jul 20 2012 01:21:49 with gcc 4.5.2
2012-07-21 08:09:00 SegmentedEncoder: Input #0, matroska,webm, from 'D:\Multimedia\Videos\Series\White Collar\Season 03\White.Collar.S03E16.Judgment.Day.720p.WEB-DL.DD5.1.h.264-NTb.mkv':
2012-07-21 08:09:00 SegmentedEncoder: Metadata:
2012-07-21 08:09:00 SegmentedEncoder: title : White Collar S03E16 Judgment Day
2012-07-21 08:09:00 SegmentedEncoder: Duration: 00:42:18.27, start: 0.000000, bitrate: N/A
2012-07-21 08:09:00 SegmentedEncoder: Stream #0.0(eng): Video: h264 (High), yuv420p, 1280x720 [PAR 1:1 DAR 16:9], 23.98 fps, 23.98 tbr, 1k tbn (default)
2012-07-21 08:09:00 SegmentedEncoder: Metadata:
2012-07-21 08:09:00 SegmentedEncoder: title : h.264
2012-07-21 08:09:00 SegmentedEncoder: Stream #0.1(eng): Audio: ac3, 48000 Hz, 5.1, s16, 384 kb/s (default)
2012-07-21 08:09:00 SegmentedEncoder: Metadata:
2012-07-21 08:09:00 SegmentedEncoder: title : DD 5.1
2012-07-21 08:09:00 SegmentedEncoder: [libx264 @ 0143e8e0] VBV maxrate unspecified, assuming CBR
2012-07-21 08:09:00 SegmentedEncoder: [libx264 @ 0143e8e0] using SAR=1/1
2012-07-21 08:09:00 SegmentedEncoder: [libx264 @ 0143e8e0] using cpu capabilities: MMX2 SSE2Fast SSSE3 FastShuffle SSE4.2
2012-07-21 08:09:00 SegmentedEncoder: [libx264 @ 0143e8e0] profile High, level 3.1
2012-07-21 08:09:00 SegmentedEncoder: [mpegts @ 037a68e0] muxrate VBR, pcr every 2 pkts, sdt every 200, pat/pmt every 40 pkts
2012-07-21 08:09:00 SegmentedEncoder: Output #0, mpegts, to 'pipe:':
2012-07-21 08:09:00 SegmentedEncoder: Metadata:
2012-07-21 08:09:00 SegmentedEncoder: title : White Collar S03E16 Judgment Day
2012-07-21 08:09:00 SegmentedEncoder: encoder : Lavf54.9.0
2012-07-21 08:09:00 SegmentedEncoder: Stream #0.0(eng): Video: libx264, yuv420p, 1280x720 [PAR 1:1 DAR 16:9], q=2-48, 1200 kb/s, 90k tbn, 23.98 tbc (default)
2012-07-21 08:09:00 SegmentedEncoder: Metadata:
2012-07-21 08:09:00 SegmentedEncoder: title : h.264
2012-07-21 08:09:00 SegmentedEncoder: Stream #0.1(eng): Audio: libmp3lame, 48000 Hz, stereo, s16, 192 kb/s (default)
2012-07-21 08:09:00 SegmentedEncoder: Metadata:
2012-07-21 08:09:00 SegmentedEncoder: title : DD 5.1
2012-07-21 08:09:00 SegmentedEncoder: Stream mapping:
2012-07-21 08:09:00 SegmentedEncoder: Stream #0:0 -> #0:0 (h264 -> libx264)
2012-07-21 08:09:00 SegmentedEncoder: Stream #0:1 -> #0:1 (ac3 -> libmp3lame)
2012-07-21 08:09:00 SegmentedEncoder: Press ctrl-c to stop encoding
2012-07-21 08:09:00 SegmentedEncoder: frame= 48 fps= 0 q=2.0 size= 15kB time=0.46 bitrate= 268.8kbits/s
2012-07-21 08:09:05 SegmentedEncoder: frame= 293 fps= 52 q=33.0 size= 1842kB time=10.68 bitrate=1413.6kbits/s
2012-07-21 08:09:10 SegmentedEncoder: frame= 526 fps= 49 q=32.0 size= 3680kB time=20.40 bitrate=1478.0kbits/s
2012-07-21 08:09:15 SegmentedEncoder: frame= 777 fps= 49 q=28.0 size= 5612kB time=30.86 bitrate=1489.7kbits/s
2012-07-21 08:09:20 SegmentedEncoder: frame= 1011 fps= 48 q=30.0 size= 7441kB time=40.62 bitrate=1500.6kbits/s
I installed 2.4.6b3 and on my 4s and iPad 3 I activated H264 passthrough. But non of the h264 movies I have plays in passthrough. It still converts them. Clearly I am doing something wrong here.

Where can I check whats going on?
 
Forum Index » Profile for Aurora13 » Messages posted by Aurora13
Go to:   
Powered by JForum 2.1.8 © JForum Team