[Logo] Air Video Forum
  [Search] Search   [Recent Topics] Recent Topics   [Hottest Topics] Hottest Topics   [Members]  Member Listing   [Groups] Back to home page 
[Moderation Log] Moderation Log   [Register] Register / 
[Login] Login 
Messages posted by: roger567
Forum Index » Profile for roger567 » Messages posted by roger567
Author Message
Just a recent discovery was that my iPad was having trouble syncing when I was having problems with Air Video. After reboot my iPad was syncing fine as well as Air Video was working again. Not sure if this helps any.

I think the problem was with my refurbed Netgear WNDR3400 N router. I have since replaced it and now have no problems.
Admin wrote:If you connect using server pin, do you still get timeout?


Yes, I just tried it.
Nope. It died again while I was live converting and switched to check my email. I restarted Bonjour and the Air Video but it timed out. So back to square one.
Well I looked and found the Bonjour service was stopped. So i started it and it didn't work. I restarted it and restarted Air Video and it worked. So, I'm not sure if this is the cure or not. I'll let you know.
On a fresh reboot everything works fine on 2.4mhz wifi. Other times it will time out when scrubbing video back and forth, or when switching out between tabs in iOS iPad a few times while live converting. When it times out the server is still available as well as the folders, but the files within will time out and not be shown. Nothing will bring it back to working order except a reboot. I am using Win 8 with an iPad mini with a Netgear WNDR3400 N router. Here is my last log where I was able to scrub back and forth once or twice, but switching tabs is what broke Air Video ...

2013-08-21 23:16:15 LiveConversion: >>
395821474B69747C697A763B5D72777E683B3363232D32475A72694D727F7E74487E696D7E69477A6D7874756D357E637E393B3636687E7C767E756F
36777E757C6F733B2F3B3636687E7C767E756F36747D7D687E6F3B2B3B36367874756D7E696872747536727F3B7F297F2C2D2E2A79362A7D7829362F
2B2A29367A2F2A2C367A22237A7F7F782E2C2A2F282B7F7D7A2A7E2E2B362822222B362F7A7E23367A282379362D282C79792F7E2D2C79282D3B3636
6B74696F36756E76797E693B2F2D2D282A3B366F73697E7A7F683B2F3B3668683B2B352B3B36723B3953214756746D727E68474F737E3B536E757C7E
693B5C7A767E683B33292B2A29323B5F4D5F49726B3B436D725F36565A43484B5E5E5F474F737E3B536E757C7E693B5C7A767E683B33292B2A29323B
5F4D5F49726B3B436D725F36565A43484B5E5E5F3B6C6C6C356F74697E756F613528637D74696E76356974357A6D72393B36767A6B3B2B212B372B21
2B3B36767A6B3B2B212A372B212A3B366D7D3B397869746B262D292F21292E2D212B212B373B68787A777E262D292F21292E2D3778746B62393B367A
686B7E786F3B2D292F21292E2D3B36623B367D3B766B7E7C6F683B367A686275783B362A3B366D78747F7E783B77727963292D2F3B366D78747F7E78
3B77727963292D2F3B367D777A7C68293B307D7A686F3B367D777A7C683B307774746B3B367C3B282B3B36707E6272756F447672753B2A3B36797D3B
2B3B367944686F697A6F7E7C623B2B3B3678766B3B3078736974767A3B36697E7D683B2A3B3678747F7E693B2B3B36767E44697A757C7E3B2A2D3B36
686E796A3B2F3B366B7A696F726F727475683B306B7A696F722F632F306B7A696F72236323306B7A696F6B2363233B366F697E777772683B2B3B3668
78446F73697E687374777F3B2F2B3B3672446A7D7A786F74693B2B352C2A3B366A7874766B3B2B352D3B36796E7D6872617E3B2A2B292F703B36793B
2A292B2B703B36796F3B2A282B2B703B366A767A633B2F233B366A7672753B293B36693B292835222C2D3B367A78747F7E783B777279766B28777A76
7E3B367A793B2A2229703B367A693B2F232B2B2B3B367A783B293B36
<<

2013-08-21 23:16:16 SegmentedEncoder: avconv version 0.8, Copyright (c) 2000-2012 the Libav developers
2013-08-21 23:16:16 SegmentedEncoder: built on Jul 20 2012 01:21:49 with gcc 4.5.2
2013-08-21 23:16:16 SegmentedEncoder: Input #0, avi, from 'H:\Movies\The Hunger Games (2012) DVDRip XviD-MAXSPEED\The Hunger Games (2012) DVDRip XviD-MAXSPEED www.torentz.3xforum.ro.avi':
2013-08-21 23:16:16 SegmentedEncoder: Metadata:
2013-08-21 23:16:16 SegmentedEncoder: encoder : AVI-Mux GUI 1.17.8, Aug 30 2008 12:36:58
2013-08-21 23:16:16 SegmentedEncoder: JUNK :
2013-08-21 23:16:16 SegmentedEncoder: Duration: 02:24:01.62, start: 0.000000, bitrate: 1293 kb/s
2013-08-21 23:16:16 SegmentedEncoder: Stream #0.0: Video: mpeg4 (Advanced Simple Profile), yuv420p, 624x256 [PAR 1:1 DAR 39:16], 23.98 tbn, 23.98 tbc
2013-08-21 23:16:16 SegmentedEncoder: Stream #0.1: Audio: ac3, 48000 Hz, 5.1, s16, 384 kb/s
2013-08-21 23:16:16 SegmentedEncoder: Metadata:
2013-08-21 23:16:16 SegmentedEncoder: title : hunger
2013-08-21 23:16:16 SegmentedEncoder: [libx264 @ 032c8160] VBV maxrate unspecified, assuming CBR
2013-08-21 23:16:16 SegmentedEncoder: [libx264 @ 032c8160] using SAR=1/1
2013-08-21 23:16:16 SegmentedEncoder: [libx264 @ 032c8160] using cpu capabilities: MMX2 SSE2Fast FastShuffle SSEMisalign LZCNT
2013-08-21 23:16:16 SegmentedEncoder: [libx264 @ 032c8160] profile High, level 2.1
2013-08-21 23:16:16 SegmentedEncoder: [mpegts @ 032c7c80] muxrate VBR, pcr every 2 pkts, sdt every 200, pat/pmt every 40 pkts
2013-08-21 23:16:16 SegmentedEncoder: Output #0, mpegts, to 'pipe:':
2013-08-21 23:16:16 SegmentedEncoder: Metadata:
2013-08-21 23:16:16 SegmentedEncoder: JUNK :
2013-08-21 23:16:16 SegmentedEncoder: encoder : Lavf54.9.0
2013-08-21 23:16:16 SegmentedEncoder: Stream #0.0: Video: libx264, yuv420p, 624x256 [PAR 1:1 DAR 39:16], q=2-48, 1200 kb/s, 90k tbn, 23.98 tbc
2013-08-21 23:16:16 SegmentedEncoder: Stream #0.1: Audio: libmp3lame, 48000 Hz, stereo, s16, 192 kb/s
2013-08-21 23:16:16 SegmentedEncoder: Metadata:
2013-08-21 23:16:16 SegmentedEncoder: title : hunger
2013-08-21 23:16:16 SegmentedEncoder: Stream mapping:
2013-08-21 23:16:16 SegmentedEncoder: Stream #0:0 -> #0:0 (mpeg4 -> libx264)
2013-08-21 23:16:16 SegmentedEncoder: Stream #0:1 -> #0:1 (ac3 -> libmp3lame)
2013-08-21 23:16:16 SegmentedEncoder: Press ctrl-c to stop encoding
2013-08-21 23:16:16 SegmentedEncoder: frame= 159 fps= 0 q=30.0 size= 693kB time=5.13 bitrate=1106.8kbits/s
2013-08-21 23:16:31 LiveConversion: >>
395821474B69747C697A763B5D72777E683B3363232D32475A72694D727F7E74487E696D7E69477A6D7874756D357E637E393B3636687E7C767E756F
36777E757C6F733B2F3B3636687E7C767E756F36747D7D687E6F3B28222D3B36367874756D7E696872747536727F3B7F297F2C2D2E2A79362A7D7829
362F2B2A29367A2F2A2C367A22237A7F7F782E2C2A2F282C2C2F232E7E2E2236287A2E2E362F7D2F7A36222C2B7A367E7E237F2C2F237A2D7D287A3B
36366B74696F36756E76797E693B2F2D2D282A3B366F73697E7A7F683B2F3B3668683B28222D352B3B36723B3953214756746D727E68474F737E3B53
6E757C7E693B5C7A767E683B33292B2A29323B5F4D5F49726B3B436D725F36565A43484B5E5E5F474F737E3B536E757C7E693B5C7A767E683B33292B
2A29323B5F4D5F49726B3B436D725F36565A43484B5E5E5F3B6C6C6C356F74697E756F613528637D74696E76356974357A6D72393B36767A6B3B2B21
2B372B212B3B36767A6B3B2B212A372B212A3B366D7D3B397869746B262D292F21292E2D212B212B373B68787A777E262D292F21292E2D3778746B62
393B367A686B7E786F3B2D292F21292E2D3B36623B367D3B766B7E7C6F683B367A686275783B362A3B366D78747F7E783B77727963292D2F3B366D78
747F7E783B77727963292D2F3B367D777A7C68293B307D7A686F3B367D777A7C683B307774746B3B367C3B282B3B36707E6272756F447672753B2A3B
36797D3B2B3B367944686F697A6F7E7C623B2B3B3678766B3B3078736974767A3B36697E7D683B2A3B3678747F7E693B2B3B36767E44697A757C7E3B
2A2D3B36686E796A3B2F3B366B7A696F726F727475683B306B7A696F722F632F306B7A696F72236323306B7A696F6B2363233B366F697E777772683B
2B3B366878446F73697E687374777F3B2F2B3B3672446A7D7A786F74693B2B352C2A3B366A7874766B3B2B352D3B36796E7D6872617E3B2A2B292F70
3B36793B2A292B2B703B36796F3B2A282B2B703B366A767A633B2F233B366A7672753B293B36693B292835222C2D3B367A78747F7E783B777279766B
28777A767E3B367A793B2A2229703B367A693B2F232B2B2B3B367A783B293B36
<<

2013-08-21 23:16:32 SegmentedEncoder: avconv version 0.8, Copyright (c) 2000-2012 the Libav developers
2013-08-21 23:16:32 SegmentedEncoder: built on Jul 20 2012 01:21:49 with gcc 4.5.2
2013-08-21 23:16:32 SegmentedEncoder: Input #0, avi, from 'H:\Movies\The Hunger Games (2012) DVDRip XviD-MAXSPEED\The Hunger Games (2012) DVDRip XviD-MAXSPEED www.torentz.3xforum.ro.avi':
2013-08-21 23:16:32 SegmentedEncoder: Metadata:
2013-08-21 23:16:32 SegmentedEncoder: encoder : AVI-Mux GUI 1.17.8, Aug 30 2008 12:36:58
2013-08-21 23:16:32 SegmentedEncoder: JUNK :
2013-08-21 23:16:32 SegmentedEncoder: Duration: 02:24:01.62, start: 0.000000, bitrate: 1293 kb/s
2013-08-21 23:16:32 SegmentedEncoder: Stream #0.0: Video: mpeg4 (Advanced Simple Profile), yuv420p, 624x256 [PAR 1:1 DAR 39:16], 23.98 tbn, 23.98 tbc
2013-08-21 23:16:32 SegmentedEncoder: Stream #0.1: Audio: ac3, 48000 Hz, 5.1, s16, 384 kb/s
2013-08-21 23:16:32 SegmentedEncoder: Metadata:
2013-08-21 23:16:32 SegmentedEncoder: title : hunger
2013-08-21 23:16:32 SegmentedEncoder: [libx264 @ 032c8160] VBV maxrate unspecified, assuming CBR
2013-08-21 23:16:32 SegmentedEncoder: [libx264 @ 032c8160] using SAR=1/1
2013-08-21 23:16:32 SegmentedEncoder: [libx264 @ 032c8160] using cpu capabilities: MMX2 SSE2Fast FastShuffle SSEMisalign LZCNT
2013-08-21 23:16:32 SegmentedEncoder: [libx264 @ 032c8160] profile High, level 2.1
2013-08-21 23:16:32 SegmentedEncoder: [mpegts @ 032c7c80] muxrate VBR, pcr every 2 pkts, sdt every 200, pat/pmt every 40 pkts
2013-08-21 23:16:32 SegmentedEncoder: Output #0, mpegts, to 'pipe:':
2013-08-21 23:16:32 SegmentedEncoder: Metadata:
2013-08-21 23:16:32 SegmentedEncoder: JUNK :
2013-08-21 23:16:32 SegmentedEncoder: encoder : Lavf54.9.0
2013-08-21 23:16:32 SegmentedEncoder: Stream #0.0: Video: libx264, yuv420p, 624x256 [PAR 1:1 DAR 39:16], q=2-48, 1200 kb/s, 90k tbn, 23.98 tbc
2013-08-21 23:16:32 SegmentedEncoder: Stream #0.1: Audio: libmp3lame, 48000 Hz, stereo, s16, 192 kb/s
2013-08-21 23:16:32 SegmentedEncoder: Metadata:
2013-08-21 23:16:32 SegmentedEncoder: title : hunger
2013-08-21 23:16:32 SegmentedEncoder: Stream mapping:
2013-08-21 23:16:32 SegmentedEncoder: Stream #0:0 -> #0:0 (mpeg4 -> libx264)
2013-08-21 23:16:32 SegmentedEncoder: Stream #0:1 -> #0:1 (ac3 -> libmp3lame)
2013-08-21 23:16:32 SegmentedEncoder: Press ctrl-c to stop encoding
2013-08-21 23:16:32 SegmentedEncoder: [libx264 @ 032c8160] non-strictly-monotonic PTS
2013-08-21 23:16:32 SegmentedEncoder: frame= 135 fps= 0 q=23.0 size= 765kB time=0.71 bitrate=8843.1kbits/s
2013-08-21 23:16:48 LiveConversion: >>
395821474B69747C697A763B5D72777E683B3363232D32475A72694D727F7E74487E696D7E69477A6D7874756D357E637E393B3636687E7C767E756F
36777E757C6F733B2F3B3636687E7C767E756F36747D7D687E6F3B28222D3B36367874756D7E696872747536727F3B782E2A2C28787F7E367978292D
362F7E2B2936232F2A28362F2378797A7E282F7F227D787F7F232A2822237836227A7D7A362F29297936232C2E2936792A792A22292A7A232E2B2C3B
36366B74696F36756E76797E693B2F2D2D282A3B366F73697E7A7F683B2F3B3668683B28222D352B3B36723B3953214756746D727E68474F737E3B53
6E757C7E693B5C7A767E683B33292B2A29323B5F4D5F49726B3B436D725F36565A43484B5E5E5F474F737E3B536E757C7E693B5C7A767E683B33292B
2A29323B5F4D5F49726B3B436D725F36565A43484B5E5E5F3B6C6C6C356F74697E756F613528637D74696E76356974357A6D72393B36767A6B3B2B21
2B372B212B3B36767A6B3B2B212A372B212A3B366D7D3B397869746B262D292F21292E2D212B212B373B68787A777E262D292F21292E2D3778746B62
393B367A686B7E786F3B2D292F21292E2D3B36623B367D3B766B7E7C6F683B367A686275783B362A3B366D78747F7E783B77727963292D2F3B366D78
747F7E783B77727963292D2F3B367D777A7C68293B307D7A686F3B367D777A7C683B307774746B3B367C3B282B3B36707E6272756F447672753B2A3B
36797D3B2B3B367944686F697A6F7E7C623B2B3B3678766B3B3078736974767A3B36697E7D683B2A3B3678747F7E693B2B3B36767E44697A757C7E3B
2A2D3B36686E796A3B2F3B366B7A696F726F727475683B306B7A696F722F632F306B7A696F72236323306B7A696F6B2363233B366F697E777772683B
2B3B366878446F73697E687374777F3B2F2B3B3672446A7D7A786F74693B2B352C2A3B366A7874766B3B2B352D3B36796E7D6872617E3B2A2B292F70
3B36793B2A292B2B703B36796F3B2A282B2B703B366A767A633B2F233B366A7672753B293B36693B292835222C2D3B367A78747F7E783B777279766B
28777A767E3B367A793B2A2229703B367A693B2F232B2B2B3B366D74773B2A282B2B3B367A783B293B36
<<

2013-08-21 23:16:49 SegmentedEncoder: avconv version 0.8, Copyright (c) 2000-2012 the Libav developers
2013-08-21 23:16:49 SegmentedEncoder: built on Jul 20 2012 01:21:49 with gcc 4.5.2
2013-08-21 23:16:49 SegmentedEncoder: Input #0, avi, from 'H:\Movies\The Hunger Games (2012) DVDRip XviD-MAXSPEED\The Hunger Games (2012) DVDRip XviD-MAXSPEED www.torentz.3xforum.ro.avi':
2013-08-21 23:16:49 SegmentedEncoder: Metadata:
2013-08-21 23:16:49 SegmentedEncoder: encoder : AVI-Mux GUI 1.17.8, Aug 30 2008 12:36:58
2013-08-21 23:16:49 SegmentedEncoder: JUNK :
2013-08-21 23:16:49 SegmentedEncoder: Duration: 02:24:01.62, start: 0.000000, bitrate: 1293 kb/s
2013-08-21 23:16:49 SegmentedEncoder: Stream #0.0: Video: mpeg4 (Advanced Simple Profile), yuv420p, 624x256 [PAR 1:1 DAR 39:16], 23.98 tbn, 23.98 tbc
2013-08-21 23:16:49 SegmentedEncoder: Stream #0.1: Audio: ac3, 48000 Hz, 5.1, s16, 384 kb/s
2013-08-21 23:16:49 SegmentedEncoder: Metadata:
2013-08-21 23:16:49 SegmentedEncoder: title : hunger
2013-08-21 23:16:49 SegmentedEncoder: [libx264 @ 032c8160] VBV maxrate unspecified, assuming CBR
2013-08-21 23:16:49 SegmentedEncoder: [libx264 @ 032c8160] using SAR=1/1
2013-08-21 23:16:49 SegmentedEncoder: [libx264 @ 032c8160] using cpu capabilities: MMX2 SSE2Fast FastShuffle SSEMisalign LZCNT
2013-08-21 23:16:49 SegmentedEncoder: [libx264 @ 032c8160] profile High, level 2.1
2013-08-21 23:16:49 SegmentedEncoder: [mpegts @ 032c7c80] muxrate VBR, pcr every 2 pkts, sdt every 200, pat/pmt every 40 pkts
2013-08-21 23:16:49 SegmentedEncoder: Output #0, mpegts, to 'pipe:':
2013-08-21 23:16:49 SegmentedEncoder: Metadata:
2013-08-21 23:16:49 SegmentedEncoder: JUNK :
2013-08-21 23:16:49 SegmentedEncoder: encoder : Lavf54.9.0
2013-08-21 23:16:49 SegmentedEncoder: Stream #0.0: Video: libx264, yuv420p, 624x256 [PAR 1:1 DAR 39:16], q=2-48, 1200 kb/s, 90k tbn, 23.98 tbc
2013-08-21 23:16:49 SegmentedEncoder: Stream #0.1: Audio: libmp3lame, 48000 Hz, stereo, s16, 192 kb/s
2013-08-21 23:16:49 SegmentedEncoder: Metadata:
2013-08-21 23:16:49 SegmentedEncoder: title : hunger
2013-08-21 23:16:49 SegmentedEncoder: Stream mapping:
2013-08-21 23:16:49 SegmentedEncoder: Stream #0:0 -> #0:0 (mpeg4 -> libx264)
2013-08-21 23:16:49 SegmentedEncoder: Stream #0:1 -> #0:1 (ac3 -> libmp3lame)
2013-08-21 23:16:49 SegmentedEncoder: Press ctrl-c to stop encoding
2013-08-21 23:16:49 SegmentedEncoder: [libx264 @ 032c8160] non-strictly-monotonic PTS
2013-08-21 23:16:49 SegmentedEncoder: frame= 143 fps= 0 q=22.0 size= 827kB time=1.04 bitrate=6498.0kbits/s
2013-08-21 23:16:53 LiveConversion: >>
395821474B69747C697A763B5D72777E683B3363232D32475A72694D727F7E74487E696D7E69477A6D7874756D357E637E393B3636687E7C767E756F
36777E757C6F733B2F3B3636687E7C767E756F36747D7D687E6F3B2923233B36367874756D7E696872747536727F3B782E2A2C28787F7E367978292D
362F7E2B2936232F2A28362F2378797A7E282F7F227D782E7D78787E2E2F7E367D792C2C362F28297A3623232B2D36292A2B2B23792C2C2F7E7A2C3B
36366B74696F36756E76797E693B2F2D2D282A3B366F73697E7A7F683B2F3B3668683B292323352B3B36723B3953214756746D727E68474F737E3B53
6E757C7E693B5C7A767E683B33292B2A29323B5F4D5F49726B3B436D725F36565A43484B5E5E5F474F737E3B536E757C7E693B5C7A767E683B33292B
2A29323B5F4D5F49726B3B436D725F36565A43484B5E5E5F3B6C6C6C356F74697E756F613528637D74696E76356974357A6D72393B36767A6B3B2B21
2B372B212B3B36767A6B3B2B212A372B212A3B366D7D3B397869746B262D292F21292E2D212B212B373B68787A777E262D292F21292E2D3778746B62
393B367A686B7E786F3B2D292F21292E2D3B36623B367D3B766B7E7C6F683B367A686275783B362A3B366D78747F7E783B77727963292D2F3B366D78
747F7E783B77727963292D2F3B367D777A7C68293B307D7A686F3B367D777A7C683B307774746B3B367C3B282B3B36707E6272756F447672753B2A3B
36797D3B2B3B367944686F697A6F7E7C623B2B3B3678766B3B3078736974767A3B36697E7D683B2A3B3678747F7E693B2B3B36767E44697A757C7E3B
2A2D3B36686E796A3B2F3B366B7A696F726F727475683B306B7A696F722F632F306B7A696F72236323306B7A696F6B2363233B366F697E777772683B
2B3B366878446F73697E687374777F3B2F2B3B3672446A7D7A786F74693B2B352C2A3B366A7874766B3B2B352D3B36796E7D6872617E3B2A2B292F70
3B36793B2A292B2B703B36796F3B2A282B2B703B366A767A633B2F233B366A7672753B293B36693B292835222C2D3B367A78747F7E783B777279766B
28777A767E3B367A793B2A2229703B367A693B2F232B2B2B3B366D74773B2A282B2B3B367A783B293B36
<<

2013-08-21 23:16:54 SegmentedEncoder: avconv version 0.8, Copyright (c) 2000-2012 the Libav developers
2013-08-21 23:16:54 SegmentedEncoder: built on Jul 20 2012 01:21:49 with gcc 4.5.2
2013-08-21 23:16:54 SegmentedEncoder: Input #0, avi, from 'H:\Movies\The Hunger Games (2012) DVDRip XviD-MAXSPEED\The Hunger Games (2012) DVDRip XviD-MAXSPEED www.torentz.3xforum.ro.avi':
2013-08-21 23:16:54 SegmentedEncoder: Metadata:
2013-08-21 23:16:54 SegmentedEncoder: encoder : AVI-Mux GUI 1.17.8, Aug 30 2008 12:36:58
2013-08-21 23:16:54 SegmentedEncoder: JUNK :
2013-08-21 23:16:54 SegmentedEncoder: Duration: 02:24:01.62, start: 0.000000, bitrate: 1293 kb/s
2013-08-21 23:16:54 SegmentedEncoder: Stream #0.0: Video: mpeg4 (Advanced Simple Profile), yuv420p, 624x256 [PAR 1:1 DAR 39:16], 23.98 tbn, 23.98 tbc
2013-08-21 23:16:54 SegmentedEncoder: Stream #0.1: Audio: ac3, 48000 Hz, 5.1, s16, 384 kb/s
2013-08-21 23:16:54 SegmentedEncoder: Metadata:
2013-08-21 23:16:54 SegmentedEncoder: title : hunger
2013-08-21 23:16:54 SegmentedEncoder: [libx264 @ 032c8160] VBV maxrate unspecified, assuming CBR
2013-08-21 23:16:54 SegmentedEncoder: [libx264 @ 032c8160] using SAR=1/1
2013-08-21 23:16:54 SegmentedEncoder: [libx264 @ 032c8160] using cpu capabilities: MMX2 SSE2Fast FastShuffle SSEMisalign LZCNT
2013-08-21 23:16:54 SegmentedEncoder: [libx264 @ 032c8160] profile High, level 2.1
2013-08-21 23:16:54 SegmentedEncoder: [mpegts @ 032c7c80] muxrate VBR, pcr every 2 pkts, sdt every 200, pat/pmt every 40 pkts
2013-08-21 23:16:54 SegmentedEncoder: Output #0, mpegts, to 'pipe:':
2013-08-21 23:16:54 SegmentedEncoder: Metadata:
2013-08-21 23:16:54 SegmentedEncoder: JUNK :
2013-08-21 23:16:54 SegmentedEncoder: encoder : Lavf54.9.0
2013-08-21 23:16:54 SegmentedEncoder: Stream #0.0: Video: libx264, yuv420p, 624x256 [PAR 1:1 DAR 39:16], q=2-48, 1200 kb/s, 90k tbn, 23.98 tbc
2013-08-21 23:16:54 SegmentedEncoder: Stream #0.1: Audio: libmp3lame, 48000 Hz, stereo, s16, 192 kb/s
2013-08-21 23:16:54 SegmentedEncoder: Metadata:
2013-08-21 23:16:54 SegmentedEncoder: title : hunger
2013-08-21 23:16:54 SegmentedEncoder: Stream mapping:
2013-08-21 23:16:54 SegmentedEncoder: Stream #0:0 -> #0:0 (mpeg4 -> libx264)
2013-08-21 23:16:54 SegmentedEncoder: Stream #0:1 -> #0:1 (ac3 -> libmp3lame)
2013-08-21 23:16:54 SegmentedEncoder: Press ctrl-c to stop encoding
2013-08-21 23:16:54 SegmentedEncoder: [libx264 @ 032c8160] non-strictly-monotonic PTS
2013-08-21 23:16:54 SegmentedEncoder: frame= 139 fps= 0 q=19.0 size= 784kB time=1.88 bitrate=3421.7kbits/s
2013-08-21 23:16:54 LiveConversion: >>
395821474B69747C697A763B5D72777E683B3363232D32475A72694D727F7E74487E696D7E69477A6D7874756D357E637E393B3636687E7C767E756F
36777E757C6F733B2F3B3636687E7C767E756F36747D7D687E6F3B2A2E293B36367874756D7E696872747536727F3B782E2A2C28787F7E367978292D
362F7E2B2936232F2A28362F2378797A7E282F7F227D782B2A2A2E232B782936792E2A2C362F7828233623237F2C36222C7F22782A787A7A2D237D3B
36366B74696F36756E76797E693B2F2D2D282A3B366F73697E7A7F683B2F3B3668683B2A2E29352B3B36723B3953214756746D727E68474F737E3B53
6E757C7E693B5C7A767E683B33292B2A29323B5F4D5F49726B3B436D725F36565A43484B5E5E5F474F737E3B536E757C7E693B5C7A767E683B33292B
2A29323B5F4D5F49726B3B436D725F36565A43484B5E5E5F3B6C6C6C356F74697E756F613528637D74696E76356974357A6D72393B36767A6B3B2B21
2B372B212B3B36767A6B3B2B212A372B212A3B366D7D3B397869746B262D292F21292E2D212B212B373B68787A777E262D292F21292E2D3778746B62
393B367A686B7E786F3B2D292F21292E2D3B36623B367D3B766B7E7C6F683B367A686275783B362A3B366D78747F7E783B77727963292D2F3B366D78
747F7E783B77727963292D2F3B367D777A7C68293B307D7A686F3B367D777A7C683B307774746B3B367C3B282B3B36707E6272756F447672753B2A3B
36797D3B2B3B367944686F697A6F7E7C623B2B3B3678766B3B3078736974767A3B36697E7D683B2A3B3678747F7E693B2B3B36767E44697A757C7E3B
2A2D3B36686E796A3B2F3B366B7A696F726F727475683B306B7A696F722F632F306B7A696F72236323306B7A696F6B2363233B366F697E777772683B
2B3B366878446F73697E687374777F3B2F2B3B3672446A7D7A786F74693B2B352C2A3B366A7874766B3B2B352D3B36796E7D6872617E3B2A2B292F70
3B36793B2A292B2B703B36796F3B2A282B2B703B366A767A633B2F233B366A7672753B293B36693B292835222C2D3B367A78747F7E783B777279766B
28777A767E3B367A793B2A2229703B367A693B2F232B2B2B3B366D74773B2A282B2B3B367A783B293B36
<<

2013-08-21 23:16:55 SegmentedEncoder: avconv version 0.8, Copyright (c) 2000-2012 the Libav developers
2013-08-21 23:16:55 SegmentedEncoder: built on Jul 20 2012 01:21:49 with gcc 4.5.2
2013-08-21 23:16:55 SegmentedEncoder: Input #0, avi, from 'H:\Movies\The Hunger Games (2012) DVDRip XviD-MAXSPEED\The Hunger Games (2012) DVDRip XviD-MAXSPEED www.torentz.3xforum.ro.avi':
2013-08-21 23:16:55 SegmentedEncoder: Metadata:
2013-08-21 23:16:55 SegmentedEncoder: encoder : AVI-Mux GUI 1.17.8, Aug 30 2008 12:36:58
2013-08-21 23:16:55 SegmentedEncoder: JUNK :
2013-08-21 23:16:55 SegmentedEncoder: Duration: 02:24:01.62, start: 0.000000, bitrate: 1293 kb/s
2013-08-21 23:16:55 SegmentedEncoder: Stream #0.0: Video: mpeg4 (Advanced Simple Profile), yuv420p, 624x256 [PAR 1:1 DAR 39:16], 23.98 tbn, 23.98 tbc
2013-08-21 23:16:55 SegmentedEncoder: Stream #0.1: Audio: ac3, 48000 Hz, 5.1, s16, 384 kb/s
2013-08-21 23:16:55 SegmentedEncoder: Metadata:
2013-08-21 23:16:55 SegmentedEncoder: title : hunger
2013-08-21 23:16:55 SegmentedEncoder: [libx264 @ 032c8160] VBV maxrate unspecified, assuming CBR
2013-08-21 23:16:55 SegmentedEncoder: [libx264 @ 032c8160] using SAR=1/1
2013-08-21 23:16:55 SegmentedEncoder: [libx264 @ 032c8160] using cpu capabilities: MMX2 SSE2Fast FastShuffle SSEMisalign LZCNT
2013-08-21 23:16:55 SegmentedEncoder: [libx264 @ 032c8160] profile High, level 2.1
2013-08-21 23:16:55 SegmentedEncoder: [mpegts @ 032c7c80] muxrate VBR, pcr every 2 pkts, sdt every 200, pat/pmt every 40 pkts
2013-08-21 23:16:55 SegmentedEncoder: Output #0, mpegts, to 'pipe:':
2013-08-21 23:16:55 SegmentedEncoder: Metadata:
2013-08-21 23:16:55 SegmentedEncoder: JUNK :
2013-08-21 23:16:55 SegmentedEncoder: encoder : Lavf54.9.0
2013-08-21 23:16:55 SegmentedEncoder: Stream #0.0: Video: libx264, yuv420p, 624x256 [PAR 1:1 DAR 39:16], q=2-48, 1200 kb/s, 90k tbn, 23.98 tbc
2013-08-21 23:16:55 SegmentedEncoder: Stream #0.1: Audio: libmp3lame, 48000 Hz, stereo, s16, 192 kb/s
2013-08-21 23:16:55 SegmentedEncoder: Metadata:
2013-08-21 23:16:55 SegmentedEncoder: title : hunger
2013-08-21 23:16:55 SegmentedEncoder: Stream mapping:
2013-08-21 23:16:55 SegmentedEncoder: Stream #0:0 -> #0:0 (mpeg4 -> libx264)
2013-08-21 23:16:55 SegmentedEncoder: Stream #0:1 -> #0:1 (ac3 -> libmp3lame)
2013-08-21 23:16:55 SegmentedEncoder: Press ctrl-c to stop encoding
2013-08-21 23:16:55 SegmentedEncoder: [libx264 @ 032c8160] non-strictly-monotonic PTS
2013-08-21 23:16:55 SegmentedEncoder: frame= 153 fps= 0 q=13.0 size= 895kB time=0.17 bitrate=43372.5kbits/s
2013-08-21 23:16:55 LiveConversion: >>
395821474B69747C697A763B5D72777E683B3363232D32475A72694D727F7E74487E696D7E69477A6D7874756D357E637E393B3636687E7C767E756F
36777E757C6F733B2F3B3636687E7C767E756F36747D7D687E6F3B2B3B36367874756D7E696872747536727F3B782E2A2C28787F7E367978292D362F
7E2B2936232F2A28362F2378797A7E282F7F227D782B2D7E2D792B2D2E362C29232D362F29232836797A7F22367E227F7E2D7A2C7D7A2A787D3B3636
6B74696F36756E76797E693B2F2D2D282A3B366F73697E7A7F683B2F3B3668683B2B352B3B36723B3953214756746D727E68474F737E3B536E757C7E
693B5C7A767E683B33292B2A29323B5F4D5F49726B3B436D725F36565A43484B5E5E5F474F737E3B536E757C7E693B5C7A767E683B33292B2A29323B
5F4D5F49726B3B436D725F36565A43484B5E5E5F3B6C6C6C356F74697E756F613528637D74696E76356974357A6D72393B36767A6B3B2B212B372B21
2B3B36767A6B3B2B212A372B212A3B366D7D3B397869746B262D292F21292E2D212B212B373B68787A777E262D292F21292E2D3778746B62393B367A
686B7E786F3B2D292F21292E2D3B36623B367D3B766B7E7C6F683B367A686275783B362A3B366D78747F7E783B77727963292D2F3B366D78747F7E78
3B77727963292D2F3B367D777A7C68293B307D7A686F3B367D777A7C683B307774746B3B367C3B282B3B36707E6272756F447672753B2A3B36797D3B
2B3B367944686F697A6F7E7C623B2B3B3678766B3B3078736974767A3B36697E7D683B2A3B3678747F7E693B2B3B36767E44697A757C7E3B2A2D3B36
686E796A3B2F3B366B7A696F726F727475683B306B7A696F722F632F306B7A696F72236323306B7A696F6B2363233B366F697E777772683B2B3B3668
78446F73697E687374777F3B2F2B3B3672446A7D7A786F74693B2B352C2A3B366A7874766B3B2B352D3B36796E7D6872617E3B2A2B292F703B36793B
2A292B2B703B36796F3B2A282B2B703B366A767A633B2F233B366A7672753B293B36693B292835222C2D3B367A78747F7E783B777279766B28777A76
7E3B367A793B2A2229703B367A693B2F232B2B2B3B366D74773B2A282B2B3B367A783B293B36
<<

2013-08-21 23:16:56 SegmentedEncoder: avconv version 0.8, Copyright (c) 2000-2012 the Libav developers
2013-08-21 23:16:56 SegmentedEncoder: built on Jul 20 2012 01:21:49 with gcc 4.5.2
2013-08-21 23:16:56 SegmentedEncoder: Input #0, avi, from 'H:\Movies\The Hunger Games (2012) DVDRip XviD-MAXSPEED\The Hunger Games (2012) DVDRip XviD-MAXSPEED www.torentz.3xforum.ro.avi':
2013-08-21 23:16:56 SegmentedEncoder: Metadata:
2013-08-21 23:16:56 SegmentedEncoder: encoder : AVI-Mux GUI 1.17.8, Aug 30 2008 12:36:58
2013-08-21 23:16:56 SegmentedEncoder: JUNK :
2013-08-21 23:16:56 SegmentedEncoder: Duration: 02:24:01.62, start: 0.000000, bitrate: 1293 kb/s
2013-08-21 23:16:56 SegmentedEncoder: Stream #0.0: Video: mpeg4 (Advanced Simple Profile), yuv420p, 624x256 [PAR 1:1 DAR 39:16], 23.98 tbn, 23.98 tbc
2013-08-21 23:16:56 SegmentedEncoder: Stream #0.1: Audio: ac3, 48000 Hz, 5.1, s16, 384 kb/s
2013-08-21 23:16:56 SegmentedEncoder: Metadata:
2013-08-21 23:16:56 SegmentedEncoder: title : hunger
2013-08-21 23:16:56 SegmentedEncoder: [libx264 @ 032c8160] VBV maxrate unspecified, assuming CBR
2013-08-21 23:16:56 SegmentedEncoder: [libx264 @ 032c8160] using SAR=1/1
2013-08-21 23:16:56 SegmentedEncoder: [libx264 @ 032c8160] using cpu capabilities: MMX2 SSE2Fast FastShuffle SSEMisalign LZCNT
2013-08-21 23:16:56 SegmentedEncoder: [libx264 @ 032c8160] profile High, level 2.1
2013-08-21 23:16:56 SegmentedEncoder: [mpegts @ 032c7c80] muxrate VBR, pcr every 2 pkts, sdt every 200, pat/pmt every 40 pkts
2013-08-21 23:16:56 SegmentedEncoder: Output #0, mpegts, to 'pipe:':
2013-08-21 23:16:56 SegmentedEncoder: Metadata:
2013-08-21 23:16:56 SegmentedEncoder: JUNK :
2013-08-21 23:16:56 SegmentedEncoder: encoder : Lavf54.9.0
2013-08-21 23:16:56 SegmentedEncoder: Stream #0.0: Video: libx264, yuv420p, 624x256 [PAR 1:1 DAR 39:16], q=2-48, 1200 kb/s, 90k tbn, 23.98 tbc
2013-08-21 23:16:56 SegmentedEncoder: Stream #0.1: Audio: libmp3lame, 48000 Hz, stereo, s16, 192 kb/s
2013-08-21 23:16:56 SegmentedEncoder: Metadata:
2013-08-21 23:16:56 SegmentedEncoder: title : hunger
2013-08-21 23:16:56 SegmentedEncoder: Stream mapping:
2013-08-21 23:16:56 SegmentedEncoder: Stream #0:0 -> #0:0 (mpeg4 -> libx264)
2013-08-21 23:16:56 SegmentedEncoder: Stream #0:1 -> #0:1 (ac3 -> libmp3lame)
2013-08-21 23:16:56 SegmentedEncoder: Press ctrl-c to stop encoding
2013-08-21 23:16:56 SegmentedEncoder: frame= 161 fps= 0 q=30.0 size= 709kB time=5.21 bitrate=1114.7kbits/s
2013-08-21 23:17:23 SegmentedEncoder: frame= 1093 fps= 39 q=11.0 size= 7003kB time=44.09 bitrate=1301.2kbits/s
2013-08-21 23:17:51 SegmentedEncoder: frame= 2052 fps= 37 q=23.0 size= 13627kB time=84.08 bitrate=1327.6kbits/s
2013-08-21 23:18:19 SegmentedEncoder: frame= 3012 fps= 36 q=20.0 size= 21028kB time=124.12 bitrate=1387.8kbits/s
2013-08-21 23:18:51 SegmentedEncoder: frame= 3971 fps= 34 q=19.0 size= 28442kB time=164.12 bitrate=1419.7kbits/s
2013-08-21 23:19:31 SegmentedEncoder: frame= 4931 fps= 32 q=31.0 size= 35827kB time=204.16 bitrate=1437.5kbits/s
2013-08-21 23:20:11 SegmentedEncoder: frame= 5889 fps= 30 q=23.0 size= 43182kB time=244.12 bitrate=1449.1kbits/s
2013-08-21 23:20:51 SegmentedEncoder: frame= 6848 fps= 29 q=28.0 size= 50548kB time=284.12 bitrate=1457.4kbits/s
2013-08-21 23:21:31 SegmentedEncoder: frame= 7807 fps= 28 q=20.0 size= 57860kB time=324.12 bitrate=1462.4kbits/s
2013-08-21 23:22:11 SegmentedEncoder: frame= 8766 fps= 28 q=23.0 size= 65163kB time=364.11 bitrate=1466.1kbits/s
2013-08-21 23:22:51 SegmentedEncoder: frame= 9725 fps= 27 q=24.0 size= 72579kB time=404.11 bitrate=1471.3kbits/s
2013-08-21 23:31:03 SegmentedEncoder: frame=10684 fps= 13 q=24.0 size= 79983kB time=444.11 bitrate=1475.3kbits/s
2013-08-21 23:31:32 SegmentedEncoder: frame=11643 fps= 13 q=20.0 size= 87323kB time=484.11 bitrate=1477.7kbits/s
2013-08-21 23:32:01 SegmentedEncoder: frame=12602 fps= 14 q=22.0 size= 94748kB time=524.11 bitrate=1480.9kbits/s
2013-08-21 23:32:39 SegmentedEncoder: frame=13561 fps= 14 q=18.0 size= 102067kB time=564.11 bitrate=1482.2kbits/s
2013-08-21 23:33:19 SegmentedEncoder: frame=14520 fps= 15 q=17.0 size= 109483kB time=604.10 bitrate=1484.6kbits/s
2013-08-21 23:34:00 SegmentedEncoder: frame=15479 fps= 15 q=24.0 size= 116896kB time=644.10 bitrate=1486.7kbits/s
2013-08-21 23:34:39 SegmentedEncoder: frame=16438 fps= 15 q=22.0 size= 124302kB time=684.10 bitrate=1488.5kbits/s
 
Forum Index » Profile for roger567 » Messages posted by roger567
Go to:   
Powered by JForum 2.1.8 © JForum Team