[Logo] Air Video Forum
  [Search] Search   [Recent Topics] Recent Topics   [Hottest Topics] Hottest Topics   [Members]  Member Listing   [Groups] Back to home page 
[Moderation Log] Moderation Log   [Register] Register / 
[Login] Login 
Messages posted by: MjW
Forum Index » Profile for MjW » Messages posted by MjW
Author Message
Any idea if this is even possible? It would a quality addition.
Seriously, am I the only one with this problem?
Bump
While doing live conversion to an MKV file with embedded subtitles I noticed that the subtitles randomly disappear.

It starts playing with subs, and suddenly it stops displaying the subtitles, and after a while they come back and so on.

Win7 64bit
Latest beta3 Server
Latest iOS app
iOS6
iPhone5

2012-10-04 16:53:23 LiveConversion: >>
395821474B69747C697A763B5D72777E683B3363232D32475A72694D727F7E74487E696D7E69477A6D7874756D357E637E393B3636687E7C767E756F
36777E757C6F733B2F3B3636687E7C767E756F36747D7D687E6F3B2B3B36367874756D7E696872747536727F3B792228222B7D2B783678797E2E362F
2A7E7D367A782F79367E2A7A7D29222C78782F7E7A7D237A2C7D297D2D36782F7D7A362F222F7A36222B2B2B362A792E78787A232A2B7E7D7A3B3636
6B74696F36756E76797E693B2F2D2D282A3B366F73697E7A7F683B2F3B3668683B2B352B3B36723B395F21475E757C77726873474F4D3B487E69727E
683B535F47487A75786F6E7A696247487E7A6874753B2847487A75786F6E7A696235482B285E2A2D352C292B6B3559776E497A623543292D2F36495E
4C5A495F3576706D393B36767A6B3B2B212B372B212B3B36767A6B3B2B212A372B212A3B366D7D3B397869746B262A29232B212C292B212B212B373B
68787A777E262A2B292F212E2C2D3778746B62393B367A686B7E786F3B2A2B292F212E2C2D3B36623B367D3B766B7E7C6F683B367A686275783B362A
3B366D78747F7E783B77727963292D2F3B366D78747F7E783B77727963292D2F3B367D777A7C68293B307D7A686F3B367D777A7C683B307774746B3B
367C3B282B3B36707E6272756F447672753B2A3B36797D3B2B3B367944686F697A6F7E7C623B2B3B3678766B3B3078736974767A3B36697E7D683B2A
3B3678747F7E693B2B3B36767E44697A757C7E3B2A2D3B36686E796A3B2F3B366B7A696F726F727475683B306B7A696F722F632F306B7A696F722363
23306B7A696F6B2363233B366F697E777772683B2B3B366878446F73697E687374777F3B2F2B3B3672446A7D7A786F74693B2B352C2A3B366A787476
6B3B2B352D3B36796E7D6872617E3B2A2B292F703B36793B2F292E2B703B36796F3B2F2E2B2B703B366A767A633B2F233B366A7672753B293B36693B
292835222C2E3B367A78747F7E783B777279766B28777A767E3B367A793B292E2D703B367A693B2F232B2B2B3B367A783B293B36
<<

2012-10-04 16:53:23 SegmentedEncoder: avconv version 0.8, Copyright (c) 2000-2012 the Libav developers
2012-10-04 16:53:23 SegmentedEncoder: built on Jul 20 2012 01:21:49 with gcc 4.5.2
2012-10-04 16:53:23 SegmentedEncoder: Input #0, matroska,webm, from 'D:\English\TV Series HD\Sanctuary\Season 3\Sanctuary.S03E16.720p.BluRay.X264-REWARD.mkv':
2012-10-04 16:53:23 SegmentedEncoder: Duration: 00:45:13.66, start: 0.000000, bitrate: N/A
2012-10-04 16:53:23 SegmentedEncoder: Chapter #0.0: start 0.000000, end 333.333000
2012-10-04 16:53:23 SegmentedEncoder: Metadata:
2012-10-04 16:53:23 SegmentedEncoder: title : 00:00:00.000
2012-10-04 16:53:23 SegmentedEncoder: Chapter #0.1: start 333.333000, end 767.058000
2012-10-04 16:53:23 SegmentedEncoder: Metadata:
2012-10-04 16:53:23 SegmentedEncoder: title : 00:05:33.333
2012-10-04 16:53:23 SegmentedEncoder: Chapter #0.2: start 767.058000, end 1258.924000
2012-10-04 16:53:23 SegmentedEncoder: Metadata:
2012-10-04 16:53:23 SegmentedEncoder: title : 00:12:47.058
2012-10-04 16:53:23 SegmentedEncoder: Chapter #0.3: start 1258.924000, end 1712.794000
2012-10-04 16:53:23 SegmentedEncoder: Metadata:
2012-10-04 16:53:23 SegmentedEncoder: title : 00:20:58.924
2012-10-04 16:53:23 SegmentedEncoder: Chapter #0.4: start 1712.794000, end 2118.950000
2012-10-04 16:53:23 SegmentedEncoder: Metadata:
2012-10-04 16:53:23 SegmentedEncoder: title : 00:28:32.794
2012-10-04 16:53:23 SegmentedEncoder: Chapter #0.5: start 2118.950000, end 2496.828000
2012-10-04 16:53:23 SegmentedEncoder: Metadata:
2012-10-04 16:53:23 SegmentedEncoder: title : 00:35:18.950
2012-10-04 16:53:23 SegmentedEncoder: Chapter #0.6: start 2496.828000, end 2522.520000
2012-10-04 16:53:23 SegmentedEncoder: Metadata:
2012-10-04 16:53:23 SegmentedEncoder: title : 00:41:36.828
2012-10-04 16:53:23 SegmentedEncoder: Chapter #0.7: start 2522.520000, end 2713.669000
2012-10-04 16:53:23 SegmentedEncoder: Metadata:
2012-10-04 16:53:23 SegmentedEncoder: title : 00:42:02.520
2012-10-04 16:53:23 SegmentedEncoder: Stream #0.0(eng): Video: h264 (High), yuv420p, 1280x720, PAR 1:1 DAR 16:9, 23.98 fps, 23.98 tbr, 1k tbn, 47.95 tbc (default)
2012-10-04 16:53:23 SegmentedEncoder: Stream #0.1(eng): Audio: dca (DTS), 48000 Hz, 5.1, s16, 1536 kb/s (default)
2012-10-04 16:53:23 SegmentedEncoder: Stream #0.2(eng): Subtitle: [0][0][0][0] / 0x0000
2012-10-04 16:53:23 SegmentedEncoder: [libx264 @ 012ae300] VBV maxrate unspecified, assuming CBR
2012-10-04 16:53:23 SegmentedEncoder: [libx264 @ 012ae300] using SAR=1/1
2012-10-04 16:53:23 SegmentedEncoder: [libx264 @ 012ae300] using cpu capabilities: MMX2 SSE2Fast SSSE3 Cache64
2012-10-04 16:53:23 SegmentedEncoder: [libx264 @ 012ae300] profile High, level 3.1
2012-10-04 16:53:23 SegmentedEncoder: [mpegts @ 0348f680] muxrate VBR, pcr every 2 pkts, sdt every 200, pat/pmt every 40 pkts
2012-10-04 16:53:23 SegmentedEncoder: Output #0, mpegts, to 'pipe:':
2012-10-04 16:53:23 SegmentedEncoder: Metadata:
2012-10-04 16:53:23 SegmentedEncoder: encoder : Lavf54.9.0
2012-10-04 16:53:23 SegmentedEncoder: Chapter #0.0: start 0.000000, end 333.333000
2012-10-04 16:53:23 SegmentedEncoder: Metadata:
2012-10-04 16:53:23 SegmentedEncoder: title : 00:00:00.000
2012-10-04 16:53:23 SegmentedEncoder: Chapter #0.1: start 333.333000, end 767.058000
2012-10-04 16:53:23 SegmentedEncoder: Metadata:
2012-10-04 16:53:23 SegmentedEncoder: title : 00:05:33.333
2012-10-04 16:53:23 SegmentedEncoder: Chapter #0.2: start 767.058000, end 1258.924000
2012-10-04 16:53:23 SegmentedEncoder: Metadata:
2012-10-04 16:53:23 SegmentedEncoder: title : 00:12:47.058
2012-10-04 16:53:23 SegmentedEncoder: Chapter #0.3: start 1258.924000, end 1712.794000
2012-10-04 16:53:23 SegmentedEncoder: Metadata:
2012-10-04 16:53:23 SegmentedEncoder: title : 00:20:58.924
2012-10-04 16:53:23 SegmentedEncoder: Chapter #0.4: start 1712.794000, end 2118.950000
2012-10-04 16:53:23 SegmentedEncoder: Metadata:
2012-10-04 16:53:23 SegmentedEncoder: title : 00:28:32.794
2012-10-04 16:53:23 SegmentedEncoder: Chapter #0.5: start 2118.950000, end 2496.828000
2012-10-04 16:53:23 SegmentedEncoder: Metadata:
2012-10-04 16:53:23 SegmentedEncoder: title : 00:35:18.950
2012-10-04 16:53:23 SegmentedEncoder: Chapter #0.6: start 2496.828000, end 2522.520000
2012-10-04 16:53:23 SegmentedEncoder: Metadata:
2012-10-04 16:53:23 SegmentedEncoder: title : 00:41:36.828
2012-10-04 16:53:23 SegmentedEncoder: Chapter #0.7: start 2522.520000, end 2713.669000
2012-10-04 16:53:23 SegmentedEncoder: Metadata:
2012-10-04 16:53:23 SegmentedEncoder: title : 00:42:02.520
2012-10-04 16:53:23 SegmentedEncoder: Stream #0.0(eng): Video: libx264, yuv420p, 1024x576 [PAR 1:1 DAR 16:9], q=2-48, 4250 kb/s, 90k tbn, 23.98 tbc (default)
2012-10-04 16:53:23 SegmentedEncoder: Stream #0.1(eng): Audio: libmp3lame, 48000 Hz, stereo, s16, 256 kb/s (default)
2012-10-04 16:53:23 SegmentedEncoder: Stream mapping:
2012-10-04 16:53:23 SegmentedEncoder: Stream #0:0 -> #0:0 (h264 -> libx264)
2012-10-04 16:53:23 SegmentedEncoder: Stream #0:1 -> #0:1 (dca -> libmp3lame)
2012-10-04 16:53:23 SegmentedEncoder: Press ctrl-c to stop encoding
2012-10-04 16:53:23 SegmentedEncoder: frame= 21 fps= 0 q=0.0 size= 0kB time=1.03 bitrate= 0.0kbits/s
2012-10-04 16:53:29 SegmentedEncoder: frame= 341 fps= 60 q=18.0 size= 6458kB time=12.68 bitrate=4172.5kbits/s
2012-10-04 16:53:34 SegmentedEncoder: frame= 719 fps= 66 q=19.0 size= 15232kB time=28.45 bitrate=4386.4kbits/s
2012-10-04 16:53:34 LiveConversion: >>
395821474B69747C697A763B5D72777E683B3363232D32475A72694D727F7E74487E696D7E69477A6D7874756D357E637E393B3636687E7C767E756F
36777E757C6F733B2F3B3636687E7C767E756F36747D7D687E6F3B292F233B36367874756D7E696872747536727F3B792228222B7D2B783678797E2E
362F2A7E7D367A782F79367E2A7A7D29222C78782F7E7A7D2D7E29232A7923362D222C7F362F28287936792E7E2A362D282F2C2F2379227A2F2E2A3B
36366B74696F36756E76797E693B2F2D2D282A3B366F73697E7A7F683B2F3B3668683B292F23352B3B36723B395F21475E757C77726873474F4D3B48
7E69727E683B535F47487A75786F6E7A696247487E7A6874753B2847487A75786F6E7A696235482B285E2A2D352C292B6B3559776E497A623543292D
2F36495E4C5A495F3576706D393B36767A6B3B2B212B372B212B3B36767A6B3B2B212A372B212A3B366D7D3B397869746B262A29232B212C292B212B
212B373B68787A777E262A2B292F212E2C2D3778746B62393B367A686B7E786F3B2A2B292F212E2C2D3B36623B367D3B766B7E7C6F683B367A686275
783B362A3B366D78747F7E783B77727963292D2F3B366D78747F7E783B77727963292D2F3B367D777A7C68293B307D7A686F3B367D777A7C683B3077
74746B3B367C3B282B3B36707E6272756F447672753B2A3B36797D3B2B3B367944686F697A6F7E7C623B2B3B3678766B3B3078736974767A3B36697E
7D683B2A3B3678747F7E693B2B3B36767E44697A757C7E3B2A2D3B36686E796A3B2F3B366B7A696F726F727475683B306B7A696F722F632F306B7A69
6F72236323306B7A696F6B2363233B366F697E777772683B2B3B366878446F73697E687374777F3B2F2B3B3672446A7D7A786F74693B2B352C2A3B36
6A7874766B3B2B352D3B36796E7D6872617E3B2A2B292F703B36793B2F292E2B703B36796F3B2F2E2B2B703B366A767A633B2F233B366A7672753B29
3B36693B292835222C2E3B367A78747F7E783B777279766B28777A767E3B367A793B292E2D703B367A693B2F232B2B2B3B367A783B293B36
<<

2012-10-04 16:53:35 SegmentedEncoder: avconv version 0.8, Copyright (c) 2000-2012 the Libav developers
2012-10-04 16:53:35 SegmentedEncoder: built on Jul 20 2012 01:21:49 with gcc 4.5.2
2012-10-04 16:53:35 SegmentedEncoder: Input #0, matroska,webm, from 'D:\English\TV Series HD\Sanctuary\Season 3\Sanctuary.S03E16.720p.BluRay.X264-REWARD.mkv':
2012-10-04 16:53:35 SegmentedEncoder: Duration: 00:45:13.66, start: 0.000000, bitrate: N/A
2012-10-04 16:53:35 SegmentedEncoder: Chapter #0.0: start 0.000000, end 333.333000
2012-10-04 16:53:35 SegmentedEncoder: Metadata:
2012-10-04 16:53:35 SegmentedEncoder: title : 00:00:00.000
2012-10-04 16:53:35 SegmentedEncoder: Chapter #0.1: start 333.333000, end 767.058000
2012-10-04 16:53:35 SegmentedEncoder: Metadata:
2012-10-04 16:53:35 SegmentedEncoder: title : 00:05:33.333
2012-10-04 16:53:35 SegmentedEncoder: Chapter #0.2: start 767.058000, end 1258.924000
2012-10-04 16:53:35 SegmentedEncoder: Metadata:
2012-10-04 16:53:35 SegmentedEncoder: title : 00:12:47.058
2012-10-04 16:53:35 SegmentedEncoder: Chapter #0.3: start 1258.924000, end 1712.794000
2012-10-04 16:53:35 SegmentedEncoder: Metadata:
2012-10-04 16:53:35 SegmentedEncoder: title : 00:20:58.924
2012-10-04 16:53:35 SegmentedEncoder: Chapter #0.4: start 1712.794000, end 2118.950000
2012-10-04 16:53:35 SegmentedEncoder: Metadata:
2012-10-04 16:53:35 SegmentedEncoder: title : 00:28:32.794
2012-10-04 16:53:35 SegmentedEncoder: Chapter #0.5: start 2118.950000, end 2496.828000
2012-10-04 16:53:35 SegmentedEncoder: Metadata:
2012-10-04 16:53:35 SegmentedEncoder: title : 00:35:18.950
2012-10-04 16:53:35 SegmentedEncoder: Chapter #0.6: start 2496.828000, end 2522.520000
2012-10-04 16:53:35 SegmentedEncoder: Metadata:
2012-10-04 16:53:35 SegmentedEncoder: title : 00:41:36.828
2012-10-04 16:53:35 SegmentedEncoder: Chapter #0.7: start 2522.520000, end 2713.669000
2012-10-04 16:53:35 SegmentedEncoder: Metadata:
2012-10-04 16:53:35 SegmentedEncoder: title : 00:42:02.520
2012-10-04 16:53:35 SegmentedEncoder: Stream #0.0(eng): Video: h264 (High), yuv420p, 1280x720, PAR 1:1 DAR 16:9, 23.98 fps, 23.98 tbr, 1k tbn, 47.95 tbc (default)
2012-10-04 16:53:35 SegmentedEncoder: Stream #0.1(eng): Audio: dca (DTS), 48000 Hz, 5.1, s16, 1536 kb/s (default)
2012-10-04 16:53:35 SegmentedEncoder: Stream #0.2(eng): Subtitle: [0][0][0][0] / 0x0000
2012-10-04 16:53:35 SegmentedEncoder: [libx264 @ 0384c0c0] VBV maxrate unspecified, assuming CBR
2012-10-04 16:53:35 SegmentedEncoder: [libx264 @ 0384c0c0] using SAR=1/1
2012-10-04 16:53:35 SegmentedEncoder: [libx264 @ 0384c0c0] using cpu capabilities: MMX2 SSE2Fast SSSE3 Cache64
2012-10-04 16:53:35 SegmentedEncoder: [libx264 @ 0384c0c0] profile High, level 3.1
2012-10-04 16:53:35 SegmentedEncoder: [mpegts @ 03b4a020] muxrate VBR, pcr every 2 pkts, sdt every 200, pat/pmt every 40 pkts
2012-10-04 16:53:35 SegmentedEncoder: Output #0, mpegts, to 'pipe:':
2012-10-04 16:53:35 SegmentedEncoder: Metadata:
2012-10-04 16:53:35 SegmentedEncoder: encoder : Lavf54.9.0
2012-10-04 16:53:35 SegmentedEncoder: Chapter #0.0: start 0.000000, end 85.333000
2012-10-04 16:53:35 SegmentedEncoder: Metadata:
2012-10-04 16:53:35 SegmentedEncoder: title : 00:00:00.000
2012-10-04 16:53:35 SegmentedEncoder: Chapter #0.1: start 85.333000, end 519.058000
2012-10-04 16:53:35 SegmentedEncoder: Metadata:
2012-10-04 16:53:35 SegmentedEncoder: title : 00:05:33.333
2012-10-04 16:53:35 SegmentedEncoder: Chapter #0.2: start 519.058000, end 1010.924000
2012-10-04 16:53:35 SegmentedEncoder: Metadata:
2012-10-04 16:53:35 SegmentedEncoder: title : 00:12:47.058
2012-10-04 16:53:35 SegmentedEncoder: Chapter #0.3: start 1010.924000, end 1464.794000
2012-10-04 16:53:35 SegmentedEncoder: Metadata:
2012-10-04 16:53:35 SegmentedEncoder: title : 00:20:58.924
2012-10-04 16:53:35 SegmentedEncoder: Chapter #0.4: start 1464.794000, end 1870.950000
2012-10-04 16:53:35 SegmentedEncoder: Metadata:
2012-10-04 16:53:35 SegmentedEncoder: title : 00:28:32.794
2012-10-04 16:53:35 SegmentedEncoder: Chapter #0.5: start 1870.950000, end 2248.828000
2012-10-04 16:53:35 SegmentedEncoder: Metadata:
2012-10-04 16:53:35 SegmentedEncoder: title : 00:35:18.950
2012-10-04 16:53:35 SegmentedEncoder: Chapter #0.6: start 2248.828000, end 2274.520000
2012-10-04 16:53:35 SegmentedEncoder: Metadata:
2012-10-04 16:53:35 SegmentedEncoder: title : 00:41:36.828
2012-10-04 16:53:35 SegmentedEncoder: Chapter #0.7: start 2274.520000, end 2465.669000
2012-10-04 16:53:35 SegmentedEncoder: Metadata:
2012-10-04 16:53:35 SegmentedEncoder: title : 00:42:02.520
2012-10-04 16:53:35 SegmentedEncoder: Stream #0.0(eng): Video: libx264, yuv420p, 1024x576 [PAR 1:1 DAR 16:9], q=2-48, 4250 kb/s, 90k tbn, 23.98 tbc (default)
2012-10-04 16:53:35 SegmentedEncoder: Stream #0.1(eng): Audio: libmp3lame, 48000 Hz, stereo, s16, 256 kb/s (default)
2012-10-04 16:53:35 SegmentedEncoder: Stream mapping:
2012-10-04 16:53:35 SegmentedEncoder: Stream #0:0 -> #0:0 (h264 -> libx264)
2012-10-04 16:53:35 SegmentedEncoder: Stream #0:1 -> #0:1 (dca -> libmp3lame)
2012-10-04 16:53:35 SegmentedEncoder: Press ctrl-c to stop encoding
2012-10-04 16:53:35 SegmentedEncoder: [libx264 @ 0384c0c0] non-strictly-monotonic PTS
2012-10-04 16:53:35 SegmentedEncoder: frame= 38 fps= 0 q=27.0 size= 44kB time=0.82 bitrate= 437.0kbits/s
2012-10-04 16:53:40 SegmentedEncoder: frame= 419 fps= 74 q=17.0 size= 8584kB time=14.89 bitrate=4722.7kbits/s
2012-10-04 16:53:44 LiveConversion: >>
395821474B69747C697A763B5D72777E683B3363232D32475A72694D727F7E74487E696D7E69477A6D7874756D357E637E393B3636687E7C767E756F
36777E757C6F733B2F3B3636687E7C767E756F36747D7D687E6F3B28222D3B36367874756D7E696872747536727F3B792228222B7D2B783678797E2E
362F2A7E7D367A782F79367E2A7A7D29222C78782F7E7A78232D2D232F7E2F362D7A2F2B362F2B7A28367A78792A367F7A2C2D782C7E232D2979233B
36366B74696F36756E76797E693B2F2D2D282A3B366F73697E7A7F683B2F3B3668683B28222D352B3B36723B395F21475E757C77726873474F4D3B48
7E69727E683B535F47487A75786F6E7A696247487E7A6874753B2847487A75786F6E7A696235482B285E2A2D352C292B6B3559776E497A623543292D
2F36495E4C5A495F3576706D393B36767A6B3B2B212B372B212B3B36767A6B3B2B212A372B212A3B366D7D3B397869746B262A29232B212C292B212B
212B373B68787A777E262A2B292F212E2C2D3778746B62393B367A686B7E786F3B2A2B292F212E2C2D3B36623B367D3B766B7E7C6F683B367A686275
783B362A3B366D78747F7E783B77727963292D2F3B366D78747F7E783B77727963292D2F3B367D777A7C68293B307D7A686F3B367D777A7C683B3077
74746B3B367C3B282B3B36707E6272756F447672753B2A3B36797D3B2B3B367944686F697A6F7E7C623B2B3B3678766B3B3078736974767A3B36697E
7D683B2A3B3678747F7E693B2B3B36767E44697A757C7E3B2A2D3B36686E796A3B2F3B366B7A696F726F727475683B306B7A696F722F632F306B7A69
6F72236323306B7A696F6B2363233B366F697E777772683B2B3B366878446F73697E687374777F3B2F2B3B3672446A7D7A786F74693B2B352C2A3B36
6A7874766B3B2B352D3B36796E7D6872617E3B2A2B292F703B36793B2F292E2B703B36796F3B2F2E2B2B703B366A767A633B2F233B366A7672753B29
3B36693B292835222C2E3B367A78747F7E783B777279766B28777A767E3B367A793B292E2D703B367A693B2F232B2B2B3B367A783B293B36
<<

2012-10-04 16:53:44 SegmentedEncoder: avconv version 0.8, Copyright (c) 2000-2012 the Libav developers
2012-10-04 16:53:44 SegmentedEncoder: built on Jul 20 2012 01:21:49 with gcc 4.5.2
2012-10-04 16:53:44 SegmentedEncoder: Input #0, matroska,webm, from 'D:\English\TV Series HD\Sanctuary\Season 3\Sanctuary.S03E16.720p.BluRay.X264-REWARD.mkv':
2012-10-04 16:53:44 SegmentedEncoder: Duration: 00:45:13.66, start: 0.000000, bitrate: N/A
2012-10-04 16:53:44 SegmentedEncoder: Chapter #0.0: start 0.000000, end 333.333000
2012-10-04 16:53:44 SegmentedEncoder: Metadata:
2012-10-04 16:53:44 SegmentedEncoder: title : 00:00:00.000
2012-10-04 16:53:44 SegmentedEncoder: Chapter #0.1: start 333.333000, end 767.058000
2012-10-04 16:53:44 SegmentedEncoder: Metadata:
2012-10-04 16:53:44 SegmentedEncoder: title : 00:05:33.333
2012-10-04 16:53:44 SegmentedEncoder: Chapter #0.2: start 767.058000, end 1258.924000
2012-10-04 16:53:44 SegmentedEncoder: Metadata:
2012-10-04 16:53:44 SegmentedEncoder: title : 00:12:47.058
2012-10-04 16:53:44 SegmentedEncoder: Chapter #0.3: start 1258.924000, end 1712.794000
2012-10-04 16:53:44 SegmentedEncoder: Metadata:
2012-10-04 16:53:44 SegmentedEncoder: title : 00:20:58.924
2012-10-04 16:53:44 SegmentedEncoder: Chapter #0.4: start 1712.794000, end 2118.950000
2012-10-04 16:53:44 SegmentedEncoder: Metadata:
2012-10-04 16:53:44 SegmentedEncoder: title : 00:28:32.794
2012-10-04 16:53:44 SegmentedEncoder: Chapter #0.5: start 2118.950000, end 2496.828000
2012-10-04 16:53:44 SegmentedEncoder: Metadata:
2012-10-04 16:53:44 SegmentedEncoder: title : 00:35:18.950
2012-10-04 16:53:44 SegmentedEncoder: Chapter #0.6: start 2496.828000, end 2522.520000
2012-10-04 16:53:44 SegmentedEncoder: Metadata:
2012-10-04 16:53:44 SegmentedEncoder: title : 00:41:36.828
2012-10-04 16:53:44 SegmentedEncoder: Chapter #0.7: start 2522.520000, end 2713.669000
2012-10-04 16:53:44 SegmentedEncoder: Metadata:
2012-10-04 16:53:44 SegmentedEncoder: title : 00:42:02.520
2012-10-04 16:53:44 SegmentedEncoder: Stream #0.0(eng): Video: h264 (High), yuv420p, 1280x720, PAR 1:1 DAR 16:9, 23.98 fps, 23.98 tbr, 1k tbn, 47.95 tbc (default)
2012-10-04 16:53:44 SegmentedEncoder: Stream #0.1(eng): Audio: dca (DTS), 48000 Hz, 5.1, s16, 1536 kb/s (default)
2012-10-04 16:53:44 SegmentedEncoder: Stream #0.2(eng): Subtitle: [0][0][0][0] / 0x0000
2012-10-04 16:53:44 SegmentedEncoder: [libx264 @ 0383c0c0] VBV maxrate unspecified, assuming CBR
2012-10-04 16:53:44 SegmentedEncoder: [libx264 @ 0383c0c0] using SAR=1/1
2012-10-04 16:53:44 SegmentedEncoder: [libx264 @ 0383c0c0] using cpu capabilities: MMX2 SSE2Fast SSSE3 Cache64
2012-10-04 16:53:44 SegmentedEncoder: [libx264 @ 0383c0c0] profile High, level 3.1
2012-10-04 16:53:44 SegmentedEncoder: [mpegts @ 03b3a020] muxrate VBR, pcr every 2 pkts, sdt every 200, pat/pmt every 40 pkts
2012-10-04 16:53:44 SegmentedEncoder: Output #0, mpegts, to 'pipe:':
2012-10-04 16:53:44 SegmentedEncoder: Metadata:
2012-10-04 16:53:44 SegmentedEncoder: encoder : Lavf54.9.0
2012-10-04 16:53:44 SegmentedEncoder: Chapter #0.0: start 0.000000, end 371.058000
2012-10-04 16:53:44 SegmentedEncoder: Metadata:
2012-10-04 16:53:44 SegmentedEncoder: title : 00:05:33.333
2012-10-04 16:53:44 SegmentedEncoder: Chapter #0.1: start 371.058000, end 862.924000
2012-10-04 16:53:44 SegmentedEncoder: Metadata:
2012-10-04 16:53:44 SegmentedEncoder: title : 00:12:47.058
2012-10-04 16:53:44 SegmentedEncoder: Chapter #0.2: start 862.924000, end 1316.794000
2012-10-04 16:53:44 SegmentedEncoder: Metadata:
2012-10-04 16:53:44 SegmentedEncoder: title : 00:20:58.924
2012-10-04 16:53:44 SegmentedEncoder: Chapter #0.3: start 1316.794000, end 1722.950000
2012-10-04 16:53:44 SegmentedEncoder: Metadata:
2012-10-04 16:53:44 SegmentedEncoder: title : 00:28:32.794
2012-10-04 16:53:44 SegmentedEncoder: Chapter #0.4: start 1722.950000, end 2100.828000
2012-10-04 16:53:44 SegmentedEncoder: Metadata:
2012-10-04 16:53:44 SegmentedEncoder: title : 00:35:18.950
2012-10-04 16:53:44 SegmentedEncoder: Chapter #0.5: start 2100.828000, end 2126.520000
2012-10-04 16:53:44 SegmentedEncoder: Metadata:
2012-10-04 16:53:44 SegmentedEncoder: title : 00:41:36.828
2012-10-04 16:53:44 SegmentedEncoder: Chapter #0.6: start 2126.520000, end 2317.669000
2012-10-04 16:53:44 SegmentedEncoder: Metadata:
2012-10-04 16:53:44 SegmentedEncoder: title : 00:42:02.520
2012-10-04 16:53:44 SegmentedEncoder: Stream #0.0(eng): Video: libx264, yuv420p, 1024x576 [PAR 1:1 DAR 16:9], q=2-48, 4250 kb/s, 90k tbn, 23.98 tbc (default)
2012-10-04 16:53:44 SegmentedEncoder: Stream #0.1(eng): Audio: libmp3lame, 48000 Hz, stereo, s16, 256 kb/s (default)
2012-10-04 16:53:44 SegmentedEncoder: Stream mapping:
2012-10-04 16:53:44 SegmentedEncoder: Stream #0:0 -> #0:0 (h264 -> libx264)
2012-10-04 16:53:44 SegmentedEncoder: Stream #0:1 -> #0:1 (dca -> libmp3lame)
2012-10-04 16:53:44 SegmentedEncoder: Press ctrl-c to stop encoding
2012-10-04 16:53:44 SegmentedEncoder: [libx264 @ 0383c0c0] non-strictly-monotonic PTS
2012-10-04 16:53:44 SegmentedEncoder: frame= 34 fps= 0 q=0.0 size= 0kB time=10000000000.00 bitrate= 0.0kbits/s
2012-10-04 16:53:50 LiveConversion: >>
395821474B69747C697A763B5D72777E683B3363232D32475A72694D727F7E74487E696D7E69477A6D7874756D357E637E393B3636687E7C767E756F
36777E757C6F733B2F3B3636687E7C767E756F36747D7D687E6F3B2D2C2D3B36367874756D7E696872747536727F3B792228222B7D2B783678797E2E
362F2A7E7D367A782F79367E2A7A7D29222C78782F7E7A2C2E2A2322287A2B362D7A227F362F7F2B7D3622292E2F36282328282A2C2A7E29237A233B
36366B74696F36756E76797E693B2F2D2D282A3B366F73697E7A7F683B2F3B3668683B2D2C2D352B3B36723B395F21475E757C77726873474F4D3B48
7E69727E683B535F47487A75786F6E7A696247487E7A6874753B2847487A75786F6E7A696235482B285E2A2D352C292B6B3559776E497A623543292D
2F36495E4C5A495F3576706D393B36767A6B3B2B212B372B212B3B36767A6B3B2B212A372B212A3B366D7D3B397869746B262A29232B212C292B212B
212B373B68787A777E262A2B292F212E2C2D3778746B62393B367A686B7E786F3B2A2B292F212E2C2D3B36623B367D3B766B7E7C6F683B367A686275
783B362A3B366D78747F7E783B77727963292D2F3B366D78747F7E783B77727963292D2F3B367D777A7C68293B307D7A686F3B367D777A7C683B3077
74746B3B367C3B282B3B36707E6272756F447672753B2A3B36797D3B2B3B367944686F697A6F7E7C623B2B3B3678766B3B3078736974767A3B36697E
7D683B2A3B3678747F7E693B2B3B36767E44697A757C7E3B2A2D3B36686E796A3B2F3B366B7A696F726F727475683B306B7A696F722F632F306B7A69
6F72236323306B7A696F6B2363233B366F697E777772683B2B3B366878446F73697E687374777F3B2F2B3B3672446A7D7A786F74693B2B352C2A3B36
6A7874766B3B2B352D3B36796E7D6872617E3B2A2B292F703B36793B2F292E2B703B36796F3B2F2E2B2B703B366A767A633B2F233B366A7672753B29
3B36693B292835222C2E3B367A78747F7E783B777279766B28777A767E3B367A793B292E2D703B367A693B2F232B2B2B3B367A783B293B36
<<

2012-10-04 16:53:51 SegmentedEncoder: avconv version 0.8, Copyright (c) 2000-2012 the Libav developers
2012-10-04 16:53:51 SegmentedEncoder: built on Jul 20 2012 01:21:49 with gcc 4.5.2
2012-10-04 16:53:51 SegmentedEncoder: Input #0, matroska,webm, from 'D:\English\TV Series HD\Sanctuary\Season 3\Sanctuary.S03E16.720p.BluRay.X264-REWARD.mkv':
2012-10-04 16:53:51 SegmentedEncoder: Duration: 00:45:13.66, start: 0.000000, bitrate: N/A
2012-10-04 16:53:51 SegmentedEncoder: Chapter #0.0: start 0.000000, end 333.333000
2012-10-04 16:53:51 SegmentedEncoder: Metadata:
2012-10-04 16:53:51 SegmentedEncoder: title : 00:00:00.000
2012-10-04 16:53:51 SegmentedEncoder: Chapter #0.1: start 333.333000, end 767.058000
2012-10-04 16:53:51 SegmentedEncoder: Metadata:
2012-10-04 16:53:51 SegmentedEncoder: title : 00:05:33.333
2012-10-04 16:53:51 SegmentedEncoder: Chapter #0.2: start 767.058000, end 1258.924000
2012-10-04 16:53:51 SegmentedEncoder: Metadata:
2012-10-04 16:53:51 SegmentedEncoder: title : 00:12:47.058
2012-10-04 16:53:51 SegmentedEncoder: Chapter #0.3: start 1258.924000, end 1712.794000
2012-10-04 16:53:51 SegmentedEncoder: Metadata:
2012-10-04 16:53:51 SegmentedEncoder: title : 00:20:58.924
2012-10-04 16:53:51 SegmentedEncoder: Chapter #0.4: start 1712.794000, end 2118.950000
2012-10-04 16:53:51 SegmentedEncoder: Metadata:
2012-10-04 16:53:51 SegmentedEncoder: title : 00:28:32.794
2012-10-04 16:53:51 SegmentedEncoder: Chapter #0.5: start 2118.950000, end 2496.828000
2012-10-04 16:53:51 SegmentedEncoder: Metadata:
2012-10-04 16:53:51 SegmentedEncoder: title : 00:35:18.950
2012-10-04 16:53:51 SegmentedEncoder: Chapter #0.6: start 2496.828000, end 2522.520000
2012-10-04 16:53:51 SegmentedEncoder: Metadata:
2012-10-04 16:53:51 SegmentedEncoder: title : 00:41:36.828
2012-10-04 16:53:51 SegmentedEncoder: Chapter #0.7: start 2522.520000, end 2713.669000
2012-10-04 16:53:51 SegmentedEncoder: Metadata:
2012-10-04 16:53:51 SegmentedEncoder: title : 00:42:02.520
2012-10-04 16:53:51 SegmentedEncoder: Stream #0.0(eng): Video: h264 (High), yuv420p, 1280x720, PAR 1:1 DAR 16:9, 23.98 fps, 23.98 tbr, 1k tbn, 47.95 tbc (default)
2012-10-04 16:53:51 SegmentedEncoder: Stream #0.1(eng): Audio: dca (DTS), 48000 Hz, 5.1, s16, 1536 kb/s (default)
2012-10-04 16:53:51 SegmentedEncoder: Stream #0.2(eng): Subtitle: [0][0][0][0] / 0x0000
2012-10-04 16:53:51 SegmentedEncoder: [libx264 @ 0381c0c0] VBV maxrate unspecified, assuming CBR
2012-10-04 16:53:51 SegmentedEncoder: [libx264 @ 0381c0c0] using SAR=1/1
2012-10-04 16:53:51 SegmentedEncoder: [libx264 @ 0381c0c0] using cpu capabilities: MMX2 SSE2Fast SSSE3 Cache64
2012-10-04 16:53:51 SegmentedEncoder: [libx264 @ 0381c0c0] profile High, level 3.1
2012-10-04 16:53:51 SegmentedEncoder: [mpegts @ 03b1a020] muxrate VBR, pcr every 2 pkts, sdt every 200, pat/pmt every 40 pkts
2012-10-04 16:53:51 SegmentedEncoder: Output #0, mpegts, to 'pipe:':
2012-10-04 16:53:51 SegmentedEncoder: Metadata:
2012-10-04 16:53:51 SegmentedEncoder: encoder : Lavf54.9.0
2012-10-04 16:53:51 SegmentedEncoder: Chapter #0.0: start 0.000000, end 91.058000
2012-10-04 16:53:51 SegmentedEncoder: Metadata:
2012-10-04 16:53:51 SegmentedEncoder: title : 00:05:33.333
2012-10-04 16:53:51 SegmentedEncoder: Chapter #0.1: start 91.058000, end 582.924000
2012-10-04 16:53:51 SegmentedEncoder: Metadata:
2012-10-04 16:53:51 SegmentedEncoder: title : 00:12:47.058
2012-10-04 16:53:51 SegmentedEncoder: Chapter #0.2: start 582.924000, end 1036.794000
2012-10-04 16:53:51 SegmentedEncoder: Metadata:
2012-10-04 16:53:51 SegmentedEncoder: title : 00:20:58.924
2012-10-04 16:53:51 SegmentedEncoder: Chapter #0.3: start 1036.794000, end 1442.950000
2012-10-04 16:53:51 SegmentedEncoder: Metadata:
2012-10-04 16:53:51 SegmentedEncoder: title : 00:28:32.794
2012-10-04 16:53:51 SegmentedEncoder: Chapter #0.4: start 1442.950000, end 1820.828000
2012-10-04 16:53:51 SegmentedEncoder: Metadata:
2012-10-04 16:53:51 SegmentedEncoder: title : 00:35:18.950
2012-10-04 16:53:51 SegmentedEncoder: Chapter #0.5: start 1820.828000, end 1846.520000
2012-10-04 16:53:51 SegmentedEncoder: Metadata:
2012-10-04 16:53:51 SegmentedEncoder: title : 00:41:36.828
2012-10-04 16:53:51 SegmentedEncoder: Chapter #0.6: start 1846.520000, end 2037.669000
2012-10-04 16:53:51 SegmentedEncoder: Metadata:
2012-10-04 16:53:51 SegmentedEncoder: title : 00:42:02.520
2012-10-04 16:53:51 SegmentedEncoder: Stream #0.0(eng): Video: libx264, yuv420p, 1024x576 [PAR 1:1 DAR 16:9], q=2-48, 4250 kb/s, 90k tbn, 23.98 tbc (default)
2012-10-04 16:53:51 SegmentedEncoder: Stream #0.1(eng): Audio: libmp3lame, 48000 Hz, stereo, s16, 256 kb/s (default)
2012-10-04 16:53:51 SegmentedEncoder: Stream mapping:
2012-10-04 16:53:51 SegmentedEncoder: Stream #0:0 -> #0:0 (h264 -> libx264)
2012-10-04 16:53:51 SegmentedEncoder: Stream #0:1 -> #0:1 (dca -> libmp3lame)
2012-10-04 16:53:51 SegmentedEncoder: Press ctrl-c to stop encoding
2012-10-04 16:53:51 SegmentedEncoder: [libx264 @ 0381c0c0] non-strictly-monotonic PTS
2012-10-04 16:53:51 SegmentedEncoder: frame= 38 fps= 0 q=25.0 size= 55kB time=10000000000.00 bitrate= 0.0kbits/s
2012-10-04 16:53:56 SegmentedEncoder: frame= 383 fps= 68 q=19.0 size= 7876kB time=11.05 bitrate=5837.3kbits/s
2012-10-04 16:54:01 SegmentedEncoder: frame= 776 fps= 71 q=19.0 size= 16942kB time=27.45 bitrate=5057.0kbits/s
2012-10-04 16:54:04 LiveConversion: >>
395821474B69747C697A763B5D72777E683B3363232D32475A72694D727F7E74487E696D7E69477A6D7874756D357E637E393B3636687E7C767E756F
36777E757C6F733B2F3B3636687E7C767E756F36747D7D687E6F3B2B3B36367874756D7E696872747536727F3B792228222B7D2B783678797E2E362F
2A7E7D367A782F79367E2A7A7D29222C78782F7E7A7F2E7F7F2E7F797A3629782223362F2C2F2236797D797D36792E7A2C7E2B2C7D282C222B3B3636
6B74696F36756E76797E693B2F2D2D282A3B366F73697E7A7F683B2F3B3668683B2B352B3B36723B395F21475E757C77726873474F4D3B487E69727E
683B535F47487A75786F6E7A696247487E7A6874753B2847487A75786F6E7A696235482B285E2A2D352C292B6B3559776E497A623543292D2F36495E
4C5A495F3576706D393B36767A6B3B2B212B372B212B3B36767A6B3B2B212A372B212A3B366D7D3B397869746B262A29232B212C292B212B212B373B
68787A777E262A2B292F212E2C2D3778746B62393B367A686B7E786F3B2A2B292F212E2C2D3B36623B367D3B766B7E7C6F683B367A686275783B362A
3B366D78747F7E783B77727963292D2F3B366D78747F7E783B77727963292D2F3B367D777A7C68293B307D7A686F3B367D777A7C683B307774746B3B
367C3B282B3B36707E6272756F447672753B2A3B36797D3B2B3B367944686F697A6F7E7C623B2B3B3678766B3B3078736974767A3B36697E7D683B2A
3B3678747F7E693B2B3B36767E44697A757C7E3B2A2D3B36686E796A3B2F3B366B7A696F726F727475683B306B7A696F722F632F306B7A696F722363
23306B7A696F6B2363233B366F697E777772683B2B3B366878446F73697E687374777F3B2F2B3B3672446A7D7A786F74693B2B352C2A3B366A787476
6B3B2B352D3B36796E7D6872617E3B2A2B292F703B36793B2F292E2B703B36796F3B2F2E2B2B703B366A767A633B2F233B366A7672753B293B36693B
292835222C2E3B367A78747F7E783B777279766B28777A767E3B367A793B292E2D703B367A693B2F232B2B2B3B367A783B293B36
<<

2012-10-04 16:54:04 SegmentedEncoder: avconv version 0.8, Copyright (c) 2000-2012 the Libav developers
2012-10-04 16:54:04 SegmentedEncoder: built on Jul 20 2012 01:21:49 with gcc 4.5.2
2012-10-04 16:54:04 SegmentedEncoder: Input #0, matroska,webm, from 'D:\English\TV Series HD\Sanctuary\Season 3\Sanctuary.S03E16.720p.BluRay.X264-REWARD.mkv':
2012-10-04 16:54:04 SegmentedEncoder: Duration: 00:45:13.66, start: 0.000000, bitrate: N/A
2012-10-04 16:54:04 SegmentedEncoder: Chapter #0.0: start 0.000000, end 333.333000
2012-10-04 16:54:04 SegmentedEncoder: Metadata:
2012-10-04 16:54:04 SegmentedEncoder: title : 00:00:00.000
2012-10-04 16:54:04 SegmentedEncoder: Chapter #0.1: start 333.333000, end 767.058000
2012-10-04 16:54:04 SegmentedEncoder: Metadata:
2012-10-04 16:54:04 SegmentedEncoder: title : 00:05:33.333
2012-10-04 16:54:04 SegmentedEncoder: Chapter #0.2: start 767.058000, end 1258.924000
2012-10-04 16:54:04 SegmentedEncoder: Metadata:
2012-10-04 16:54:04 SegmentedEncoder: title : 00:12:47.058
2012-10-04 16:54:04 SegmentedEncoder: Chapter #0.3: start 1258.924000, end 1712.794000
2012-10-04 16:54:04 SegmentedEncoder: Metadata:
2012-10-04 16:54:04 SegmentedEncoder: title : 00:20:58.924
2012-10-04 16:54:04 SegmentedEncoder: Chapter #0.4: start 1712.794000, end 2118.950000
2012-10-04 16:54:04 SegmentedEncoder: Metadata:
2012-10-04 16:54:04 SegmentedEncoder: title : 00:28:32.794
2012-10-04 16:54:04 SegmentedEncoder: Chapter #0.5: start 2118.950000, end 2496.828000
2012-10-04 16:54:04 SegmentedEncoder: Metadata:
2012-10-04 16:54:04 SegmentedEncoder: title : 00:35:18.950
2012-10-04 16:54:04 SegmentedEncoder: Chapter #0.6: start 2496.828000, end 2522.520000
2012-10-04 16:54:04 SegmentedEncoder: Metadata:
2012-10-04 16:54:04 SegmentedEncoder: title : 00:41:36.828
2012-10-04 16:54:04 SegmentedEncoder: Chapter #0.7: start 2522.520000, end 2713.669000
2012-10-04 16:54:04 SegmentedEncoder: Metadata:
2012-10-04 16:54:04 SegmentedEncoder: title : 00:42:02.520
2012-10-04 16:54:04 SegmentedEncoder: Stream #0.0(eng): Video: h264 (High), yuv420p, 1280x720, PAR 1:1 DAR 16:9, 23.98 fps, 23.98 tbr, 1k tbn, 47.95 tbc (default)
2012-10-04 16:54:04 SegmentedEncoder: Stream #0.1(eng): Audio: dca (DTS), 48000 Hz, 5.1, s16, 1536 kb/s (default)
2012-10-04 16:54:04 SegmentedEncoder: Stream #0.2(eng): Subtitle: [0][0][0][0] / 0x0000
2012-10-04 16:54:04 SegmentedEncoder: [libx264 @ 0033e300] VBV maxrate unspecified, assuming CBR
2012-10-04 16:54:04 SegmentedEncoder: [libx264 @ 0033e300] using SAR=1/1
2012-10-04 16:54:04 SegmentedEncoder: [libx264 @ 0033e300] using cpu capabilities: MMX2 SSE2Fast SSSE3 Cache64
2012-10-04 16:54:04 SegmentedEncoder: [libx264 @ 0033e300] profile High, level 3.1
2012-10-04 16:54:04 SegmentedEncoder: [mpegts @ 0141f680] muxrate VBR, pcr every 2 pkts, sdt every 200, pat/pmt every 40 pkts
2012-10-04 16:54:04 SegmentedEncoder: Output #0, mpegts, to 'pipe:':
2012-10-04 16:54:04 SegmentedEncoder: Metadata:
2012-10-04 16:54:04 SegmentedEncoder: encoder : Lavf54.9.0
2012-10-04 16:54:04 SegmentedEncoder: Chapter #0.0: start 0.000000, end 333.333000
2012-10-04 16:54:04 SegmentedEncoder: Metadata:
2012-10-04 16:54:04 SegmentedEncoder: title : 00:00:00.000
2012-10-04 16:54:04 SegmentedEncoder: Chapter #0.1: start 333.333000, end 767.058000
2012-10-04 16:54:04 SegmentedEncoder: Metadata:
2012-10-04 16:54:04 SegmentedEncoder: title : 00:05:33.333
2012-10-04 16:54:04 SegmentedEncoder: Chapter #0.2: start 767.058000, end 1258.924000
2012-10-04 16:54:04 SegmentedEncoder: Metadata:
2012-10-04 16:54:04 SegmentedEncoder: title : 00:12:47.058
2012-10-04 16:54:04 SegmentedEncoder: Chapter #0.3: start 1258.924000, end 1712.794000
2012-10-04 16:54:04 SegmentedEncoder: Metadata:
2012-10-04 16:54:04 SegmentedEncoder: title : 00:20:58.924
2012-10-04 16:54:04 SegmentedEncoder: Chapter #0.4: start 1712.794000, end 2118.950000
2012-10-04 16:54:04 SegmentedEncoder: Metadata:
2012-10-04 16:54:04 SegmentedEncoder: title : 00:28:32.794
2012-10-04 16:54:04 SegmentedEncoder: Chapter #0.5: start 2118.950000, end 2496.828000
2012-10-04 16:54:04 SegmentedEncoder: Metadata:
2012-10-04 16:54:04 SegmentedEncoder: title : 00:35:18.950
2012-10-04 16:54:04 SegmentedEncoder: Chapter #0.6: start 2496.828000, end 2522.520000
2012-10-04 16:54:04 SegmentedEncoder: Metadata:
2012-10-04 16:54:04 SegmentedEncoder: title : 00:41:36.828
2012-10-04 16:54:04 SegmentedEncoder: Chapter #0.7: start 2522.520000, end 2713.669000
2012-10-04 16:54:04 SegmentedEncoder: Metadata:
2012-10-04 16:54:04 SegmentedEncoder: title : 00:42:02.520
2012-10-04 16:54:04 SegmentedEncoder: Stream #0.0(eng): Video: libx264, yuv420p, 1024x576 [PAR 1:1 DAR 16:9], q=2-48, 4250 kb/s, 90k tbn, 23.98 tbc (default)
2012-10-04 16:54:04 SegmentedEncoder: Stream #0.1(eng): Audio: libmp3lame, 48000 Hz, stereo, s16, 256 kb/s (default)
2012-10-04 16:54:04 SegmentedEncoder: Stream mapping:
2012-10-04 16:54:04 SegmentedEncoder: Stream #0:0 -> #0:0 (h264 -> libx264)
2012-10-04 16:54:04 SegmentedEncoder: Stream #0:1 -> #0:1 (dca -> libmp3lame)
2012-10-04 16:54:04 SegmentedEncoder: Press ctrl-c to stop encoding
2012-10-04 16:54:04 SegmentedEncoder: frame= 47 fps= 0 q=2.0 size= 17kB time=0.42 bitrate= 342.6kbits/s
2012-10-04 16:54:09 SegmentedEncoder: frame= 403 fps= 72 q=19.0 size= 7842kB time=15.27 bitrate=4208.2kbits/s
2012-10-04 16:54:12 LiveConversion: >>
395821474B69747C697A763B5D72777E683B3363232D32475A72694D727F7E74487E696D7E69477A6D7874756D357E637E393B3636687E7C767E756F
36777E757C6F733B2F3B3636687E7C767E756F36747D7D687E6F3B2B3B36367874756D7E696872747536727F3B7A2D2C7A297A237A36292E7A78362F
7A2B7E362278287836222E227A2A2D2D2B232E2B232F2B2F2B2A297E28367E23232D362F22787D3622282B23362F7F7A22287E2F23282C7D2C3B3636
6B74696F36756E76797E693B2F2D2D282A3B366F73697E7A7F683B2F3B3668683B2B352B3B36723B395F21475E757C77726873474F4D3B487E69727E
683B535F47487A75786F6E7A696247487E7A6874753B2847487A75786F6E7A696235482B285E2A2E352C292B6B3559776E497A623543292D2F36495E
4C5A495F3576706D393B36767A6B3B2B212B372B212B3B36767A6B3B2B212A372B212A3B366D7D3B397869746B262A29232B212C292B212B212B373B
68787A777E262A2B292F212E2C2D3778746B62393B367A686B7E786F3B2A2B292F212E2C2D3B36623B367D3B766B7E7C6F683B367A686275783B362A
3B366D78747F7E783B77727963292D2F3B366D78747F7E783B77727963292D2F3B367D777A7C68293B307D7A686F3B367D777A7C683B307774746B3B
367C3B282B3B36707E6272756F447672753B2A3B36797D3B2B3B367944686F697A6F7E7C623B2B3B3678766B3B3078736974767A3B36697E7D683B2A
3B3678747F7E693B2B3B36767E44697A757C7E3B2A2D3B36686E796A3B2F3B366B7A696F726F727475683B306B7A696F722F632F306B7A696F722363
23306B7A696F6B2363233B366F697E777772683B2B3B366878446F73697E687374777F3B2F2B3B3672446A7D7A786F74693B2B352C2A3B366A787476
6B3B2B352D3B36796E7D6872617E3B2A2B292F703B36793B2F292E2B703B36796F3B2F2E2B2B703B366A767A633B2F233B366A7672753B293B36693B
292835222C2E3B367A78747F7E783B777279766B28777A767E3B367A793B292E2D703B367A693B2F232B2B2B3B367A783B293B36
<<

2012-10-04 16:54:13 SegmentedEncoder: avconv version 0.8, Copyright (c) 2000-2012 the Libav developers
2012-10-04 16:54:13 SegmentedEncoder: built on Jul 20 2012 01:21:49 with gcc 4.5.2
2012-10-04 16:54:13 SegmentedEncoder: Input #0, matroska,webm, from 'D:\English\TV Series HD\Sanctuary\Season 3\Sanctuary.S03E15.720p.BluRay.X264-REWARD.mkv':
2012-10-04 16:54:13 SegmentedEncoder: Duration: 00:45:08.66, start: 0.000000, bitrate: N/A
2012-10-04 16:54:13 SegmentedEncoder: Chapter #0.0: start 0.000000, end 181.181000
2012-10-04 16:54:13 SegmentedEncoder: Metadata:
2012-10-04 16:54:13 SegmentedEncoder: title : 00:00:00.000
2012-10-04 16:54:13 SegmentedEncoder: Chapter #0.1: start 181.181000, end 822.822000
2012-10-04 16:54:13 SegmentedEncoder: Metadata:
2012-10-04 16:54:13 SegmentedEncoder: title : 00:03:01.181
2012-10-04 16:54:13 SegmentedEncoder: Chapter #0.2: start 822.822000, end 1374.790000
2012-10-04 16:54:13 SegmentedEncoder: Metadata:
2012-10-04 16:54:13 SegmentedEncoder: title : 00:13:42.822
2012-10-04 16:54:13 SegmentedEncoder: Chapter #0.3: start 1374.790000, end 1649.857000
2012-10-04 16:54:13 SegmentedEncoder: Metadata:
2012-10-04 16:54:13 SegmentedEncoder: title : 00:22:54.790
2012-10-04 16:54:13 SegmentedEncoder: Chapter #0.4: start 1649.857000, end 2145.310000
2012-10-04 16:54:13 SegmentedEncoder: Metadata:
2012-10-04 16:54:13 SegmentedEncoder: title : 00:27:29.857
2012-10-04 16:54:13 SegmentedEncoder: Chapter #0.5: start 2145.310000, end 2537.952000
2012-10-04 16:54:13 SegmentedEncoder: Metadata:
2012-10-04 16:54:13 SegmentedEncoder: title : 00:35:45.310
2012-10-04 16:54:13 SegmentedEncoder: Chapter #0.6: start 2537.952000, end 2563.728000
2012-10-04 16:54:13 SegmentedEncoder: Metadata:
2012-10-04 16:54:13 SegmentedEncoder: title : 00:42:17.952
2012-10-04 16:54:13 SegmentedEncoder: Chapter #0.7: start 2563.728000, end 2708.664000
2012-10-04 16:54:13 SegmentedEncoder: Metadata:
2012-10-04 16:54:13 SegmentedEncoder: title : 00:42:43.728
2012-10-04 16:54:13 SegmentedEncoder: Stream #0.0(eng): Video: h264 (High), yuv420p, 1280x720, PAR 1:1 DAR 16:9, 23.98 fps, 23.98 tbr, 1k tbn, 47.95 tbc (default)
2012-10-04 16:54:13 SegmentedEncoder: Stream #0.1(eng): Audio: dca (DTS), 48000 Hz, 5.1, s16, 1536 kb/s (default)
2012-10-04 16:54:13 SegmentedEncoder: Stream #0.2(eng): Subtitle: [0][0][0][0] / 0x0000
2012-10-04 16:54:13 SegmentedEncoder: [libx264 @ 0169e300] VBV maxrate unspecified, assuming CBR
2012-10-04 16:54:13 SegmentedEncoder: [libx264 @ 0169e300] using SAR=1/1
2012-10-04 16:54:13 SegmentedEncoder: [libx264 @ 0169e300] using cpu capabilities: MMX2 SSE2Fast SSSE3 Cache64
2012-10-04 16:54:13 SegmentedEncoder: [libx264 @ 0169e300] profile High, level 3.1
2012-10-04 16:54:13 SegmentedEncoder: [mpegts @ 0127f660] muxrate VBR, pcr every 2 pkts, sdt every 200, pat/pmt every 40 pkts
2012-10-04 16:54:13 SegmentedEncoder: Output #0, mpegts, to 'pipe:':
2012-10-04 16:54:13 SegmentedEncoder: Metadata:
2012-10-04 16:54:13 SegmentedEncoder: encoder : Lavf54.9.0
2012-10-04 16:54:13 SegmentedEncoder: Chapter #0.0: start 0.000000, end 181.181000
2012-10-04 16:54:13 SegmentedEncoder: Metadata:
2012-10-04 16:54:13 SegmentedEncoder: title : 00:00:00.000
2012-10-04 16:54:13 SegmentedEncoder: Chapter #0.1: start 181.181000, end 822.822000
2012-10-04 16:54:13 SegmentedEncoder: Metadata:
2012-10-04 16:54:13 SegmentedEncoder: title : 00:03:01.181
2012-10-04 16:54:13 SegmentedEncoder: Chapter #0.2: start 822.822000, end 1374.790000
2012-10-04 16:54:13 SegmentedEncoder: Metadata:
2012-10-04 16:54:13 SegmentedEncoder: title : 00:13:42.822
2012-10-04 16:54:13 SegmentedEncoder: Chapter #0.3: start 1374.790000, end 1649.857000
2012-10-04 16:54:13 SegmentedEncoder: Metadata:
2012-10-04 16:54:13 SegmentedEncoder: title : 00:22:54.790
2012-10-04 16:54:13 SegmentedEncoder: Chapter #0.4: start 1649.857000, end 2145.310000
2012-10-04 16:54:13 SegmentedEncoder: Metadata:
2012-10-04 16:54:13 SegmentedEncoder: title : 00:27:29.857
2012-10-04 16:54:13 SegmentedEncoder: Chapter #0.5: start 2145.310000, end 2537.952000
2012-10-04 16:54:13 SegmentedEncoder: Metadata:
2012-10-04 16:54:13 SegmentedEncoder: title : 00:35:45.310
2012-10-04 16:54:13 SegmentedEncoder: Chapter #0.6: start 2537.952000, end 2563.728000
2012-10-04 16:54:13 SegmentedEncoder: Metadata:
2012-10-04 16:54:13 SegmentedEncoder: title : 00:42:17.952
2012-10-04 16:54:13 SegmentedEncoder: Chapter #0.7: start 2563.728000, end 2708.664000
2012-10-04 16:54:13 SegmentedEncoder: Metadata:
2012-10-04 16:54:13 SegmentedEncoder: title : 00:42:43.728
2012-10-04 16:54:13 SegmentedEncoder: Stream #0.0(eng): Video: libx264, yuv420p, 1024x576 [PAR 1:1 DAR 16:9], q=2-48, 4250 kb/s, 90k tbn, 23.98 tbc (default)
2012-10-04 16:54:13 SegmentedEncoder: Stream #0.1(eng): Audio: libmp3lame, 48000 Hz, stereo, s16, 256 kb/s (default)
2012-10-04 16:54:13 SegmentedEncoder: Stream mapping:
2012-10-04 16:54:13 SegmentedEncoder: Stream #0:0 -> #0:0 (h264 -> libx264)
2012-10-04 16:54:13 SegmentedEncoder: Stream #0:1 -> #0:1 (dca -> libmp3lame)
2012-10-04 16:54:13 SegmentedEncoder: Press ctrl-c to stop encoding
2012-10-04 16:54:13 SegmentedEncoder: frame= 45 fps= 0 q=2.0 size= 14kB time=0.33 bitrate= 351.6kbits/s
2012-10-04 16:54:14 LiveConversion: >>
395821474B69747C697A763B5D72777E683B3363232D32475A72694D727F7E74487E696D7E69477A6D7874756D357E637E393B3636687E7C767E756F
36777E757C6F733B2F3B3636687E7C767E756F36747D7D687E6F3B2A2828293B36367874756D7E696872747536727F3B7A2D2C7A297A237A36292E7A
78362F7A2B7E362278287836222E227A2A2D2D2B232E2B23282F2A2E2A29292B36237F232B362F2E2F2A362278237A362B79232A22787D7A7E2D292F
3B36366B74696F36756E76797E693B2F2D2D282A3B366F73697E7A7F683B2F3B3668683B2A282829352B3B36723B395F21475E757C77726873474F4D
3B487E69727E683B535F47487A75786F6E7A696247487E7A6874753B2847487A75786F6E7A696235482B285E2A2E352C292B6B3559776E497A623543
292D2F36495E4C5A495F3576706D393B36767A6B3B2B212B372B212B3B36767A6B3B2B212A372B212A3B366D7D3B397869746B262A29232B212C292B
212B212B373B68787A777E262A2B292F212E2C2D3778746B62393B367A686B7E786F3B2A2B292F212E2C2D3B36623B367D3B766B7E7C6F683B367A68
6275783B362A3B366D78747F7E783B77727963292D2F3B366D78747F7E783B77727963292D2F3B367D777A7C68293B307D7A686F3B367D777A7C683B
307774746B3B367C3B282B3B36707E6272756F447672753B2A3B36797D3B2B3B367944686F697A6F7E7C623B2B3B3678766B3B3078736974767A3B36
697E7D683B2A3B3678747F7E693B2B3B36767E44697A757C7E3B2A2D3B36686E796A3B2F3B366B7A696F726F727475683B306B7A696F722F632F306B
7A696F72236323306B7A696F6B2363233B366F697E777772683B2B3B366878446F73697E687374777F3B2F2B3B3672446A7D7A786F74693B2B352C2A
3B366A7874766B3B2B352D3B36796E7D6872617E3B2A2B292F703B36793B2F292E2B703B36796F3B2F2E2B2B703B366A767A633B2F233B366A767275
3B293B36693B292835222C2E3B367A78747F7E783B777279766B28777A767E3B367A793B292E2D703B367A693B2F232B2B2B3B367A783B293B36
<<

2012-10-04 16:54:14 SegmentedEncoder: avconv version 0.8, Copyright (c) 2000-2012 the Libav developers
2012-10-04 16:54:14 SegmentedEncoder: built on Jul 20 2012 01:21:49 with gcc 4.5.2
2012-10-04 16:54:14 SegmentedEncoder: Input #0, matroska,webm, from 'D:\English\TV Series HD\Sanctuary\Season 3\Sanctuary.S03E15.720p.BluRay.X264-REWARD.mkv':
2012-10-04 16:54:14 SegmentedEncoder: Duration: 00:45:08.66, start: 0.000000, bitrate: N/A
2012-10-04 16:54:14 SegmentedEncoder: Chapter #0.0: start 0.000000, end 181.181000
2012-10-04 16:54:14 SegmentedEncoder: Metadata:
2012-10-04 16:54:14 SegmentedEncoder: title : 00:00:00.000
2012-10-04 16:54:14 SegmentedEncoder: Chapter #0.1: start 181.181000, end 822.822000
2012-10-04 16:54:14 SegmentedEncoder: Metadata:
2012-10-04 16:54:14 SegmentedEncoder: title : 00:03:01.181
2012-10-04 16:54:14 SegmentedEncoder: Chapter #0.2: start 822.822000, end 1374.790000
2012-10-04 16:54:14 SegmentedEncoder: Metadata:
2012-10-04 16:54:14 SegmentedEncoder: title : 00:13:42.822
2012-10-04 16:54:14 SegmentedEncoder: Chapter #0.3: start 1374.790000, end 1649.857000
2012-10-04 16:54:14 SegmentedEncoder: Metadata:
2012-10-04 16:54:14 SegmentedEncoder: title : 00:22:54.790
2012-10-04 16:54:14 SegmentedEncoder: Chapter #0.4: start 1649.857000, end 2145.310000
2012-10-04 16:54:14 SegmentedEncoder: Metadata:
2012-10-04 16:54:14 SegmentedEncoder: title : 00:27:29.857
2012-10-04 16:54:14 SegmentedEncoder: Chapter #0.5: start 2145.310000, end 2537.952000
2012-10-04 16:54:14 SegmentedEncoder: Metadata:
2012-10-04 16:54:14 SegmentedEncoder: title : 00:35:45.310
2012-10-04 16:54:14 SegmentedEncoder: Chapter #0.6: start 2537.952000, end 2563.728000
2012-10-04 16:54:14 SegmentedEncoder: Metadata:
2012-10-04 16:54:14 SegmentedEncoder: title : 00:42:17.952
2012-10-04 16:54:14 SegmentedEncoder: Chapter #0.7: start 2563.728000, end 2708.664000
2012-10-04 16:54:14 SegmentedEncoder: Metadata:
2012-10-04 16:54:14 SegmentedEncoder: title : 00:42:43.728
2012-10-04 16:54:14 SegmentedEncoder: Stream #0.0(eng): Video: h264 (High), yuv420p, 1280x720, PAR 1:1 DAR 16:9, 23.98 fps, 23.98 tbr, 1k tbn, 47.95 tbc (default)
2012-10-04 16:54:14 SegmentedEncoder: Stream #0.1(eng): Audio: dca (DTS), 48000 Hz, 5.1, s16, 1536 kb/s (default)
2012-10-04 16:54:14 SegmentedEncoder: Stream #0.2(eng): Subtitle: [0][0][0][0] / 0x0000
2012-10-04 16:54:14 SegmentedEncoder: [libx264 @ 03894820] VBV maxrate unspecified, assuming CBR
2012-10-04 16:54:14 SegmentedEncoder: [libx264 @ 03894820] using SAR=1/1
2012-10-04 16:54:14 SegmentedEncoder: [libx264 @ 03894820] using cpu capabilities: MMX2 SSE2Fast SSSE3 Cache64
2012-10-04 16:54:14 SegmentedEncoder: [libx264 @ 03894820] profile High, level 3.1
2012-10-04 16:54:14 SegmentedEncoder: [mpegts @ 03899480] muxrate VBR, pcr every 2 pkts, sdt every 200, pat/pmt every 40 pkts
2012-10-04 16:54:14 SegmentedEncoder: Output #0, mpegts, to 'pipe:':
2012-10-04 16:54:14 SegmentedEncoder: Metadata:
2012-10-04 16:54:14 SegmentedEncoder: encoder : Lavf54.9.0
2012-10-04 16:54:14 SegmentedEncoder: Chapter #0.0: start 0.000000, end 42.790000
2012-10-04 16:54:14 SegmentedEncoder: Metadata:
2012-10-04 16:54:14 SegmentedEncoder: title : 00:13:42.822

Log page full. Discarding all subsequent entries!


Subtitle log:

2012-10-04 16:54:10 MkvSubtitles: Loaded MKV file; Listing tracks:
2012-10-04 16:54:10 MkvSubtitles: Track 1 null; type: 1; codec: V_MPEG4/ISO/AVC; lang: null
2012-10-04 16:54:10 MkvSubtitles: Track 2 null; type: 2; codec: A_DTS; lang: eng
2012-10-04 16:54:10 MkvSubtitles: Track 3 null; type: 17; codec: S_TEXT/UTF8; lang: eng
===================================================================================================
2012-10-04 16:54:10 MkvSubtitles: Loaded MKV file; Listing tracks:
2012-10-04 16:54:10 MkvSubtitles: Track 1 null; type: 1; codec: V_MPEG4/ISO/AVC; lang: null
2012-10-04 16:54:10 MkvSubtitles: Track 2 null; type: 2; codec: A_DTS; lang: eng
2012-10-04 16:54:10 MkvSubtitles: Track 3 null; type: 17; codec: S_TEXT/UTF8; lang: eng
===================================================================================================
2012-10-04 16:54:10 MkvSubtitles: Loaded MKV file; Listing tracks:
2012-10-04 16:54:10 MkvSubtitles: Track 1 null; type: 1; codec: V_MPEG4/ISO/AVC; lang: null
2012-10-04 16:54:10 MkvSubtitles: Track 2 null; type: 2; codec: A_DTS; lang: eng
2012-10-04 16:54:10 MkvSubtitles: Track 3 null; type: 17; codec: S_TEXT/UTF8; lang: eng
===================================================================================================
2012-10-04 16:54:12 MkvSubtitles: Loaded MKV file; Listing tracks:
2012-10-04 16:54:12 MkvSubtitles: Track 1 null; type: 1; codec: V_MPEG4/ISO/AVC; lang: null
2012-10-04 16:54:12 MkvSubtitles: Track 2 null; type: 2; codec: A_DTS; lang: eng
2012-10-04 16:54:12 MkvSubtitles: Track 3 null; type: 17; codec: S_TEXT/UTF8; lang: eng
===================================================================================================
2012-10-04 16:54:12 MkvSubtitles: Loaded MKV file; Listing tracks:
2012-10-04 16:54:12 MkvSubtitles: Track 1 null; type: 1; codec: V_MPEG4/ISO/AVC; lang: null
2012-10-04 16:54:12 MkvSubtitles: Track 2 null; type: 2; codec: A_DTS; lang: eng
2012-10-04 16:54:12 MkvSubtitles: Track 3 null; type: 17; codec: S_TEXT/UTF8; lang: eng
===================================================================================================
2012-10-04 16:54:12 MkvSubtitles: Loaded MKV file; Listing tracks:
2012-10-04 16:54:12 MkvSubtitles: Track 1 null; type: 1; codec: V_MPEG4/ISO/AVC; lang: null
2012-10-04 16:54:12 MkvSubtitles: Track 2 null; type: 2; codec: A_DTS; lang: eng
2012-10-04 16:54:12 MkvSubtitles: Track 3 null; type: 17; codec: S_TEXT/UTF8; lang: eng
===================================================================================================
2012-10-04 16:54:12 MkvSubtitles: Loaded MKV file; Listing tracks:
2012-10-04 16:54:12 MkvSubtitles: Track 1 null; type: 1; codec: V_MPEG4/ISO/AVC; lang: null
2012-10-04 16:54:12 MkvSubtitles: Track 2 null; type: 2; codec: A_DTS; lang: eng
2012-10-04 16:54:12 MkvSubtitles: Track 3 null; type: 17; codec: S_TEXT/UTF8; lang: eng
2012-10-04 16:54:12 MkvSubtitles: Selected track number: 3
===================================================================================================
2012-10-04 16:54:14 MkvSubtitles: Loaded MKV file; Listing tracks:
2012-10-04 16:54:14 MkvSubtitles: Track 1 null; type: 1; codec: V_MPEG4/ISO/AVC; lang: null
2012-10-04 16:54:14 MkvSubtitles: Track 2 null; type: 2; codec: A_DTS; lang: eng
2012-10-04 16:54:14 MkvSubtitles: Track 3 null; type: 17; codec: S_TEXT/UTF8; lang: eng
===================================================================================================
2012-10-04 16:54:14 MkvSubtitles: Loaded MKV file; Listing tracks:
2012-10-04 16:54:14 MkvSubtitles: Track 1 null; type: 1; codec: V_MPEG4/ISO/AVC; lang: null
2012-10-04 16:54:14 MkvSubtitles: Track 2 null; type: 2; codec: A_DTS; lang: eng
2012-10-04 16:54:14 MkvSubtitles: Track 3 null; type: 17; codec: S_TEXT/UTF8; lang: eng
2012-10-04 16:54:14 MkvSubtitles: Selected track number: 3
===================================================================================================
2012-10-04 16:54:22 MkvSubtitles: Loaded MKV file; Listing tracks:
2012-10-04 16:54:22 MkvSubtitles: Track 1 null; type: 1; codec: V_MPEG4/ISO/AVC; lang: null
2012-10-04 16:54:22 MkvSubtitles: Track 2 null; type: 2; codec: A_DTS; lang: eng
2012-10-04 16:54:22 MkvSubtitles: Track 3 null; type: 17; codec: S_TEXT/UTF8; lang: eng
===================================================================================================
2012-10-04 16:54:22 MkvSubtitles: Loaded MKV file; Listing tracks:
2012-10-04 16:54:22 MkvSubtitles: Track 1 null; type: 1; codec: V_MPEG4/ISO/AVC; lang: null
2012-10-04 16:54:22 MkvSubtitles: Track 2 null; type: 2; codec: A_DTS; lang: eng
2012-10-04 16:54:22 MkvSubtitles: Track 3 null; type: 17; codec: S_TEXT/UTF8; lang: eng
2012-10-04 16:54:22 MkvSubtitles: Selected track number: 3
===================================================================================================
2012-10-04 16:54:30 MkvSubtitles: Loaded MKV file; Listing tracks:
2012-10-04 16:54:30 MkvSubtitles: Track 1 null; type: 1; codec: V_MPEG4/ISO/AVC; lang: null
2012-10-04 16:54:30 MkvSubtitles: Track 2 null; type: 2; codec: A_DTS; lang: eng
2012-10-04 16:54:30 MkvSubtitles: Track 3 null; type: 17; codec: S_TEXT/UTF8; lang: eng
===================================================================================================
2012-10-04 16:54:30 MkvSubtitles: Loaded MKV file; Listing tracks:
2012-10-04 16:54:30 MkvSubtitles: Track 1 null; type: 1; codec: V_MPEG4/ISO/AVC; lang: null
2012-10-04 16:54:30 MkvSubtitles: Track 2 null; type: 2; codec: A_DTS; lang: eng
2012-10-04 16:54:30 MkvSubtitles: Track 3 null; type: 17; codec: S_TEXT/UTF8; lang: eng
===================================================================================================
2012-10-04 16:54:31 MkvSubtitles: Loaded MKV file; Listing tracks:
2012-10-04 16:54:31 MkvSubtitles: Track 1 null; type: 1; codec: V_MPEG4/ISO/AVC; lang: null
2012-10-04 16:54:31 MkvSubtitles: Track 2 null; type: 2; codec: A_DTS; lang: eng
2012-10-04 16:54:31 MkvSubtitles: Track 3 null; type: 17; codec: S_TEXT/UTF8; lang: eng
===================================================================================================
2012-10-04 16:54:31 MkvSubtitles: Loaded MKV file; Listing tracks:
2012-10-04 16:54:31 MkvSubtitles: Track 1 null; type: 1; codec: V_MPEG4/ISO/AVC; lang: null
2012-10-04 16:54:31 MkvSubtitles: Track 2 null; type: 2; codec: A_DTS; lang: eng
2012-10-04 16:54:31 MkvSubtitles: Track 3 null; type: 17; codec: S_TEXT/UTF8; lang: eng
===================================================================================================
2012-10-04 16:54:31 MkvSubtitles: Loaded MKV file; Listing tracks:
2012-10-04 16:54:31 MkvSubtitles: Track 1 null; type: 1; codec: V_MPEG4/ISO/AVC; lang: null
2012-10-04 16:54:31 MkvSubtitles: Track 2 null; type: 2; codec: A_DTS; lang: eng
2012-10-04 16:54:31 MkvSubtitles: Track 3 null; type: 17; codec: S_TEXT/UTF8; lang: eng
===================================================================================================
2012-10-04 16:54:52 MkvSubtitles: Loaded MKV file; Listing tracks:
2012-10-04 16:54:52 MkvSubtitles: Track 1 null; type: 1; codec: V_MPEG4/ISO/AVC; lang: null
2012-10-04 16:54:52 MkvSubtitles: Track 2 null; type: 2; codec: A_DTS; lang: eng
2012-10-04 16:54:52 MkvSubtitles: Track 3 null; type: 17; codec: S_TEXT/UTF8; lang: eng
===================================================================================================
2012-10-04 16:54:52 MkvSubtitles: Loaded MKV file; Listing tracks:
2012-10-04 16:54:52 MkvSubtitles: Track 1 null; type: 1; codec: V_MPEG4/ISO/AVC; lang: null
2012-10-04 16:54:52 MkvSubtitles: Track 2 null; type: 2; codec: A_DTS; lang: eng
2012-10-04 16:54:52 MkvSubtitles: Track 3 null; type: 17; codec: S_TEXT/UTF8; lang: eng
===================================================================================================
2012-10-04 16:54:53 MkvSubtitles: Loaded MKV file; Listing tracks:
2012-10-04 16:54:53 MkvSubtitles: Track 1 null; type: 1; codec: V_MPEG4/ISO/AVC; lang: null
2012-10-04 16:54:53 MkvSubtitles: Track 2 null; type: 2; codec: A_DTS; lang: eng
2012-10-04 16:54:53 MkvSubtitles: Track 3 null; type: 17; codec: S_TEXT/UTF8; lang: eng
===================================================================================================
2012-10-04 16:54:53 MkvSubtitles: Loaded MKV file; Listing tracks:
2012-10-04 16:54:53 MkvSubtitles: Track 1 null; type: 1; codec: V_MPEG4/ISO/AVC; lang: null
2012-10-04 16:54:53 MkvSubtitles: Track 2 null; type: 2; codec: A_DTS; lang: eng
2012-10-04 16:54:53 MkvSubtitles: Track 3 null; type: 17; codec: S_TEXT/UTF8; lang: eng
2012-10-04 16:54:53 MkvSubtitles: Selected track number: 3
===================================================================================================
2012-10-04 17:49:39 MkvSubtitles: Loaded MKV file; Listing tracks:
2012-10-04 17:49:39 MkvSubtitles: Track 1 null; type: 1; codec: V_MPEG4/ISO/AVC; lang: null
2012-10-04 17:49:39 MkvSubtitles: Track 2 null; type: 2; codec: A_DTS; lang: eng
2012-10-04 17:49:39 MkvSubtitles: Track 3 null; type: 17; codec: S_TEXT/UTF8; lang: eng
===================================================================================================
2012-10-04 17:49:48 MkvSubtitles: Loaded MKV file; Listing tracks:
2012-10-04 17:49:48 MkvSubtitles: Track 1 null; type: 1; codec: V_MPEG4/ISO/AVC; lang: null
2012-10-04 17:49:48 MkvSubtitles: Track 2 null; type: 2; codec: A_DTS; lang: eng
2012-10-04 17:49:48 MkvSubtitles: Track 3 null; type: 17; codec: S_TEXT/UTF8; lang: eng
===================================================================================================
2012-10-04 17:49:48 MkvSubtitles: Loaded MKV file; Listing tracks:
2012-10-04 17:49:48 MkvSubtitles: Track 1 null; type: 1; codec: V_MPEG4/ISO/AVC; lang: null
2012-10-04 17:49:48 MkvSubtitles: Track 2 null; type: 2; codec: A_DTS; lang: eng
2012-10-04 17:49:48 MkvSubtitles: Track 3 null; type: 17; codec: S_TEXT/UTF8; lang: eng
===================================================================================================
2012-10-04 17:49:48 MkvSubtitles: Loaded MKV file; Listing tracks:
2012-10-04 17:49:48 MkvSubtitles: Track 1 null; type: 1; codec: V_MPEG4/ISO/AVC; lang: null
2012-10-04 17:49:48 MkvSubtitles: Track 2 null; type: 2; codec: A_DTS; lang: eng
2012-10-04 17:49:48 MkvSubtitles: Track 3 null; type: 17; codec: S_TEXT/UTF8; lang: eng
===================================================================================================
2012-10-04 17:49:48 MkvSubtitles: Loaded MKV file; Listing tracks:
2012-10-04 17:49:48 MkvSubtitles: Track 1 null; type: 1; codec: V_MPEG4/ISO/AVC; lang: null
2012-10-04 17:49:48 MkvSubtitles: Track 2 null; type: 2; codec: A_DTS; lang: eng
2012-10-04 17:49:48 MkvSubtitles: Track 3 null; type: 17; codec: S_TEXT/UTF8; lang: eng
2012-10-04 17:49:48 MkvSubtitles: Selected track number: 3
You are kidding right?

There I was, streaming a Eureka episode (a couple of hours ago) and noticing the new Airvideo update. I thought cool, at last the play/pause fix! I updated the app to only realise that video out was completely disabled. wth?

You know what? At least this thing comes to an end. It was a VERY bumpy ride the last months. I just downloaded and set up StreamtoMe where video out works flawlessly on my 3Gs and the damn thing even lets you browse the app while its on video out!

/rant off
Admin wrote:Hi,

Unfortunately Apple only allows TV out for 3rd party application on iPhone 4. We've had workaround for this but it no longer works with iOS firmware 4.3. We're trying to find a new one.


What does that mean? That the last AirVideo update disables video out for the 3Gs?
Tannable wrote:Actually, there still is a way of controlling Air Video.

Like a lot of apps that use music and video to play, Air Video can be controlled by the iPhone lock screen controls



this is what you have to do:

1: Start the video like normal and wait for it to show on your tv. When it does, lock your iPhone.
2: Press the home button to turn on the screen.
3: Press the home button twice quickly to bring up the lock screen controls.

As you can see from the pic you'll be able to pause and skip to the next video but, as for searching through the video and other controls, you need to wait for the update.


Thank you very much!

You are a savior!!!
emx620 wrote:

Just curious if you've had time to read my post yet.

There are lots of features being asked by users but lately the feedback from the developer has been underwhelming.
Some even think that the developer doesn't even post here and there is someone else responsible for the forum.

AirVideo is great but the competition is gaining serious ground.
I guess I'll give StreamToMe a try then. Looks good.
I believe shutdown-on-lan is not even officially supported by windows. I think it's a Mac feature.
Wake-on-lan would be great though.

Other than that there are many features wanted by the users but the feedback from the developer lately has not been very promising.
I asked in an other thread about a roadmap but I got no answer.
Ditto that.

A delete option for files would be great.
There haven't been any new features added for a while and I was wondering if everything is all right.
I have been waiting for access to folders with photos, audio streaming etc. for a while but I see no updates about it.


Can we get a roadmap of what the dev is planning to add, or what he is working on atm?
Just a simple question.

I have set up the server on the iphone with the PIN, and everything works.

So to clarify one thing, if I am connected to a Wifi network the AirVideo app will automatically use the Wifi network. Being my local Wifi or somebody else's Wifi.
And if I'm not connected to any Wifi the AirVideo app will automatically use the 3G network?
 
Forum Index » Profile for MjW » Messages posted by MjW
Go to:   
Powered by JForum 2.1.8 © JForum Team