[Logo] Air Video Forum
  [Search] Search   [Recent Topics] Recent Topics   [Hottest Topics] Hottest Topics   [Members]  Member Listing   [Groups] Back to home page 
[Moderation Log] Moderation Log   [Register] Register / 
[Login] Login 
Messages posted by: shimai
Forum Index » Profile for shimai » Messages posted by shimai
Author Message
I deleted the file as descripted but i think i have my channels.ini in the wrong place working under osx.
Can anyone tell me where to put the channels.ini file on my mac for streaming from my dreambox 7020 i've put the file now in air video server/content/resources, is that ok ore shood i put in in root and how do i do that.
The only thing happening now is that i see a flash of the thumbnail of the broudcast channel for a second and then nothing!
Hello there i've been modifying sinds a week but can't get a tream working from my dreambox 7020 (enigma 1) to my iphone4!
i can connect via 3g and wifi and can also stream a dvd from the hd on my imac.
I've put the channels.ini and the ffmpeg in: /Applications/Air Video Server.app/Contents/Resources
both have reading and writing priviliges for everyone.

I've had numerous ffmpeg versions but the only thing working is that i see a flash of the thumpnail in the phone or a gray screen when i connect.
here's a logfile;
2010-09-24 20:43:08 LiveConversion: Begin Live Video Conversion
2010-09-24 20:43:08 LiveConversion: >>
39345A6B6B7772787A6F72747568345A72693B4D727F7E743B487E696D7E69357A6B6B345874756F7E756F6834497E68746E69787E68347D7D766B7E
7C393B36367874756D7E696872747536727F3B2C2C79797F2F7978367D7E2B7E362F227A2C36797A2F29367D792A7E7A2C222C7D792F7F3B36366B74
696F36756E76797E693B2F2D2D282A3B366F73697E7A7F683B2F3B367D777A7C68293B307D7A686F3B367D777A7C683B307774746B3B367C3B282B3B
36707E6272756F447672753B2A3B36797D3B2B3B367944686F697A6F7E7C623B2B3B367D777A7C68293B366C6B697E7F367F786F2363233B3678766B
3B3078736974767A3B367F7E79777478707A776B737A3B2B3B367F7E7977747870797E6F7A3B2B3B36697E7D683B2A3B3678747F7E693B2B3B36767E
44697A757C7E3B2A2D3B36686E796A3B2E3B366B7A696F726F727475683B306B7A696F722F632F306B7A696F72236323306B7A696F6B2363233B366F
697E777772683B2B3B366878446F73697E687374777F3B2F2B3B3672446A7D7A786F74693B2B352C2A3B366A7874766B3B2B352D3B36767A6B3B2B35
2B212B352B3B367A753B3668683B2B352B3B36723B344E687E696834717473757562345F7E68706F746B34787A757A777F727C726F7A77342F36494F
572F35766B2F3B366B7A7F777E7D6F3B2F3B366B7A7F69727C736F3B2F3B366B7A7F6F746B3B2B3B366B7A7F79746F6F74763B2B3B367869746B777E
7D6F3B2B3B367869746B69727C736F3B2B3B367869746B6F746B3B2B3B367869746B79746F6F74763B2B3B36683B2E2D236328292B3B367A686B7E78
6F3B2A352C2C2E3B36623B367D3B766B7E7C6F683B366D78747F7E783B77727963292D2F3B3678697D3B29223B366A767A633B29223B36693B292E35
2B3B367A78747F7E783B777279766B28777A767E3B367A793B2A2D2B703B367A693B2F2F2A2B2B3B367A783B293B36
<<

2010-09-24 20:43:09 LiveConversion: FFmpeg version UNKNOWN, Copyright (c) 2000-2010 Fabrice Bellard, et al.
2010-09-24 20:43:09 LiveConversion: built on Feb 7 2010 11:39:45 with gcc 4.0.1 (Apple Inc. build 5493)
2010-09-24 20:43:09 LiveConversion: configuration: --enable-pthreads --disable-shared --enable-static --enable-gpl --enable-libx264 --enable-libmp3lame --enable-libfaad --disable-decoder=aac
2010-09-24 20:43:09 LiveConversion: libavutil 50. 8. 0 / 50. 8. 0
2010-09-24 20:43:09 LiveConversion: libavcodec 52.52. 0 / 52.52. 0
2010-09-24 20:43:09 LiveConversion: libavformat 52.50. 0 / 52.50. 0
2010-09-24 20:43:09 LiveConversion: libavdevice 52. 2. 0 / 52. 2. 0
2010-09-24 20:43:09 LiveConversion: libswscale 0.10. 0 / 0.10. 0
2010-09-24 20:43:09 LiveConversion: Input #0, mov,mp4,m4a,3gp,3g2,mj2, from '/Users/johnny/Desktop/canaldigital/4-RTL4.mp4':
2010-09-24 20:43:09 LiveConversion: Metadata:
2010-09-24 20:43:09 LiveConversion: major_brand : isom
2010-09-24 20:43:09 LiveConversion: minor_version : 512
2010-09-24 20:43:09 LiveConversion: compatible_brands: isomiso2mp41
2010-09-24 20:43:09 LiveConversion: encoder : Lavf52.43.0
2010-09-24 20:43:09 LiveConversion: Duration: 00:00:01.00, start: 0.000000, bitrate: 121 kb/s
2010-09-24 20:43:09 LiveConversion: Stream #0.0(und): Video: mpeg4, yuv420p, 640x360 [PAR 1:1 DAR 16:9], 113 kb/s, 25 fps, 25 tbr, 25 tbn, 25 tbc
2010-09-24 20:43:09 LiveConversion: [libx264 @ 0x1801000]using SAR=71/72
2010-09-24 20:43:09 LiveConversion: [libx264 @ 0x1801000]using cpu capabilities: MMX2 SSE2Fast SSSE3 Cache64
2010-09-24 20:43:09 LiveConversion: [libx264 @ 0x1801000]profile Baseline, level 2.1
2010-09-24 20:43:09 LiveConversion: Output #0, mpegts, to 'pipe:':
2010-09-24 20:43:09 LiveConversion: Stream #0.0(und): Video: libx264, yuv420p, 576x320 [PAR 71:72 DAR 71:40], q=2-29, 200 kb/s, 90k tbn, 25 tbc
2010-09-24 20:43:09 LiveConversion: Stream mapping:
2010-09-24 20:43:09 LiveConversion: Stream #0.0 -> #0.0
2010-09-24 20:43:09 LiveConversion: Press [q] to stop encoding
2010-09-24 20:43:09 LiveConversion: frame= 25 fps= 0 q=6809503.0 Lsize= 11kB time=1.00 bitrate= 93.2kbits/s
2010-09-24 20:43:09 LiveConversion: video:5kB audio:0kB global headers:0kB muxing overhead 116.212206%
2010-09-24 20:43:09 LiveConversion: [libx264 @ 0x1801000]frame I:2 Avg QP:17.30 size: 2569
2010-09-24 20:43:09 LiveConversion: [libx264 @ 0x1801000]frame P:23 Avg QP:29.00 size: 11
2010-09-24 20:43:09 LiveConversion: [libx264 @ 0x1801000]mb I I16..4: 91.4% 0.0% 8.6%
2010-09-24 20:43:09 LiveConversion: [libx264 @ 0x1801000]mb P I16..4: 0.0% 0.0% 0.0% P16..4: 0.0% 0.0% 0.0% 0.0% 0.0% skip:100.0%
2010-09-24 20:43:09 LiveConversion: [libx264 @ 0x1801000]coded y,uvDC,uvAC intra: 10.4% 12.3% 9.2% inter: 0.0% 0.0% 0.0%
2010-09-24 20:43:09 LiveConversion: [libx264 @ 0x1801000]i16 v,h,dc,p: 89% 4% 6% 0%
2010-09-24 20:43:09 LiveConversion: [libx264 @ 0x1801000]i4 v,h,dc,ddl,ddr,vr,hd,vl,hu: 24% 16% 27% 8% 6% 5% 3% 7% 4%
2010-09-24 20:43:09 LiveConversion: [libx264 @ 0x1801000]kb/s:43.13

Can anyone help me???????
 
Forum Index » Profile for shimai » Messages posted by shimai
Go to:   
Powered by JForum 2.1.8 © JForum Team