[Logo] Air Video Forum
  [Search] Search   [Recent Topics] Recent Topics   [Hottest Topics] Hottest Topics   [Members]  Member Listing   [Groups] Back to home page 
[Moderation Log] Moderation Log   [Register] Register / 
[Login] Login 
Messages posted by: Fome
Forum Index » Profile for Fome » Messages posted by Fome
Author Message
zulooe wrote:
I have answered your questions but you have not given me any support as in any suggestions except asked me more questions. Please give me a proecedure of what i need to do. This has been going on for days and I still am no better of and have not received any support that is resolving this issue


Wow...the Admin has only been continually trying to help you. You don't call this support? Talk about ungrateful.
Admin wrote:Do those videos have this - h264 (High 10), yuv420p10le in live conversion log?


Right, the problem is the program crashes before it can even generate a conversion log...
I restarted my iPad 3, but the same thing occurred. But after more testing, I can report that it only happens with a specific set of videos encoded the same way. I played another .mkv file encoded with h.264 high profile and it played fine with passthrough. I wish there were some good way to give you more info about video causing the crashes. Do you have any recommendations?
I tried another video using passthrough that I don't think is Hi10 that also crashed my iPad 3. However, the log is very brief--it doesn't seem like it got very far at all:

2012-07-21 16:16:36 LiveConversion: >>
395821474B69747C697A763B5D72777E683B3363232D32475A72694D727F7E74487E696D7E69477A6D7874756D357E637E393B3636687E7C767E756F
36777E757C6F733B2F3B3636687E7C767E756F36747D7D687E6F3B2B3B36367874756D7E696872747536727F3B2E7D2B787D2C7F2836237F2D2C362F
7D292B367A7E2C78367A78232F2B227D232F2B797F7E297F792B782F7F36232E7E2D362F2A232236232A232B3678792F787A2D2D7A2E2F2D2F3B3636
6B74696F36756E76797E693B2F2D2D282A3B366F73697E7A7F683B2F3B3668683B2B352B3B36723B395F21475F746C7577747A7F6847405874767672
7E463B5D7A6F7E3BF99A9F3B417E69743B363B2B2A3B40285A2B58585F2D59463576706D393B36767A6B3B2B212A372B212A3B36767A6B3B2B212937
2B21293B366D7D3B397869746B262A29232B212C292B212B212B373B68787A777E262A29232B212C292B3778746B62393B367A686B7E786F3B2A2923
2B212C292B3B36623B367D3B766B7E7C6F683B367A686275783B362A3B366D78747F7E783B77727963292D2F3B366D78747F7E783B78746B623B3679
687D216D3B73292D2F44766B2F6F747A75757E63793B367A78747F7E783B777279766B28777A767E3B367A793B2A2229703B367A693B2F232B2B2B3B
367A783B293B36
<<

Attempting to watch any .mkv video with passthrough enabled causes Air Video to crash on my iPad 3. I've tried a few different 1080p and 720p videos, all to the same effect. They play fine when passthrough is disabled.

2012-07-21 16:05:38 LiveConversion: >>
395821474B69747C697A763B5D72777E683B3363232D32475A72694D727F7E74487E696D7E69477A6D7874756D357E637E393B3636687E7C767E756F
36777E757C6F733B2F3B3636687E7C767E756F36747D7D687E6F3B2B3B36367874756D7E696872747536727F3B792B7E227A7D7E29362C292878362F
292A7F362223282E362E222A792C7F2C2C7A2C282B7D7D2E7A7D7D227A362C232B2C362F2F232C36797D2B79362A7D227D282828787E2D222C3B3636
6B74696F36756E76797E693B2F2D2D282A3B366F73697E7A7F683B2F3B3668683B2B352B3B36723B395F21475F746C7577747A7F68474058747A775C
6E6268463B503654553A3B56746D727E3B332A2B232B6B323B402D2328225828282D463576706D393B36767A6B3B2B212B372B212B3B36767A6B3B2B
212A372B212A3B366D7D3B397869746B262A22292B212A2B232B212B212B373B68787A777E262A29232B212C292B3778746B62393B367A686B7E786F
3B2A29232B212C292B3B36623B367D3B766B7E7C6F683B367A686275783B362A3B366D78747F7E783B77727963292D2F3B366D78747F7E783B78746B
623B3679687D216D3B73292D2F44766B2F6F747A75757E63793B367A78747F7E783B777279766B28777A767E3B367A793B2A2229703B367A693B2F23
2B2B2B3B367A783B293B36
<<

2012-07-21 16:05:38 SegmentedEncoder: avconv version 0.8, Copyright (c) 2000-2012 the Libav developers
2012-07-21 16:05:38 SegmentedEncoder: built on Jul 20 2012 01:21:49 with gcc 4.5.2
2012-07-21 16:05:38 SegmentedEncoder: Input #0, matroska,webm, from 'D:\Downloads\[CoalGuys] K-ON! Movie (1080p) [6839C336].mkv':
2012-07-21 16:05:38 SegmentedEncoder: Metadata:
2012-07-21 16:05:38 SegmentedEncoder: title : [CoalGuys] K-ON! Movie
2012-07-21 16:05:38 SegmentedEncoder: Duration: 01:49:48.65, start: 0.000000, bitrate: 5108 kb/s
2012-07-21 16:05:38 SegmentedEncoder: Stream #0.0(jpn): Video: h264 (High 10), yuv420p10le, 1920x1080, PAR 1:1 DAR 16:9, 23.98 fps, 23.98 tbr, 1k tbn, 47.95 tbc (default)
2012-07-21 16:05:38 SegmentedEncoder: Metadata:
2012-07-21 16:05:38 SegmentedEncoder: title : 1080p H.264
2012-07-21 16:05:38 SegmentedEncoder: Stream #0.1(jpn): Audio: aac, 48000 Hz, 5.1, s16 (default)
2012-07-21 16:05:38 SegmentedEncoder: Metadata:
2012-07-21 16:05:38 SegmentedEncoder: title : Audio
2012-07-21 16:05:38 SegmentedEncoder: Stream #0.2(eng): Subtitle: ass (default)
2012-07-21 16:05:38 SegmentedEncoder: Metadata:
2012-07-21 16:05:38 SegmentedEncoder: title : Styled Subtitles (.ass)
2012-07-21 16:05:38 SegmentedEncoder: Stream #0.3: Attachment: [0][0][0][0] / 0x0000
2012-07-21 16:05:38 SegmentedEncoder: Metadata:
2012-07-21 16:05:38 SegmentedEncoder: filename : ANNA_.ttf
2012-07-21 16:05:38 SegmentedEncoder: mimetype : application/x-truetype-font
2012-07-21 16:05:38 SegmentedEncoder: Stream #0.4: Attachment: [0][0][0][0] / 0x0000
2012-07-21 16:05:38 SegmentedEncoder: Metadata:
2012-07-21 16:05:38 SegmentedEncoder: filename : AvenirLTStd-Heavy.otf
2012-07-21 16:05:38 SegmentedEncoder: mimetype : application/x-truetype-font
2012-07-21 16:05:38 SegmentedEncoder: Stream #0.5: Attachment: [0][0][0][0] / 0x0000
2012-07-21 16:05:38 SegmentedEncoder: Metadata:
2012-07-21 16:05:38 SegmentedEncoder: filename : AvenirLTStd-HeavyOblique.otf
2012-07-21 16:05:38 SegmentedEncoder: mimetype : application/x-truetype-font
2012-07-21 16:05:38 SegmentedEncoder: Stream #0.6: Attachment: [0][0][0][0] / 0x0000
2012-07-21 16:05:38 SegmentedEncoder: Metadata:
2012-07-21 16:05:38 SegmentedEncoder: filename : AvenirLTStd-Medium.otf
2012-07-21 16:05:38 SegmentedEncoder: mimetype : application/x-truetype-font
2012-07-21 16:05:38 SegmentedEncoder: Stream #0.7: Attachment: [0][0][0][0] / 0x0000
2012-07-21 16:05:38 SegmentedEncoder: Metadata:
2012-07-21 16:05:38 SegmentedEncoder: filename : BBC TV Channel Logos.ttf
2012-07-21 16:05:38 SegmentedEncoder: mimetype : application/x-truetype-font
2012-07-21 16:05:38 SegmentedEncoder: Stream #0.8: Attachment: [0][0][0][0] / 0x0000
2012-07-21 16:05:38 SegmentedEncoder: Metadata:
2012-07-21 16:05:38 SegmentedEncoder: filename : Brady Bunch.ttf
2012-07-21 16:05:38 SegmentedEncoder: mimetype : application/x-truetype-font
2012-07-21 16:05:38 SegmentedEncoder: Stream #0.9: Attachment: [0][0][0][0] / 0x0000
2012-07-21 16:05:38 SegmentedEncoder: Metadata:
2012-07-21 16:05:38 SegmentedEncoder: filename : bubblegun.ttf
2012-07-21 16:05:38 SegmentedEncoder: mimetype : application/x-truetype-font
2012-07-21 16:05:38 SegmentedEncoder: Stream #0.10: Attachment: [0][0][0][0] / 0x0000
2012-07-21 16:05:38 SegmentedEncoder: Metadata:
2012-07-21 16:05:38 SegmentedEncoder: filename : CAC MOOSE.TTF
2012-07-21 16:05:38 SegmentedEncoder: mimetype : application/x-truetype-font
2012-07-21 16:05:38 SegmentedEncoder: Stream #0.11: Attachment: [0][0][0][0] / 0x0000
2012-07-21 16:05:38 SegmentedEncoder: Metadata:
2012-07-21 16:05:38 SegmentedEncoder: filename : CostaPtf-Italic.otf
2012-07-21 16:05:38 SegmentedEncoder: mimetype : application/x-truetype-font
2012-07-21 16:05:38 SegmentedEncoder: Stream #0.12: Attachment: [0][0][0][0] / 0x0000
2012-07-21 16:05:38 SegmentedEncoder: Metadata:
2012-07-21 16:05:38 SegmentedEncoder: filename : Danton.ttf
2012-07-21 16:05:38 SegmentedEncoder: mimetype : application/x-truetype-font
2012-07-21 16:05:38 SegmentedEncoder: Stream #0.13: Attachment: [0][0][0][0] / 0x0000
2012-07-21 16:05:38 SegmentedEncoder: Metadata:
2012-07-21 16:05:38 SegmentedEncoder: filename : eager.ttf
2012-07-21 16:05:38 SegmentedEncoder: mimetype : application/x-truetype-font
2012-07-21 16:05:38 SegmentedEncoder: Stream #0.14: Attachment: [0][0][0][0] / 0x0000
2012-07-21 16:05:38 SegmentedEncoder: Metadata:
2012-07-21 16:05:38 SegmentedEncoder: filename : FromWhereYouAre.ttf
2012-07-21 16:05:38 SegmentedEncoder: mimetype : application/x-truetype-font
2012-07-21 16:05:38 SegmentedEncoder: Stream #0.15: Attachment: [0][0][0][0] / 0x0000
2012-07-21 16:05:38 SegmentedEncoder: Metadata:
2012-07-21 16:05:38 SegmentedEncoder: filename : GIL_____.TTF
2012-07-21 16:05:38 SegmentedEncoder: mimetype : application/x-truetype-font
2012-07-21 16:05:38 SegmentedEncoder: Stream #0.16: Attachment: [0][0][0][0] / 0x0000
2012-07-21 16:05:38 SegmentedEncoder: Metadata:
2012-07-21 16:05:38 SegmentedEncoder: filename : GOODDP.TTF
2012-07-21 16:05:38 SegmentedEncoder: mimetype : application/x-truetype-font
2012-07-21 16:05:38 SegmentedEncoder: Stream #0.17: Attachment: [0][0][0][0] / 0x0000
2012-07-21 16:05:38 SegmentedEncoder: Metadata:
2012-07-21 16:05:38 SegmentedEncoder: filename : GOTHIC.TTF
2012-07-21 16:05:38 SegmentedEncoder: mimetype : application/x-truetype-font
2012-07-21 16:05:38 SegmentedEncoder: Stream #0.18: Attachment: [0][0][0][0] / 0x0000
2012-07-21 16:05:38 SegmentedEncoder: Metadata:
2012-07-21 16:05:38 SegmentedEncoder: filename : Humana_Sans_Md_ITC_TT_Medium.ttf
2012-07-21 16:05:38 SegmentedEncoder: mimetype : application/x-truetype-font
2012-07-21 16:05:38 SegmentedEncoder: Stream #0.19: Attachment: [0][0][0][0] / 0x0000
2012-07-21 16:05:38 SegmentedEncoder: Metadata:
2012-07-21 16:05:38 SegmentedEncoder: filename : Humana_Sans_Md_ITC_TT_MediumIta.ttf
2012-07-21 16:05:38 SegmentedEncoder: mimetype : application/x-truetype-font
2012-07-21 16:05:38 SegmentedEncoder: Stream #0.20: Attachment: [0][0][0][0] / 0x0000
2012-07-21 16:05:38 SegmentedEncoder: Metadata:
2012-07-21 16:05:38 SegmentedEncoder: filename : ITCAvantGardeStd-BkCn.otf
2012-07-21 16:05:38 SegmentedEncoder: mimetype : application/x-truetype-font
2012-07-21 16:05:38 SegmentedEncoder: Stream #0.21: Attachment: [0][0][0][0] / 0x0000
2012-07-21 16:05:38 SegmentedEncoder: Metadata:
2012-07-21 16:05:38 SegmentedEncoder: filename : JOSSCHRI.TTF
2012-07-21 16:05:38 SegmentedEncoder: mimetype : application/x-truetype-font
2012-07-21 16:05:38 SegmentedEncoder: Stream #0.22: Attachment: [0][0][0][0] / 0x0000
2012-07-21 16:05:38 SegmentedEncoder: Metadata:
2012-07-21 16:05:38 SegmentedEncoder: filename : Kautiva Type-K.ttf
2012-07-21 16:05:38 SegmentedEncoder: mimetype : application/x-truetype-font
2012-07-21 16:05:38 SegmentedEncoder: Stream #0.23: Attachment: [0][0][0][0] / 0x0000
2012-07-21 16:05:38 SegmentedEncoder: Metadata:
2012-07-21 16:05:38 SegmentedEncoder: filename : Mechanic_Pencil.ttf
2012-07-21 16:05:38 SegmentedEncoder: mimetype : application/x-truetype-font
2012-07-21 16:05:39 SegmentedEncoder:
I still am experiencing inappropriate display of subtitles in some mkv's when I've disabled them in the server. The only way to turn them off is to manually do it in the client for each video.

2011-03-07 21:27:10 MkvSubtitles: Loaded MKV file; Listing tracks:
2011-03-07 21:27:10 MkvSubtitles: Track 1 #AnCo@irc.rizon.net http://www.animecouncil.net/; type: 1; codec: V_MPEG4/ISO/AVC; lang: jpn
2011-03-07 21:27:10 MkvSubtitles: Track 2 Japanese Vorbis 2.0; type: 2; codec: A_VORBIS; lang: jpn
2011-03-07 21:27:10 MkvSubtitles: Track 3 Styled Subtitles; type: 17; codec: S_TEXT/ASS; lang: null
2011-03-07 21:27:10 MkvSubtitles: Selected track number: 3
Another bug to report. Even though I've specified "disable embedded subtitles if no language matches," and I've not specified any preferred languages, my mkv videos still display subtitles. The only way to disable them is to do it manually for each video from the client.
I am having trouble playing one of my .mkv videos. Most of them work fine, but for these, it starts loading the file, and I can hear my computer whirring up, but after a few seconds it just closes the video. Here is the log:
2011-02-28 21:41:43 LiveConversion: >>
395821474B69747C697A763B5D72777E683B3363232D32475A72694D727F7E74487E696D7E69477D7D766B7E7C357E637E393B3636687E7C767E756F
36777E757C6F733B2F3B3636687E7C767E756F36747D7D687E6F3B2B3B36367874756D7E696872747536727F3B7A787D2A2F297A2A362E2F7D23362F
2E2D29367A2D2D22367E232A7D297E2F2D2D297D232C23287A222C7E78367E2A2F2E362F2B2B7A36227D7E78367F2E2A2D7A7F2829292C7D2F3B3636
6B74696F36756E76797E693B2F2D2D282A3B366F73697E7A7F683B2F3B367D777A7C68293B307D7A686F3B367D777A7C683B307774746B3B367C3B28
2B3B36707E6272756F447672753B2A3B36797D3B2B3B367944686F697A6F7E7C623B2B3B367D777A7C68293B366C6B697E7F367F786F2363233B3678
766B3B3078736974767A3B367F7E79777478707A776B737A3B2B3B367F7E7977747870797E6F7A3B2B3B36697E7D683B2A3B3678747F7E693B2B3B36
767E44697A757C7E3B2A2D3B36686E796A3B2E3B366B7A696F726F727475683B306B7A696F722F632F306B7A696F72236323306B7A696F6B2363233B
366F697E777772683B2B3B366878446F73697E687374777F3B2F2B3B3672446A7D7A786F74693B2B352C2A3B366A7874766B3B2B352D3B36767A6B3B
2B352B212B352B3B36767A6B3B2B352A212B352A3B3668683B2B352B3B36723B39582147474E687E69684747487E7A753B58737E7547475F746C7577
747A7F6847475A69727A3B6F737E3B5A7572767A6F7274753B332C2B2F632F232B3B73292D2F3247477A69727A446F737E447A7572767A6F72747544
2B2A4073292D2F356D746979726846407572726170463576706D393B366D7D3B397869746B262C2B2F212E2923212B212B373B68787A777E262C2B2F
212E2923373B687E6F687A69262C2B2F212E2923393B36623B367D3B766B7E7C6F683B366D78747F7E783B77727963292D2F3B36796E7D6872617E3B
2A2B292F703B36793B292A292E703B36796F3B29292E2B703B366A767A633B2F233B366A7672753B293B36693B292E352B3B367A78747F7E783B7772
79766B28777A767E3B367A793B292E2D703B367A693B2F232B2B2B3B367A783B293B36
<<

2011-02-28 21:41:44 SegmentedEncoder: FFmpeg version UNKNOWN, Copyright (c) 2000-2011 the FFmpeg developers
2011-02-28 21:41:44 SegmentedEncoder: built on Feb 24 2011 05:27:50 with gcc 4.4.0
2011-02-28 21:41:44 SegmentedEncoder: configuration: --enable-memalign-hack --prefix=/mingw --target-os=mingw32 --arch=i686 --cpu=i686 --enable-gpl --enable-libx264 --enable-static --disable-shared --enable-pthreads --enable-libmp3lame
2011-02-28 21:41:44 SegmentedEncoder: libavutil 50.36. 0 / 50.36. 0
2011-02-28 21:41:44 SegmentedEncoder: libavcore 0.16. 1 / 0.16. 1
2011-02-28 21:41:44 SegmentedEncoder: libavcodec 52.108. 0 / 52.108. 0
2011-02-28 21:41:44 SegmentedEncoder: libavformat 52.93. 0 / 52.93. 0
2011-02-28 21:41:44 SegmentedEncoder: libavdevice 52. 2. 3 / 52. 2. 3
2011-02-28 21:41:44 SegmentedEncoder: libavfilter 1.74. 0 / 1.74. 0
2011-02-28 21:41:44 SegmentedEncoder: libswscale 0.12. 0 / 0.12. 0
2011-02-28 21:41:44 SegmentedEncoder: [matroska,webm @ 0x1239fe0] max_analyze_duration reached
2011-02-28 21:41:44 SegmentedEncoder: [matroska,webm @ 0x1239fe0] Estimating duration from bitrate, this may be inaccurate
2011-02-28 21:41:44 SegmentedEncoder:
2011-02-28 21:41:44 SegmentedEncoder: Seems stream 0 codec frame rate differs from container frame rate: 59.94 (2997/50) -> 29.97 (30000/1001)
2011-02-28 21:41:44 SegmentedEncoder: Input #0, matroska,webm, from 'C:\\Users\\Sean Chen\\Downloads\\Aria the Animation (704x480 h264)\\aria_the_animation_01[h264.vorbis][niizk].mkv':
2011-02-28 21:41:44 SegmentedEncoder: Duration: 00:24:23.33, start: 0.000000, bitrate: N/A
2011-02-28 21:41:44 SegmentedEncoder: Stream #0.0: Video: h264, yuv420p, 704x480, PAR 10:11 DAR 4:3, 29.97 fps, 29.97 tbr, 1k tbn, 59.94 tbc
2011-02-28 21:41:44 SegmentedEncoder: Metadata:
2011-02-28 21:41:44 SegmentedEncoder: title : Episode01: That Wonderful Miracle...
2011-02-28 21:41:44 SegmentedEncoder: Stream #0.1(jpn): Audio: vorbis, 48000 Hz, stereo, s16
2011-02-28 21:41:44 SegmentedEncoder: Metadata:
2011-02-28 21:41:44 SegmentedEncoder: title : 2.0 VORBIS
2011-02-28 21:41:44 SegmentedEncoder: Stream #0.2(eng): Subtitle: ass
2011-02-28 21:41:44 SegmentedEncoder: Metadata:
2011-02-28 21:41:44 SegmentedEncoder: title : ass
2011-02-28 21:41:44 SegmentedEncoder: Stream #0.3(eng): Subtitle: [0][0][0][0] / 0x0000
2011-02-28 21:41:44 SegmentedEncoder: Metadata:
2011-02-28 21:41:44 SegmentedEncoder: title : srt
2011-02-28 21:41:44 SegmentedEncoder: Stream #0.4: Attachment: [0][0][0][0] / 0x0000
2011-02-28 21:41:44 SegmentedEncoder: Metadata:
2011-02-28 21:41:44 SegmentedEncoder: filename : SEMPB___.TTF
2011-02-28 21:41:44 SegmentedEncoder: Stream #0.5: Attachment: [0][0][0][0] / 0x0000
2011-02-28 21:41:44 SegmentedEncoder: Metadata:
2011-02-28 21:41:44 SegmentedEncoder: filename : SEMPBI__.TTF
2011-02-28 21:41:44 SegmentedEncoder: Stream #0.6: Attachment: [0][0][0][0] / 0x0000
2011-02-28 21:41:44 SegmentedEncoder: Metadata:
2011-02-28 21:41:44 SegmentedEncoder: filename : SEMPER__.TTF
2011-02-28 21:41:44 SegmentedEncoder: Stream #0.7: Attachment: [0][0][0][0] / 0x0000
2011-02-28 21:41:44 SegmentedEncoder: Metadata:
2011-02-28 21:41:44 SegmentedEncoder: filename : SEMPI___.TTF
2011-02-28 21:41:44 SegmentedEncoder: Stream #0.8: Attachment: [0][0][0][0] / 0x0000
2011-02-28 21:41:44 SegmentedEncoder: Metadata:
2011-02-28 21:41:44 SegmentedEncoder: filename : Chianti Bold It Win95BT.ttf
2011-02-28 21:41:44 SegmentedEncoder: Stream #0.9: Attachment: [0][0][0][0] / 0x0000
2011-02-28 21:41:44 SegmentedEncoder: Metadata:
2011-02-28 21:41:44 SegmentedEncoder: filename : Chianti Bold Win95BT.ttf
2011-02-28 21:41:44 SegmentedEncoder: Stream #0.10: Attachment: [0][0][0][0] / 0x0000
2011-02-28 21:41:44 SegmentedEncoder: Metadata:
2011-02-28 21:41:44 SegmentedEncoder: filename : Chianti Italic Win95BT.ttf
2011-02-28 21:41:44 SegmentedEncoder: Stream #0.11: Attachment: [0][0][0][0] / 0x0000
2011-02-28 21:41:44 SegmentedEncoder: Metadata:
2011-02-28 21:41:44 SegmentedEncoder: filename : JESPER__.TTF
2011-02-28 21:41:44 SegmentedEncoder: Stream #0.12: Attachment: [0][0][0][0] / 0x0000
2011-02-28 21:41:44 SegmentedEncoder: Metadata:
2011-02-28 21:41:44 SegmentedEncoder: filename : LTe52140.ttf
2011-02-28 21:41:44 SegmentedEncoder: [buffer @ 0x35f6440] w:704 h:480 pixfmt:yuv420p
2011-02-28 21:41:44 SegmentedEncoder: [setsar @ 0x35f6540] a:4/3
2011-02-28 21:41:44 SegmentedEncoder: [crop @ 0x35f64c0] w:704 h:480 -> w:704 h:528
2011-02-28 21:41:44 SegmentedEncoder: [crop @ 0x35f64c0] Invalid too big or non positive size for width '704' or height '528'
2011-02-28 21:41:44 SegmentedEncoder: Error opening filters!
2011-02-28 21:41:44 LiveConversion: >>
395821474B69747C697A763B5D72777E683B3363232D32475A72694D727F7E74487E696D7E69477D7D766B7E7C357E637E393B3636687E7C767E756F
36777E757C6F733B2F3B3636687E7C767E756F36747D7D687E6F3B2F3B36367874756D7E696872747536727F3B7A787D2A2F297A2A362E2F7D23362F
2E2D29367A2D2D22367E232A7D297E2F2D2D297D232A782F232C2E232936282D2D7F362F79792C36222A7F7D362C2C782E792829792F2D2D7F3B3636
6B74696F36756E76797E693B2F2D2D282A3B366F73697E7A7F683B2F3B367D777A7C68293B307D7A686F3B367D777A7C683B307774746B3B367C3B28
2B3B36707E6272756F447672753B2A3B36797D3B2B3B367944686F697A6F7E7C623B2B3B367D777A7C68293B366C6B697E7F367F786F2363233B3678
766B3B3078736974767A3B367F7E79777478707A776B737A3B2B3B367F7E7977747870797E6F7A3B2B3B36697E7D683B2A3B3678747F7E693B2B3B36
767E44697A757C7E3B2A2D3B36686E796A3B2E3B366B7A696F726F727475683B306B7A696F722F632F306B7A696F72236323306B7A696F6B2363233B
366F697E777772683B2B3B366878446F73697E687374777F3B2F2B3B3672446A7D7A786F74693B2B352C2A3B366A7874766B3B2B352D3B36767A6B3B
2B352B212B352B3B36767A6B3B2B352A212B352A3B3668683B2F352B3B36723B39582147474E687E69684747487E7A753B58737E7547475F746C7577
747A7F6847475A69727A3B6F737E3B5A7572767A6F7274753B332C2B2F632F232B3B73292D2F3247477A69727A446F737E447A7572767A6F72747544
2B2A4073292D2F356D746979726846407572726170463576706D393B366D7D3B397869746B262C2B2F212E2923212B212B373B68787A777E262C2B2F
212E2923373B687E6F687A69262C2B2F212E2923393B36623B367A686275783B2A3B367D3B766B7E7C6F683B366D78747F7E783B77727963292D2F3B
36796E7D6872617E3B2A2B292F703B36793B292A292E703B36796F3B29292E2B703B366A767A633B2F233B366A7672753B293B36693B292E352B3B36
7A78747F7E783B777279766B28777A767E3B367A793B292E2D703B367A693B2F232B2B2B3B367A783B293B36
<<

2011-02-28 21:41:44 SegmentedEncoder: FFmpeg version UNKNOWN, Copyright (c) 2000-2011 the FFmpeg developers
2011-02-28 21:41:44 SegmentedEncoder: built on Feb 24 2011 05:27:50 with gcc 4.4.0
2011-02-28 21:41:44 SegmentedEncoder: configuration: --enable-memalign-hack --prefix=/mingw --target-os=mingw32 --arch=i686 --cpu=i686 --enable-gpl --enable-libx264 --enable-static --disable-shared --enable-pthreads --enable-libmp3lame
2011-02-28 21:41:44 SegmentedEncoder: libavutil 50.36. 0 / 50.36. 0
2011-02-28 21:41:44 SegmentedEncoder: libavcore 0.16. 1 / 0.16. 1
2011-02-28 21:41:44 SegmentedEncoder: libavcodec 52.108. 0 / 52.108. 0
2011-02-28 21:41:44 SegmentedEncoder: libavformat 52.93. 0 / 52.93. 0
2011-02-28 21:41:44 SegmentedEncoder: libavdevice 52. 2. 3 / 52. 2. 3
2011-02-28 21:41:44 SegmentedEncoder: libavfilter 1.74. 0 / 1.74. 0
2011-02-28 21:41:44 SegmentedEncoder: libswscale 0.12. 0 / 0.12. 0
2011-02-28 21:41:44 SegmentedEncoder: [matroska,webm @ 0x1279e10] max_analyze_duration reached
2011-02-28 21:41:44 SegmentedEncoder: [matroska,webm @ 0x1279e10] Estimating duration from bitrate, this may be inaccurate
2011-02-28 21:41:44 SegmentedEncoder:
2011-02-28 21:41:44 SegmentedEncoder: Seems stream 0 codec frame rate differs from container frame rate: 59.94 (2997/50) -> 29.97 (30000/1001)
2011-02-28 21:41:44 SegmentedEncoder: Input #0, matroska,webm, from 'C:\\Users\\Sean Chen\\Downloads\\Aria the Animation (704x480 h264)\\aria_the_animation_01[h264.vorbis][niizk].mkv':
2011-02-28 21:41:44 SegmentedEncoder: Duration: 00:24:23.33, start: 0.000000, bitrate: N/A
2011-02-28 21:41:44 SegmentedEncoder: Stream #0.0: Video: h264, yuv420p, 704x480, PAR 10:11 DAR 4:3, 29.97 fps, 29.97 tbr, 1k tbn, 59.94 tbc
2011-02-28 21:41:44 SegmentedEncoder: Metadata:
2011-02-28 21:41:44 SegmentedEncoder: title : Episode01: That Wonderful Miracle...
2011-02-28 21:41:44 SegmentedEncoder: Stream #0.1(jpn): Audio: vorbis, 48000 Hz, stereo, s16
2011-02-28 21:41:44 SegmentedEncoder: Metadata:
2011-02-28 21:41:44 SegmentedEncoder: title : 2.0 VORBIS
2011-02-28 21:41:44 SegmentedEncoder: Stream #0.2(eng): Subtitle: ass
2011-02-28 21:41:44 SegmentedEncoder: Metadata:
2011-02-28 21:41:44 SegmentedEncoder: title : ass
2011-02-28 21:41:44 SegmentedEncoder: Stream #0.3(eng): Subtitle: [0][0][0][0] / 0x0000
2011-02-28 21:41:44 SegmentedEncoder: Metadata:
2011-02-28 21:41:44 SegmentedEncoder: title : srt
2011-02-28 21:41:44 SegmentedEncoder: Stream #0.4: Attachment: [0][0][0][0] / 0x0000
2011-02-28 21:41:44 SegmentedEncoder: Metadata:
2011-02-28 21:41:44 SegmentedEncoder: filename : SEMPB___.TTF
2011-02-28 21:41:44 SegmentedEncoder: Stream #0.5: Attachment: [0][0][0][0] / 0x0000
2011-02-28 21:41:44 SegmentedEncoder: Metadata:
2011-02-28 21:41:44 SegmentedEncoder: filename : SEMPBI__.TTF
2011-02-28 21:41:44 SegmentedEncoder: Stream #0.6: Attachment: [0][0][0][0] / 0x0000
2011-02-28 21:41:44 SegmentedEncoder: Metadata:
2011-02-28 21:41:44 SegmentedEncoder: filename : SEMPER__.TTF
2011-02-28 21:41:44 SegmentedEncoder: Stream #0.7: Attachment: [0][0][0][0] / 0x0000
2011-02-28 21:41:44 SegmentedEncoder: Metadata:
2011-02-28 21:41:44 SegmentedEncoder: filename : SEMPI___.TTF
2011-02-28 21:41:44 SegmentedEncoder: Stream #0.8: Attachment: [0][0][0][0] / 0x0000
2011-02-28 21:41:44 SegmentedEncoder: Metadata:
2011-02-28 21:41:44 SegmentedEncoder: filename : Chianti Bold It Win95BT.ttf
2011-02-28 21:41:44 SegmentedEncoder: Stream #0.9: Attachment: [0][0][0][0] / 0x0000
2011-02-28 21:41:44 SegmentedEncoder: Metadata:
2011-02-28 21:41:44 SegmentedEncoder: filename : Chianti Bold Win95BT.ttf
2011-02-28 21:41:44 SegmentedEncoder: Stream #0.10: Attachment: [0][0][0][0] / 0x0000
2011-02-28 21:41:44 SegmentedEncoder: Metadata:
2011-02-28 21:41:44 SegmentedEncoder: filename : Chianti Italic Win95BT.ttf
2011-02-28 21:41:44 SegmentedEncoder: Stream #0.11: Attachment: [0][0][0][0] / 0x0000
2011-02-28 21:41:44 SegmentedEncoder: Metadata:
2011-02-28 21:41:44 SegmentedEncoder: filename : JESPER__.TTF
2011-02-28 21:41:44 SegmentedEncoder: Stream #0.12: Attachment: [0][0][0][0] / 0x0000
2011-02-28 21:41:44 SegmentedEncoder: Metadata:
2011-02-28 21:41:44 SegmentedEncoder: filename : LTe52140.ttf
2011-02-28 21:41:44 SegmentedEncoder: [buffer @ 0x33978d0] w:704 h:480 pixfmt:yuv420p
2011-02-28 21:41:44 SegmentedEncoder: [setsar @ 0x33979d0] a:4/3
2011-02-28 21:41:44 SegmentedEncoder: [crop @ 0x3397950] w:704 h:480 -> w:704 h:528
2011-02-28 21:41:44 SegmentedEncoder: [crop @ 0x3397950] Invalid too big or non positive size for width '704' or height '528'
2011-02-28 21:41:44 SegmentedEncoder: Error opening filters!
2011-02-28 21:41:44 LiveConversion: >>
395821474B69747C697A763B5D72777E683B3363232D32475A72694D727F7E74487E696D7E69477D7D766B7E7C357E637E393B3636687E7C767E756F
36777E757C6F733B2F3B3636687E7C767E756F36747D7D687E6F3B233B36367874756D7E696872747536727F3B7A787D2A2F297A2A362E2F7D23362F
2E2D29367A2D2D22367E232A7D297E2F2D2D297D232F7F2E782A7A2C2F362E7E237A362F7F2B7F362329237E3623237A797A7A782C7A792F783B3636
6B74696F36756E76797E693B2F2D2D282A3B366F73697E7A7F683B2F3B367D777A7C68293B307D7A686F3B367D777A7C683B307774746B3B367C3B28
2B3B36707E6272756F447672753B2A3B36797D3B2B3B367944686F697A6F7E7C623B2B3B367D777A7C68293B366C6B697E7F367F786F2363233B3678
766B3B3078736974767A3B367F7E79777478707A776B737A3B2B3B367F7E7977747870797E6F7A3B2B3B36697E7D683B2A3B3678747F7E693B2B3B36
767E44697A757C7E3B2A2D3B36686E796A3B2E3B366B7A696F726F727475683B306B7A696F722F632F306B7A696F72236323306B7A696F6B2363233B
366F697E777772683B2B3B366878446F73697E687374777F3B2F2B3B3672446A7D7A786F74693B2B352C2A3B366A7874766B3B2B352D3B36767A6B3B
2B352B212B352B3B36767A6B3B2B352A212B352A3B3668683B23352B3B36723B39582147474E687E69684747487E7A753B58737E7547475F746C7577
747A7F6847475A69727A3B6F737E3B5A7572767A6F7274753B332C2B2F632F232B3B73292D2F3247477A69727A446F737E447A7572767A6F72747544
2B2A4073292D2F356D746979726846407572726170463576706D393B366D7D3B397869746B262C2B2F212E2923212B212B373B68787A777E262C2B2F
212E2923373B687E6F687A69262C2B2F212E2923393B36623B367A686275783B2A3B367D3B766B7E7C6F683B366D78747F7E783B77727963292D2F3B
36796E7D6872617E3B2A2B292F703B36793B292A292E703B36796F3B29292E2B703B366A767A633B2F233B366A7672753B293B36693B292E352B3B36
7A78747F7E783B777279766B28777A767E3B367A793B292E2D703B367A693B2F232B2B2B3B367A783B293B36
<<

2011-02-28 21:41:44 SegmentedEncoder: FFmpeg version UNKNOWN, Copyright (c) 2000-2011 the FFmpeg developers
2011-02-28 21:41:44 SegmentedEncoder: built on Feb 24 2011 05:27:50 with gcc 4.4.0
2011-02-28 21:41:44 SegmentedEncoder: configuration: --enable-memalign-hack --prefix=/mingw --target-os=mingw32 --arch=i686 --cpu=i686 --enable-gpl --enable-libx264 --enable-static --disable-shared --enable-pthreads --enable-libmp3lame
2011-02-28 21:41:44 SegmentedEncoder: libavutil 50.36. 0 / 50.36. 0
2011-02-28 21:41:44 SegmentedEncoder: libavcore 0.16. 1 / 0.16. 1
2011-02-28 21:41:44 SegmentedEncoder: libavcodec 52.108. 0 / 52.108. 0
2011-02-28 21:41:44 SegmentedEncoder: libavformat 52.93. 0 / 52.93. 0
2011-02-28 21:41:44 SegmentedEncoder: libavdevice 52. 2. 3 / 52. 2. 3
2011-02-28 21:41:44 SegmentedEncoder: libavfilter 1.74. 0 / 1.74. 0
2011-02-28 21:41:44 SegmentedEncoder: libswscale 0.12. 0 / 0.12. 0
2011-02-28 21:41:44 SegmentedEncoder: [matroska,webm @ 0x3d9e10] max_analyze_duration reached
2011-02-28 21:41:44 SegmentedEncoder: [matroska,webm @ 0x3d9e10] Estimating duration from bitrate, this may be inaccurate
2011-02-28 21:41:44 SegmentedEncoder:
2011-02-28 21:41:44 SegmentedEncoder: Seems stream 0 codec frame rate differs from container frame rate: 59.94 (2997/50) -> 29.97 (30000/1001)
2011-02-28 21:41:44 SegmentedEncoder: Input #0, matroska,webm, from 'C:\\Users\\Sean Chen\\Downloads\\Aria the Animation (704x480 h264)\\aria_the_animation_01[h264.vorbis][niizk].mkv':
2011-02-28 21:41:44 SegmentedEncoder: Duration: 00:24:23.33, start: 0.000000, bitrate: N/A
2011-02-28 21:41:44 SegmentedEncoder: Stream #0.0: Video: h264, yuv420p, 704x480, PAR 10:11 DAR 4:3, 29.97 fps, 29.97 tbr, 1k tbn, 59.94 tbc
2011-02-28 21:41:44 SegmentedEncoder: Metadata:
2011-02-28 21:41:44 SegmentedEncoder: title : Episode01: That Wonderful Miracle...
2011-02-28 21:41:44 SegmentedEncoder: Stream #0.1(jpn): Audio: vorbis, 48000 Hz, stereo, s16
2011-02-28 21:41:44 SegmentedEncoder: Metadata:
2011-02-28 21:41:44 SegmentedEncoder: title : 2.0 VORBIS
2011-02-28 21:41:44 SegmentedEncoder: Stream #0.2(eng): Subtitle: ass
2011-02-28 21:41:44 SegmentedEncoder: Metadata:
2011-02-28 21:41:44 SegmentedEncoder: title : ass
2011-02-28 21:41:44 SegmentedEncoder: Stream #0.3(eng): Subtitle: [0][0][0][0] / 0x0000
2011-02-28 21:41:44 SegmentedEncoder: Metadata:
2011-02-28 21:41:44 SegmentedEncoder: title : srt
2011-02-28 21:41:44 SegmentedEncoder: Stream #0.4: Attachment: [0][0][0][0] / 0x0000
2011-02-28 21:41:44 SegmentedEncoder: Metadata:
2011-02-28 21:41:44 SegmentedEncoder: filename : SEMPB___.TTF
2011-02-28 21:41:44 SegmentedEncoder: Stream #0.5: Attachment: [0][0][0][0] / 0x0000
2011-02-28 21:41:44 SegmentedEncoder: Metadata:
2011-02-28 21:41:44 SegmentedEncoder: filename : SEMPBI__.TTF
2011-02-28 21:41:44 SegmentedEncoder: Stream #0.6: Attachment: [0][0][0][0] / 0x0000
2011-02-28 21:41:44 SegmentedEncoder: Metadata:
2011-02-28 21:41:44 SegmentedEncoder: filename : SEMPER__.TTF
2011-02-28 21:41:44 SegmentedEncoder: Stream #0.7: Attachment: [0][0][0][0] / 0x0000
2011-02-28 21:41:44 SegmentedEncoder: Metadata:
2011-02-28 21:41:44 SegmentedEncoder: filename : SEMPI___.TTF
2011-02-28 21:41:44 SegmentedEncoder: Stream #0.8: Attachment: [0][0][0][0] / 0x0000
2011-02-28 21:41:44 SegmentedEncoder: Metadata:
2011-02-28 21:41:44 SegmentedEncoder: filename : Chianti Bold It Win95BT.ttf
2011-02-28 21:41:44 SegmentedEncoder: Stream #0.9: Attachment: [0][0][0][0] / 0x0000
2011-02-28 21:41:44 SegmentedEncoder: Metadata:
2011-02-28 21:41:44 SegmentedEncoder: filename : Chianti Bold Win95BT.ttf
2011-02-28 21:41:44 SegmentedEncoder: Stream #0.10: Attachment: [0][0][0][0] / 0x0000
2011-02-28 21:41:44 SegmentedEncoder: Metadata:
2011-02-28 21:41:44 SegmentedEncoder: filename : Chianti Italic Win95BT.ttf
2011-02-28 21:41:44 SegmentedEncoder: Stream #0.11: Attachment: [0][0][0][0] / 0x0000
2011-02-28 21:41:44 SegmentedEncoder: Metadata:
2011-02-28 21:41:44 SegmentedEncoder: filename : JESPER__.TTF
2011-02-28 21:41:44 SegmentedEncoder: Stream #0.12: Attachment: [0][0][0][0] / 0x0000
2011-02-28 21:41:44 SegmentedEncoder: Metadata:
2011-02-28 21:41:44 SegmentedEncoder: filename : LTe52140.ttf
2011-02-28 21:41:44 SegmentedEncoder: [buffer @ 0x33778d0] w:704 h:480 pixfmt:yuv420p
2011-02-28 21:41:44 SegmentedEncoder: [setsar @ 0x33779d0] a:4/3
2011-02-28 21:41:44 SegmentedEncoder: [crop @ 0x3377950] w:704 h:480 -> w:704 h:528
2011-02-28 21:41:44 SegmentedEncoder: [crop @ 0x3377950] Invalid too big or non positive size for width '704' or height '528'
2011-02-28 21:41:44 SegmentedEncoder: Error opening filters!
2011-02-28 21:41:44 LiveConversion: >>
395821474B69747C697A763B5D72777E683B3363232D32475A72694D727F7E74487E696D7E69477D7D766B7E7C357E637E393B3636687E7C767E756F
36777E757C6F733B2F3B3636687E7C767E756F36747D7D687E6F3B2A293B36367874756D7E696872747536727F3B7A787D2A2F297A2A362E2F7D2336
2F2E2D29367A2D2D22367E232A7D297E2F2D2D297D232A282D7D7A2C2B2A367A2C2C2D362F2E2A28367922237F36292A7A227879222F2D7D227F3B36
366B74696F36756E76797E693B2F2D2D282A3B366F73697E7A7F683B2F3B367D777A7C68293B307D7A686F3B367D777A7C683B307774746B3B367C3B
282B3B36707E6272756F447672753B2A3B36797D3B2B3B367944686F697A6F7E7C623B2B3B367D777A7C68293B366C6B697E7F367F786F2363233B36
78766B3B3078736974767A3B367F7E79777478707A776B737A3B2B3B367F7E7977747870797E6F7A3B2B3B36697E7D683B2A3B3678747F7E693B2B3B
36767E44697A757C7E3B2A2D3B36686E796A3B2E3B366B7A696F726F727475683B306B7A696F722F632F306B7A696F72236323306B7A696F6B236323
3B366F697E777772683B2B3B366878446F73697E687374777F3B2F2B3B3672446A7D7A786F74693B2B352C2A3B366A7874766B3B2B352D3B36767A6B
3B2B352B212B352B3B36767A6B3B2B352A212B352A3B3668683B2A29352B3B36723B39582147474E687E69684747487E7A753B58737E7547475F746C
7577747A7F6847475A69727A3B6F737E3B5A7572767A6F7274753B332C2B2F632F232B3B73292D2F3247477A69727A446F737E447A7572767A6F7274
75442B2A4073292D2F356D746979726846407572726170463576706D393B366D7D3B397869746B262C2B2F212E2923212B212B373B68787A777E262C
2B2F212E2923373B687E6F687A69262C2B2F212E2923393B36623B367A686275783B2A3B367D3B766B7E7C6F683B366D78747F7E783B77727963292D
2F3B36796E7D6872617E3B2A2B292F703B36793B292A292E703B36796F3B29292E2B703B366A767A633B2F233B366A7672753B293B36693B292E352B
3B367A78747F7E783B777279766B28777A767E3B367A793B292E2D703B367A693B2F232B2B2B3B367A783B293B36
<<

2011-02-28 21:41:44 SegmentedEncoder: FFmpeg version UNKNOWN, Copyright (c) 2000-2011 the FFmpeg developers
2011-02-28 21:41:44 SegmentedEncoder: built on Feb 24 2011 05:27:50 with gcc 4.4.0
2011-02-28 21:41:44 SegmentedEncoder: configuration: --enable-memalign-hack --prefix=/mingw --target-os=mingw32 --arch=i686 --cpu=i686 --enable-gpl --enable-libx264 --enable-static --disable-shared --enable-pthreads --enable-libmp3lame
2011-02-28 21:41:44 SegmentedEncoder: libavutil 50.36. 0 / 50.36. 0
2011-02-28 21:41:44 SegmentedEncoder: libavcore 0.16. 1 / 0.16. 1
2011-02-28 21:41:44 SegmentedEncoder: libavcodec 52.108. 0 / 52.108. 0
2011-02-28 21:41:44 SegmentedEncoder: libavformat 52.93. 0 / 52.93. 0
2011-02-28 21:41:44 SegmentedEncoder: libavdevice 52. 2. 3 / 52. 2. 3
2011-02-28 21:41:44 SegmentedEncoder: libavfilter 1.74. 0 / 1.74. 0
2011-02-28 21:41:44 SegmentedEncoder: libswscale 0.12. 0 / 0.12. 0
2011-02-28 21:41:44 SegmentedEncoder: [matroska,webm @ 0x13f9610] max_analyze_duration reached
2011-02-28 21:41:44 SegmentedEncoder: [matroska,webm @ 0x13f9610] Estimating duration from bitrate, this may be inaccurate
2011-02-28 21:41:44 SegmentedEncoder:
2011-02-28 21:41:44 SegmentedEncoder: Seems stream 0 codec frame rate differs from container frame rate: 59.94 (2997/50) -> 29.97 (30000/1001)
2011-02-28 21:41:44 SegmentedEncoder: Input #0, matroska,webm, from 'C:\\Users\\Sean Chen\\Downloads\\Aria the Animation (704x480 h264)\\aria_the_animation_01[h264.vorbis][niizk].mkv':
2011-02-28 21:41:44 SegmentedEncoder: Duration: 00:24:23.33, start: 0.000000, bitrate: N/A
2011-02-28 21:41:44 SegmentedEncoder: Stream #0.0: Video: h264, yuv420p, 704x480, PAR 10:11 DAR 4:3, 29.97 fps, 29.97 tbr, 1k tbn, 59.94 tbc
2011-02-28 21:41:44 SegmentedEncoder: Metadata:
2011-02-28 21:41:44 SegmentedEncoder: title : Episode01: That Wonderful Miracle...
2011-02-28 21:41:44 SegmentedEncoder: Stream #0.1(jpn): Audio: vorbis, 48000 Hz, stereo, s16
2011-02-28 21:41:44 SegmentedEncoder: Metadata:
2011-02-28 21:41:44 SegmentedEncoder: title : 2.0 VORBIS
2011-02-28 21:41:44 SegmentedEncoder: Stream #0.2(eng): Subtitle: ass
2011-02-28 21:41:44 SegmentedEncoder: Metadata:
2011-02-28 21:41:44 SegmentedEncoder: title : ass
2011-02-28 21:41:44 SegmentedEncoder: Stream #0.3(eng): Subtitle: [0][0][0][0] / 0x0000
2011-02-28 21:41:44 SegmentedEncoder: Metadata:
2011-02-28 21:41:44 SegmentedEncoder: title : srt
2011-02-28 21:41:44 SegmentedEncoder: Stream #0.4: Attachment: [0][0][0][0] / 0x0000
2011-02-28 21:41:44 SegmentedEncoder: Metadata:
2011-02-28 21:41:44 SegmentedEncoder: filename : SEMPB___.TTF
2011-02-28 21:41:44 SegmentedEncoder: Stream #0.5: Attachment: [0][0][0][0] / 0x0000
2011-02-28 21:41:44 SegmentedEncoder: Metadata:
2011-02-28 21:41:44 SegmentedEncoder: filename : SEMPBI__.TTF
2011-02-28 21:41:44 SegmentedEncoder: Stream #0.6: Attachment: [0][0][0][0] / 0x0000
2011-02-28 21:41:44 SegmentedEncoder: Metadata:
2011-02-28 21:41:44 SegmentedEncoder: filename : SEMPER__.TTF
2011-02-28 21:41:44 SegmentedEncoder: Stream #0.7: Attachment: [0][0][0][0] / 0x0000
2011-02-28 21:41:44 SegmentedEncoder: Metadata:
2011-02-28 21:41:44 SegmentedEncoder: filename : SEMPI___.TTF
2011-02-28 21:41:44 SegmentedEncoder: Stream #0.8: Attachment: [0][0][0][0] / 0x0000
2011-02-28 21:41:44 SegmentedEncoder: Metadata:
2011-02-28 21:41:44 SegmentedEncoder: filename : Chianti Bold It Win95BT.ttf
2011-02-28 21:41:44 SegmentedEncoder: Stream #0.9: Attachment: [0][0][0][0] / 0x0000
2011-02-28 21:41:44 SegmentedEncoder: Metadata:
2011-02-28 21:41:44 SegmentedEncoder: filename : Chianti Bold Win95BT.ttf
2011-02-28 21:41:44 SegmentedEncoder: Stream #0.10: Attachment: [0][0][0][0] / 0x0000
2011-02-28 21:41:44 SegmentedEncoder: Metadata:
2011-02-28 21:41:44 SegmentedEncoder: filename : Chianti Italic Win95BT.ttf
2011-02-28 21:41:44 SegmentedEncoder: Stream #0.11: Attachment: [0][0][0][0] / 0x0000
2011-02-28 21:41:44 SegmentedEncoder: Metadata:
2011-02-28 21:41:44 SegmentedEncoder: filename : JESPER__.TTF
2011-02-28 21:41:44 SegmentedEncoder: Stream #0.12: Attachment: [0][0][0][0] / 0x0000
2011-02-28 21:41:44 SegmentedEncoder: Metadata:
2011-02-28 21:41:44 SegmentedEncoder: filename : LTe52140.ttf
2011-02-28 21:41:44 SegmentedEncoder: [buffer @ 0x32279f0] w:704 h:480 pixfmt:yuv420p
2011-02-28 21:41:44 SegmentedEncoder: [setsar @ 0x3227af0] a:4/3
2011-02-28 21:41:44 SegmentedEncoder: [crop @ 0x3227a70] w:704 h:480 -> w:704 h:528
2011-02-28 21:41:44 SegmentedEncoder: [crop @ 0x3227a70] Invalid too big or non positive size for width '704' or height '528'
2011-02-28 21:41:44 SegmentedEncoder: Error opening filters!
2011-02-28 21:41:44 LiveConversion: >>
395821474B69747C697A763B5D72777E683B3363232D32475A72694D727F7E74487E696D7E69477D7D766B7E7C357E637E393B3636687E7C767E756F
36777E757C6F733B2F3B3636687E7C767E756F36747D7D687E6F3B2A2D3B36367874756D7E696872747536727F3B7A787D2A2F297A2A362E2F7D2336
2F2E2D29367A2D2D22367E232A7D297E2F2D2D297D23227E7D2E2878787F362E2F7E7A362F7E2F233679282E78367A7F7D2B2A7F2C297D2923283B36
366B74696F36756E76797E693B2F2D2D282A3B366F73697E7A7F683B2F3B367D777A7C68293B307D7A686F3B367D777A7C683B307774746B3B367C3B
282B3B36707E6272756F447672753B2A3B36797D3B2B3B367944686F697A6F7E7C623B2B3B367D777A7C68293B366C6B697E7F367F786F2363233B36
78766B3B3078736974767A3B367F7E79777478707A776B737A3B2B3B367F7E7977747870797E6F7A3B2B3B36697E7D683B2A3B3678747F7E693B2B3B
36767E44697A757C7E3B2A2D3B36686E796A3B2E3B366B7A696F726F727475683B306B7A696F722F632F306B7A696F72236323306B7A696F6B236323
3B366F697E777772683B2B3B366878446F73697E687374777F3B2F2B3B3672446A7D7A786F74693B2B352C2A3B366A7874766B3B2B352D3B36767A6B
3B2B352B212B352B3B36767A6B3B2B352A212B352A3B3668683B2A2D352B3B36723B39582147474E687E69684747487E7A753B58737E7547475F746C
7577747A7F6847475A69727A3B6F737E3B5A7572767A6F7274753B332C2B2F632F232B3B73292D2F3247477A69727A446F737E447A7572767A6F7274
75442B2A4073292D2F356D746979726846407572726170463576706D393B366D7D3B397869746B262C2B2F212E2923212B212B373B68787A777E262C
2B2F212E2923373B687E6F687A69262C2B2F212E2923393B36623B367A686275783B2A3B367D3B766B7E7C6F683B366D78747F7E783B77727963292D
2F3B36796E7D6872617E3B2A2B292F703B36793B292A292E703B36796F3B29292E2B703B366A767A633B2F233B366A7672753B293B36693B292E352B
3B367A78747F7E783B777279766B28777A767E3B367A793B292E2D703B367A693B2F232B2B2B3B367A783B293B36
<<

2011-02-28 21:41:44 SegmentedEncoder: FFmpeg version UNKNOWN, Copyright (c) 2000-2011 the FFmpeg developers
2011-02-28 21:41:44 SegmentedEncoder: built on Feb 24 2011 05:27:50 with gcc 4.4.0
2011-02-28 21:41:44 SegmentedEncoder: configuration: --enable-memalign-hack --prefix=/mingw --target-os=mingw32 --arch=i686 --cpu=i686 --enable-gpl --enable-libx264 --enable-static --disable-shared --enable-pthreads --enable-libmp3lame
2011-02-28 21:41:44 SegmentedEncoder: libavutil 50.36. 0 / 50.36. 0
2011-02-28 21:41:44 SegmentedEncoder: libavcore 0.16. 1 / 0.16. 1
2011-02-28 21:41:44 SegmentedEncoder: libavcodec 52.108. 0 / 52.108. 0
2011-02-28 21:41:44 SegmentedEncoder: libavformat 52.93. 0 / 52.93. 0
2011-02-28 21:41:44 SegmentedEncoder: libavdevice 52. 2. 3 / 52. 2. 3
2011-02-28 21:41:44 SegmentedEncoder: libavfilter 1.74. 0 / 1.74. 0
2011-02-28 21:41:44 SegmentedEncoder: libswscale 0.12. 0 / 0.12. 0
2011-02-28 21:41:44 SegmentedEncoder: [matroska,webm @ 0x3d9610] max_analyze_duration reached
2011-02-28 21:41:44 SegmentedEncoder: [matroska,webm @ 0x3d9610] Estimating duration from bitrate, this may be inaccurate
2011-02-28 21:41:44 SegmentedEncoder:
2011-02-28 21:41:44 SegmentedEncoder: Seems stream 0 codec frame rate differs from container frame rate: 59.94 (2997/50) -> 29.97 (30000/1001)
2011-02-28 21:41:44 SegmentedEncoder: Input #0, matroska,webm, from 'C:\\Users\\Sean Chen\\Downloads\\Aria the Animation (704x480 h264)\\aria_the_animation_01[h264.vorbis][niizk].mkv':
2011-02-28 21:41:44 SegmentedEncoder: Duration: 00:24:23.33, start: 0.000000, bitrate: N/A
2011-02-28 21:41:44 SegmentedEncoder: Stream #0.0: Video: h264, yuv420p, 704x480, PAR 10:11 DAR 4:3, 29.97 fps, 29.97 tbr, 1k tbn, 59.94 tbc
2011-02-28 21:41:44 SegmentedEncoder: Metadata:
2011-02-28 21:41:44 SegmentedEncoder: title : Episode01: That Wonderful Miracle...
2011-02-28 21:41:44 SegmentedEncoder: Stream #0.1(jpn): Audio: vorbis, 48000 Hz, stereo, s16
2011-02-28 21:41:44 SegmentedEncoder: Metadata:
2011-02-28 21:41:44 SegmentedEncoder: title : 2.0 VORBIS
2011-02-28 21:41:44 SegmentedEncoder: Stream #0.2(eng): Subtitle: ass
2011-02-28 21:41:44 SegmentedEncoder: Metadata:
2011-02-28 21:41:44 SegmentedEncoder: title : ass
2011-02-28 21:41:44 SegmentedEncoder: Stream #0.3(eng): Subtitle: [0][0][0][0] / 0x0000
2011-02-28 21:41:44 SegmentedEncoder: Metadata:
2011-02-28 21:41:44 SegmentedEncoder: title : srt
2011-02-28 21:41:44 SegmentedEncoder: Stream #0.4: Attachment: [0][0][0][0] / 0x0000
2011-02-28 21:41:44 SegmentedEncoder: Metadata:
2011-02-28 21:41:44 SegmentedEncoder: filename : SEMPB___.TTF
2011-02-28 21:41:44 SegmentedEncoder: Stream #0.5: Attachment: [0][0][0][0] / 0x0000
2011-02-28 21:41:44 SegmentedEncoder: Metadata:
2011-02-28 21:41:44 SegmentedEncoder: filename : SEMPBI__.TTF
2011-02-28 21:41:44 SegmentedEncoder: Stream #0.6: Attachment: [0][0][0][0] / 0x0000
2011-02-28 21:41:44 SegmentedEncoder: Metadata:
2011-02-28 21:41:44 SegmentedEncoder: filename : SEMPER__.TTF
2011-02-28 21:41:44 SegmentedEncoder: Stream #0.7: Attachment: [0][0][0][0] / 0x0000
2011-02-28 21:41:44 SegmentedEncoder: Metadata:
2011-02-28 21:41:44 SegmentedEncoder: filename : SEMPI___.TTF
2011-02-28 21:41:44 SegmentedEncoder: Stream #0.8: Attachment: [0][0][0][0] / 0x0000
2011-02-28 21:41:44 SegmentedEncoder: Metadata:
2011-02-28 21:41:44 SegmentedEncoder: filename : Chianti Bold It Win95BT.ttf
2011-02-28 21:41:44 SegmentedEncoder: Stream #0.9: Attachment: [0][0][0][0] / 0x0000
2011-02-28 21:41:44 SegmentedEncoder: Metadata:
2011-02-28 21:41:44 SegmentedEncoder: filename : Chianti Bold Win95BT.ttf
2011-02-28 21:41:44 SegmentedEncoder: Stream #0.10: Attachment: [0][0][0][0] / 0x0000
2011-02-28 21:41:44 SegmentedEncoder: Metadata:
2011-02-28 21:41:44 SegmentedEncoder: filename : Chianti Italic Win95BT.ttf
2011-02-28 21:41:44 SegmentedEncoder: Stream #0.11: Attachment: [0][0][0][0] / 0x0000
2011-02-28 21:41:44 SegmentedEncoder: Metadata:
2011-02-28 21:41:44 SegmentedEncoder: filename : JESPER__.TTF
2011-02-28 21:41:44 SegmentedEncoder: Stream #0.12: Attachment: [0][0][0][0] / 0x0000
2011-02-28 21:41:44 SegmentedEncoder: Metadata:
2011-02-28 21:41:44 SegmentedEncoder: filename : LTe52140.ttf
2011-02-28 21:41:44 SegmentedEncoder: [buffer @ 0x35279f0] w:704 h:480 pixfmt:yuv420p
2011-02-28 21:41:44 SegmentedEncoder: [setsar @ 0x3527af0] a:4/3
2011-02-28 21:41:44 SegmentedEncoder: [crop @ 0x3527a70] w:704 h:480 -> w:704 h:528
2011-02-28 21:41:44 SegmentedEncoder: [crop @ 0x3527a70] Invalid too big or non positive size for width '704' or height '528'
2011-02-28 21:41:44 SegmentedEncoder: Error opening filters!
2011-02-28 21:41:44 LiveConversion: >>
395821474B69747C697A763B5D72777E683B3363232D32475A72694D727F7E74487E696D7E69477D7D766B7E7C357E637E393B3636687E7C767E756F
36777E757C6F733B2F3B3636687E7C767E756F36747D7D687E6F3B292B3B36367874756D7E696872747536727F3B7A787D2A2F297A2A362E2F7D2336
2F2E2D29367A2D2D22367E232A7D297E2F2D2D297D23787D792F292D2923367A7F237A362F7D792E3679297922367D2F792C28782B227A2A2F2F3B36
366B74696F36756E76797E693B2F2D2D282A3B366F73697E7A7F683B2F3B367D777A7C68293B307D7A686F3B367D777A7C683B307774746B3B367C3B
282B3B36707E6272756F447672753B2A3B36797D3B2B3B367944686F697A6F7E7C623B2B3B367D777A7C68293B366C6B697E7F367F786F2363233B36
78766B3B3078736974767A3B367F7E79777478707A776B737A3B2B3B367F7E7977747870797E6F7A3B2B3B36697E7D683B2A3B3678747F7E693B2B3B
36767E44697A757C7E3B2A2D3B36686E796A3B2E3B366B7A696F726F727475683B306B7A696F722F632F306B7A696F72236323306B7A696F6B236323
3B366F697E777772683B2B3B366878446F73697E687374777F3B2F2B3B3672446A7D7A786F74693B2B352C2A3B366A7874766B3B2B352D3B36767A6B
3B2B352B212B352B3B36767A6B3B2B352A212B352A3B3668683B292B352B3B36723B39582147474E687E69684747487E7A753B58737E7547475F746C
7577747A7F6847475A69727A3B6F737E3B5A7572767A6F7274753B332C2B2F632F232B3B73292D2F3247477A69727A446F737E447A7572767A6F7274
75442B2A4073292D2F356D746979726846407572726170463576706D393B366D7D3B397869746B262C2B2F212E2923212B212B373B68787A777E262C
2B2F212E2923373B687E6F687A69262C2B2F212E2923393B36623B367A686275783B2A3B367D3B766B7E7C6F683B366D78747F7E783B77727963292D
2F3B36796E7D6872617E3B2A2B292F703B36793B292A292E703B36796F3B29292E2B703B366A767A633B2F233B366A7672753B293B36693B292E352B
3B367A78747F7E783B777279766B28777A767E3B367A793B292E2D703B367A693B2F232B2B2B3B367A783B293B36
<<

2011-02-28 21:41:44 SegmentedEncoder: FFmpeg version UNKNOWN, Copyright (c) 2000-2011 the FFmpeg developers
2011-02-28 21:41:44 SegmentedEncoder: built on Feb 24 2011 05:27:50 with gcc 4.4.0
2011-02-28 21:41:44 SegmentedEncoder: configuration: --enable-memalign-hack --prefix=/mingw --target-os=mingw32 --arch=i686 --cpu=i686 --enable-gpl --enable-libx264 --enable-static --disable-shared --enable-pthreads --enable-libmp3lame
2011-02-28 21:41:44 SegmentedEncoder: libavutil 50.36. 0 / 50.36. 0
2011-02-28 21:41:44 SegmentedEncoder: libavcore 0.16. 1 / 0.16. 1
2011-02-28 21:41:44 SegmentedEncoder: libavcodec 52.108. 0 / 52.108. 0
2011-02-28 21:41:44 SegmentedEncoder: libavformat 52.93. 0 / 52.93. 0
2011-02-28 21:41:44 SegmentedEncoder: libavdevice 52. 2. 3 / 52. 2. 3
2011-02-28 21:41:44 SegmentedEncoder: libavfilter 1.74. 0 / 1.74. 0
2011-02-28 21:41:44 SegmentedEncoder: libswscale 0.12. 0 / 0.12. 0
2011-02-28 21:41:44 SegmentedEncoder: [matroska,webm @ 0x3e9610] max_analyze_duration reached
2011-02-28 21:41:44 SegmentedEncoder: [matroska,webm @ 0x3e9610] Estimating duration from bitrate, this may be inaccurate
2011-02-28 21:41:44 SegmentedEncoder:
2011-02-28 21:41:44 SegmentedEncoder: Seems stream 0 codec frame rate differs from container frame rate: 59.94 (2997/50) -> 29.97 (30000/1001)
2011-02-28 21:41:44 SegmentedEncoder: Input #0, matroska,webm, from 'C:\\Users\\Sean Chen\\Downloads\\Aria the Animation (704x480 h264)\\aria_the_animation_01[h264.vorbis][niizk].mkv':
2011-02-28 21:41:44 SegmentedEncoder: Duration: 00:24:23.33, start: 0.000000, bitrate: N/A
2011-02-28 21:41:44 SegmentedEncoder: Stream #0.0: Video: h264, yuv420p, 704x480, PAR 10:11 DAR 4:3, 29.97 fps, 29.97 tbr, 1k tbn, 59.94 tbc
2011-02-28 21:41:44 SegmentedEncoder: Metadata:
2011-02-28 21:41:44 SegmentedEncoder: title : Episode01: That Wonderful Miracle...
2011-02-28 21:41:44 SegmentedEncoder: Stream #0.1(jpn): Audio: vorbis, 48000 Hz, stereo, s16
2011-02-28 21:41:44 SegmentedEncoder: Metadata:
2011-02-28 21:41:44 SegmentedEncoder: title : 2.0 VORBIS
2011-02-28 21:41:44 SegmentedEncoder: Stream #0.2(eng): Subtitle: ass
2011-02-28 21:41:44 SegmentedEncoder: Metadata:
2011-02-28 21:41:44 SegmentedEncoder: title : ass
2011-02-28 21:41:44 SegmentedEncoder: Stream #0.3(eng): Subtitle: [0][0][0][0] / 0x0000
2011-02-28 21:41:44 SegmentedEncoder: Metadata:
2011-02-28 21:41:44 SegmentedEncoder: title : srt
2011-02-28 21:41:44 SegmentedEncoder: Stream #0.4: Attachment: [0][0][0][0] / 0x0000
2011-02-28 21:41:44 SegmentedEncoder: Metadata:
2011-02-28 21:41:44 SegmentedEncoder: filename : SEMPB___.TTF
2011-02-28 21:41:44 SegmentedEncoder: Stream #0.5: Attachment: [0][0][0][0] / 0x0000
2011-02-28 21:41:44 SegmentedEncoder: Metadata:
2011-02-28 21:41:44 SegmentedEncoder: filename : SEMPBI__.TTF
2011-02-28 21:41:44 SegmentedEncoder: Stream #0.6: Attachment: [0][0][0][0] / 0x0000
2011-02-28 21:41:44 SegmentedEncoder: Metadata:
2011-02-28 21:41:44 SegmentedEncoder: filename : SEMPER__.TTF
2011-02-28 21:41:44 SegmentedEncoder: Stream #0.7: Attachment: [0][0][0][0] / 0x0000
2011-02-28 21:41:44 SegmentedEncoder: Metadata:
2011-02-28 21:41:44 SegmentedEncoder: filename : SEMPI___.TTF
2011-02-28 21:41:44 SegmentedEncoder: Stream #0.8: Attachment: [0][0][0][0] / 0x0000
2011-02-28 21:41:44 SegmentedEncoder: Metadata:
2011-02-28 21:41:44 SegmentedEncoder: filename : Chianti Bold It Win95BT.ttf
2011-02-28 21:41:44 SegmentedEncoder: Stream #0.9: Attachment: [0][0][0][0] / 0x0000
2011-02-28 21:41:44 SegmentedEncoder: Metadata:
2011-02-28 21:41:44 SegmentedEncoder: filename : Chianti Bold Win95BT.ttf
2011-02-28 21:41:44 SegmentedEncoder: Stream #0.10: Attachment: [0][0][0][0] / 0x0000
2011-02-28 21:41:44 SegmentedEncoder: Metadata:
2011-02-28 21:41:44 SegmentedEncoder: filename : Chianti Italic Win95BT.ttf
2011-02-28 21:41:44 SegmentedEncoder: Stream #0.11: Attachment: [0][0][0][0] / 0x0000
2011-02-28 21:41:44 SegmentedEncoder: Metadata:
2011-02-28 21:41:44 SegmentedEncoder: filename : JESPER__.TTF
2011-02-28 21:41:44 SegmentedEncoder: Stream #0.12: Attachment: [0][0][0][0] / 0x0000
2011-02-28 21:41:44 SegmentedEncoder: Metadata:
2011-02-28 21:41:44 SegmentedEncoder: filename : LTe52140.ttf
2011-02-28 21:41:44 SegmentedEncoder: [buffer @ 0x33079f0] w:704 h:480 pixfmt:yuv420p
2011-02-28 21:41:44 SegmentedEncoder: [setsar @ 0x3307af0] a:4/3
2011-02-28 21:41:44 SegmentedEncoder: [crop @ 0x3307a70] w:704 h:480 -> w:704 h:528
2011-02-28 21:41:44 SegmentedEncoder: [crop @ 0x3307a70] Invalid too big or non positive size for width '704' or height '528'
2011-02-28 21:41:44 SegmentedEncoder: Error opening filters!
2011-02-28 21:41:44 LiveConversion: >>
395821474B69747C697A763B5D72777E683B3363232D32475A72694D727F7E74487E696D7E69477D7D766B7E7C357E637E393B3636687E7C767E756F
36777E757C6F733B2F3B3636687E7C767E756F36747D7D687E6F3B292F3B36367874756D7E696872747536727F3B7A787D2A2F297A2A362E2F7D2336
2F2E2D29367A2D2D22367E232A7D297E2F2D2D297D237F28227E7F292D2C36227F2C2C362F7E222F367A782829362B7E2D2C237F2D2C2F2A2A7E3B36
366B74696F36756E76797E693B2F2D2D282A3B366F73697E7A7F683B2F3B367D777A7C68293B307D7A686F3B367D777A7C683B307774746B3B367C3B
282B3B36707E6272756F447672753B2A3B36797D3B2B3B367944686F697A6F7E7C623B2B3B367D777A7C68293B366C6B697E7F367F786F2363233B36
78766B3B3078736974767A3B367F7E79777478707A776B737A3B2B3B367F7E7977747870797E6F7A3B2B3B36697E7D683B2A3B3678747F7E693B2B3B
36767E44697A757C7E3B2A2D3B36686E796A3B2E3B366B7A696F726F727475683B306B7A696F722F632F306B7A696F72236323306B7A696F6B236323
3B366F697E777772683B2B3B366878446F73697E687374777F3B2F2B3B3672446A7D7A786F74693B2B352C2A3B366A7874766B3B2B352D3B36767A6B
3B2B352B212B352B3B36767A6B3B2B352A212B352A3B3668683B292F352B3B36723B39582147474E687E69684747487E7A753B58737E7547475F746C
7577747A7F6847475A69727A3B6F737E3B5A7572767A6F7274753B332C2B2F632F232B3B73292D2F3247477A69727A446F737E447A7572767A6F7274
75442B2A4073292D2F356D746979726846407572726170463576706D393B366D7D3B397869746B262C2B2F212E2923212B212B373B68787A777E262C
2B2F212E2923373B687E6F687A69262C2B2F212E2923393B36623B367A686275783B2A3B367D3B766B7E7C6F683B366D78747F7E783B77727963292D
2F3B36796E7D6872617E3B2A2B292F703B36793B292A292E703B36796F3B29292E2B703B366A767A633B2F233B366A7672753B293B36693B292E352B
3B367A78747F7E783B777279766B28777A767E3B367A793B292E2D703B367A693B2F232B2B2B3B367A783B293B36
<<

2011-02-28 21:41:44 SegmentedEncoder: FFmpeg version UNKNOWN, Copyright (c) 2000-2011 the FFmpeg developers
2011-02-28 21:41:44 SegmentedEncoder: built on Feb 24 2011 05:27:50 with gcc 4.4.0
2011-02-28 21:41:44 SegmentedEncoder: configuration: --enable-memalign-hack --prefix=/mingw --target-os=mingw32 --arch=i686 --cpu=i686 --enable-gpl --enable-libx264 --enable-static --disable-shared --enable-pthreads --enable-libmp3lame
2011-02-28 21:41:44 SegmentedEncoder: libavutil 50.36. 0 / 50.36. 0
2011-02-28 21:41:44 SegmentedEncoder: libavcore 0.16. 1 / 0.16. 1
2011-02-28 21:41:44 SegmentedEncoder: libavcodec 52.108. 0 / 52.108. 0
2011-02-28 21:41:44 SegmentedEncoder: libavformat 52.93. 0 / 52.93. 0
2011-02-28 21:41:44 SegmentedEncoder: libavdevice 52. 2. 3 / 52. 2. 3
2011-02-28 21:41:44 SegmentedEncoder: libavfilter 1.74. 0 / 1.74. 0
2011-02-28 21:41:44 SegmentedEncoder: libswscale 0.12. 0 / 0.12. 0
2011-02-28 21:41:44 SegmentedEncoder: [matroska,webm @ 0x13d9610] max_analyze_duration reached
2011-02-28 21:41:44 SegmentedEncoder: [matroska,webm @ 0x13d9610] Estimating duration from bitrate, this may be inaccurate
2011-02-28 21:41:44 SegmentedEncoder:
2011-02-28 21:41:44 SegmentedEncoder: Seems stream 0 codec frame rate differs from container frame rate: 59.94 (2997/50) -> 29.97 (30000/1001)
2011-02-28 21:41:44 SegmentedEncoder: Input #0, matroska,webm, from 'C:\\Users\\Sean Chen\\Downloads\\Aria the Animation (704x480 h264)\\aria_the_animation_01[h264.vorbis][niizk].mkv':
2011-02-28 21:41:44 SegmentedEncoder: Duration: 00:24:23.33, start: 0.000000, bitrate: N/A
2011-02-28 21:41:44 SegmentedEncoder: Stream #0.0: Video: h264, yuv420p, 704x480, PAR 10:11 DAR 4:3, 29.97 fps, 29.97 tbr, 1k tbn, 59.94 tbc
2011-02-28 21:41:44 SegmentedEncoder: Metadata:
2011-02-28 21:41:44 SegmentedEncoder: title : Episode01: That Wonderful Miracle...
2011-02-28 21:41:44 SegmentedEncoder: Stream #0.1(jpn): Audio: vorbis, 48000 Hz, stereo, s16
2011-02-28 21:41:44 SegmentedEncoder: Metadata:
2011-02-28 21:41:44 SegmentedEncoder: title : 2.0 VORBIS
2011-02-28 21:41:44 SegmentedEncoder: Stream #0.2(eng): Subtitle: ass
2011-02-28 21:41:44 SegmentedEncoder: Metadata:
2011-02-28 21:41:44 SegmentedEncoder: title : ass
2011-02-28 21:41:44 SegmentedEncoder: Stream #0.3(eng): Subtitle: [0][0][0][0] / 0x0000
2011-02-28 21:41:44 SegmentedEncoder: Metadata:
2011-02-28 21:41:44 SegmentedEncoder: title : srt
2011-02-28 21:41:44 SegmentedEncoder: Stream #0.4: Attachment: [0][0][0][0] / 0x0000
2011-02-28 21:41:44 SegmentedEncoder: Metadata:
2011-02-28 21:41:44 SegmentedEncoder: filename : SEMPB___.TTF
2011-02-28 21:41:44 SegmentedEncoder: Stream #0.5: Attachment: [0][0][0][0] / 0x0000
2011-02-28 21:41:44 SegmentedEncoder: Metadata:
2011-02-28 21:41:44 SegmentedEncoder: filename : SEMPBI__.TTF
2011-02-28 21:41:44 SegmentedEncoder: Stream #0.6: Attachment: [0][0][0][0] / 0x0000
2011-02-28 21:41:44 SegmentedEncoder: Metadata:
2011-02-28 21:41:44 SegmentedEncoder: filename : SEMPER__.TTF
2011-02-28 21:41:44 SegmentedEncoder: Stream #0.7: Attachment: [0][0][0][0] / 0x0000
2011-02-28 21:41:44 SegmentedEncoder: Metadata:
2011-02-28 21:41:44 SegmentedEncoder: filename : SEMPI___.TTF
2011-02-28 21:41:44 SegmentedEncoder: Stream #0.8: Attachment: [0][0][0][0] / 0x0000
2011-02-28 21:41:44 SegmentedEncoder: Metadata:
2011-02-28 21:41:44 SegmentedEncoder: filename : Chianti Bold It Win95BT.ttf
2011-02-28 21:41:44 SegmentedEncoder: Stream #0.9: Attachment: [0][0][0][0] / 0x0000
2011-02-28 21:41:44 SegmentedEncoder: Metadata:
2011-02-28 21:41:44 SegmentedEncoder: filename : Chianti Bold Win95BT.ttf
2011-02-28 21:41:44 SegmentedEncoder: Stream #0.10: Attachment: [0][0][0][0] / 0x0000
2011-02-28 21:41:44 SegmentedEncoder: Metadata:
2011-02-28 21:41:44 SegmentedEncoder: filename : Chianti Italic Win95BT.ttf
2011-02-28 21:41:44 SegmentedEncoder: Stream #0.11: Attachment: [0][0][0][0] / 0x0000
2011-02-28 21:41:44 SegmentedEncoder: Metadata:
2011-02-28 21:41:44 SegmentedEncoder: filename : JESPER__.TTF
2011-02-28 21:41:44 SegmentedEncoder: Stream #0.12: Attachment: [0][0][0][0] / 0x0000
2011-02-28 21:41:44 SegmentedEncoder: Metadata:
2011-02-28 21:41:44 SegmentedEncoder: filename : LTe52140.ttf
2011-02-28 21:41:44 SegmentedEncoder: [buffer @ 0x32a79f0] w:704 h:480 pixfmt:yuv420p
2011-02-28 21:41:44 SegmentedEncoder: [setsar @ 0x32a7af0] a:4/3
2011-02-28 21:41:44 SegmentedEncoder: [crop @ 0x32a7a70] w:704 h:480 -> w:704 h:528
2011-02-28 21:41:44 SegmentedEncoder: [crop @ 0x32a7a70] Invalid too big or non positive size for width '704' or height '528'
2011-02-28 21:41:44 SegmentedEncoder: Error opening filters!
2011-02-28 21:41:44 LiveConversion: >>
395821474B69747C697A763B5D72777E683B3363232D32475A72694D727F7E74487E696D7E69477D7D766B7E7C357E637E393B3636687E7C767E756F
36777E757C6F733B2F3B3636687E7C767E756F36747D7D687E6F3B29233B36367874756D7E696872747536727F3B7A787D2A2F297A2A362E2F7D2336
2F2E2D29367A2D2D22367E232A7D297E2F2D2D297D237A292B7E2A227F2E362D2B2E2E362F2F2D2D367A7F2E78367F23282F2F2F232F232F22283B36
366B74696F36756E76797E693B2F2D2D282A3B366F73697E7A7F683B2F3B367D777A7C68293B307D7A686F3B367D777A7C683B307774746B3B367C3B
282B3B36707E6272756F447672753B2A3B36797D3B2B3B367944686F697A6F7E7C623B2B3B367D777A7C68293B366C6B697E7F367F786F2363233B36
78766B3B3078736974767A3B367F7E79777478707A776B737A3B2B3B367F7E7977747870797E6F7A3B2B3B36697E7D683B2A3B3678747F7E693B2B3B
36767E44697A757C7E3B2A2D3B36686E796A3B2E3B366B7A696F726F727475683B306B7A696F722F632F306B7A696F72236323306B7A696F6B236323
3B366F697E777772683B2B3B366878446F73697E687374777F3B2F2B3B3672446A7D7A786F74693B2B352C2A3B366A7874766B3B2B352D3B36767A6B
3B2B352B212B352B3B36767A6B3B2B352A212B352A3B3668683B2923352B3B36723B39582147474E687E69684747487E7A753B58737E7547475F746C
7577747A7F6847475A69727A3B6F737E3B5A7572767A6F7274753B332C2B2F632F232B3B73292D2F3247477A69727A446F737E447A7572767A6F7274
75442B2A4073292D2F356D746979726846407572726170463576706D393B366D7D3B397869746B262C2B2F212E2923212B212B373B68787A777E262C
2B2F212E2923373B687E6F687A69262C2B2F212E2923393B36623B367A686275783B2A3B367D3B766B7E7C6F683B366D78747F7E783B77727963292D
2F3B36796E7D6872617E3B2A2B292F703B36793B292A292E703B36796F3B29292E2B703B366A767A633B2F233B366A7672753B293B36693B292E352B
3B367A78747F7E783B777279766B28777A767E3B367A793B292E2D703B367A693B2F232B2B2B3B367A783B293B36
<<

2011-02-28 21:41:44 SegmentedEncoder: FFmpeg version UNKNOWN, Copyright (c) 2000-2011 the FFmpeg developers
2011-02-28 21:41:44 SegmentedEncoder: built on Feb 24 2011 05:27:50 with gcc 4.4.0
2011-02-28 21:41:44 SegmentedEncoder: configuration: --enable-memalign-hack --prefix=/mingw --target-os=mingw32 --arch=i686 --cpu=i686 --enable-gpl --enable-libx264 --enable-static --disable-shared --enable-pthreads --enable-libmp3lame
2011-02-28 21:41:44 SegmentedEncoder: libavutil 50.36. 0 / 50.36. 0
2011-02-28 21:41:44 SegmentedEncoder: libavcore 0.16. 1 / 0.16. 1
2011-02-28 21:41:44 SegmentedEncoder: libavcodec 52.108. 0 / 52.108. 0
2011-02-28 21:41:44 SegmentedEncoder: libavformat 52.93. 0 / 52.93. 0
2011-02-28 21:41:44 SegmentedEncoder: libavdevice 52. 2. 3 / 52. 2. 3

Log page full. Discarding all subsequent entries!
Grrr, Apple sure does take its sweet time reviewing this update. I've been checking updates practically 3 times a day just for this!
Agreed, I would love this feature. It would also be nice to have a "convert all" button to batch convert all the videos in a folder.
I think batch conversion of multiple videos is a pretty logical feature. Also, it would be nice to have an option of automatic "add to itunes." This way, I can batch convert an entire folder of videos and have them all added to itunes. Then I sync my iphone once and I have all my videos on the go.
This will never happen. Developing this app for PC is just inviting for it to get pirated. Of course, the App Store is not piracy proof, but it's still a far safer bet.
This app is the undisputed top video streaming means I've seen. The performance is admirable, the quality is stunning, the UI is intuitive and elegant, and features are plentiful. On top of that, there is excellent support, with a responsive developer who listens to user input. It seemingly has all the necessary elements of a blockbuster app, but that is not the impression I get. It feels like a lot more people know of Orb, even though it is by far inferior to Air Video. So I'm asking out of curiosity, how well does this app sell? Is it generating a decent income?

Also, I wonder how Air Video can have greater success in the App store. No offense, but the current icon is bland and cheap-looking. Maybe a more eye-catching icon would grab more customers. Or perhaps investing in promoting the app more? Or try to get well known review sites to do articles on this app.

I guess I just feel that this app deserves more attention than it gets, especially for the amount of effort the developers have clearly put in.
Subtitles work wonderfully now. Is there currently a way to also disable subtitles? I think it would be convenient if it could be enabled or disabled in the "conversion settings" menu, or even better, if they could be turned on and off on the fly.
Yep. It was very easy for me to set up following these directions: http://www.inmethod.com/air-video/remote-access.html
 
Forum Index » Profile for Fome » Messages posted by Fome
Go to:   
Powered by JForum 2.1.8 © JForum Team