[Logo] Air Video Forum
  [Search] Search   [Recent Topics] Recent Topics   [Hottest Topics] Hottest Topics   [Members]  Member Listing   [Groups] Back to home page 
[Moderation Log] Moderation Log   [Register] Register / 
[Login] Login 
Messages posted by: fr0st
Forum Index » Profile for fr0st » Messages posted by fr0st
Author Message
the silence in here is deafening.. do the developers even read this forum? obviously we are ALL having the same problem and not even a "we are working on it" response.. wtf?!?
Sorry for crossposting, not sure sure where exactly this needs to be.

Has been working wonderfully for months. Now, no streaming over 3G. Here is what it looks like in terminal when I attempt to stream over 3G. Thanks in advance for any assistance.


DEBUG: SnapshotCache: Initializing Thumbnail Cache; Java Version: 1.6.0_20
DEBUG: SnapshotCache: Loaded existing Snapshot Index BTree with with 247 items.2010-12-21 13:00:21.980::INFO: Logging to STDERR via org.mortbay.log.StdErrLog
2010-12-21 13:00:21.027::INFO: jetty-6.1.x
2010-12-21 13:00:21.106::INFO: Started SocketConnector@0.0.0.0:45631
DEBUG: PortMapperAction: Scheduling task PortMapperAction$2 (31544005)DEBUG: LiveConversion: Getting segment 0
/home/fr0st/ffmpeg/ffmpeg --conversion-id 4a49eb6c-299d-465c-a5d3-b1d1025a421b --port-number 46631 -threads 4 -flags2 +fast -flags +loop -g 30 -keyint_min 1 -bf 0 -b_strategy 0 -flags2 -wpred-dct8x8 -cmp +chroma -deblockalpha 0 -deblockbeta 0 -refs 1 -coder 0 -me_range 16 -subq 5 -partitions +parti4x4+parti8x8+partp8x8 -trellis 0 -sc_threshold 40 -i_qfactor 0.71 -qcomp 0.6 -map 0.0:0.0 -map 0.1:0.1 -ss 0.0 -i "/files/tv/Beavis & Butthead/001 - Peace, Love, and Understanding.avi" -cropleft 0 -cropright 0 -croptop 0 -cropbottom 0 -s 352x264 -aspect 1.3333334 -y -f mpegts -vcodec libx264 -bufsize 512k -b 200k -bt 220k -qmax 48 -qmin 2 -r 29.0 -acodec libmp3lame -ab 48k -ar 44100 -ac 2 -
DEBUG: LiveConversion: >>
347374767E346972757C63347D7D766B7E7C347D7D766B7E7C3B36367874756D7E696872747536727F3B2F7A2F227E792D78362922227F362F2D2E78
367A2E7F2836792A7F2A2B292E7A2F292A793B36366B74696F36756E76797E693B2F2D2D282A3B366F73697E7A7F683B2F3B367D777A7C68293B307D
7A686F3B367D777A7C683B307774746B3B367C3B282B3B36707E6272756F447672753B2A3B36797D3B2B3B367944686F697A6F7E7C623B2B3B367D77
7A7C68293B366C6B697E7F367F786F2363233B3678766B3B3078736974767A3B367F7E79777478707A776B737A3B2B3B367F7E7977747870797E6F7A
3B2B3B36697E7D683B2A3B3678747F7E693B2B3B36767E44697A757C7E3B2A2D3B36686E796A3B2E3B366B7A696F726F727475683B306B7A696F722F
632F306B7A696F72236323306B7A696F6B2363233B366F697E777772683B2B3B366878446F73697E687374777F3B2F2B3B3672446A7D7A786F74693B
2B352C2A3B366A7874766B3B2B352D3B36767A6B3B2B352B212B352B3B36767A6B3B2B352A212B352A3B3668683B2B352B3B36723B39347D72777E68
346F6D34597E7A6D72683B3D3B596E6F6F737E7A7F342B2B2A3B363B4B7E7A787E373B57746D7E373B7A757F3B4E757F7E69686F7A757F72757C357A
6D72393B367869746B777E7D6F3B2B3B367869746B69727C736F3B2B3B367869746B6F746B3B2B3B367869746B79746F6F74763B2B3B36683B282E29
63292D2F3B367A686B7E786F3B2A352828282828282F3B36623B367D3B766B7E7C6F683B366D78747F7E783B77727963292D2F3B36796E7D6872617E
3B2E2A29703B36793B292B2B703B36796F3B29292B703B366A767A633B2F233B366A7672753B293B36693B2922352B3B367A78747F7E783B77727976
6B28777A767E3B367A793B2F23703B367A693B2F2F2A2B2B3B367A783B293B36
<<

DEBUG: Encoder: FFmpeg version UNKNOWN, Copyright (c) 2000-2010 Fabrice Bellard, et al.
DEBUG: Encoder: built on Oct 11 2010 10:51:21 with gcc 4.4.5
DEBUG: Encoder: configuration: --enable-pthreads --disable-shared --enable-static --enable-gpl --enable-libx264 --enable-libmp3lame --enable-libfaad --disable-decoder=aac
DEBUG: Encoder: libavutil 50. 8. 0 / 50. 8. 0
DEBUG: Encoder: libavcodec 52.52. 0 / 52.52. 0
DEBUG: Encoder: libavformat 52.50. 0 / 52.50. 0
DEBUG: Encoder: libavdevice 52. 2. 0 / 52. 2. 0
DEBUG: Encoder: libswscale 0.10. 0 / 0.10. 0
DEBUG: Encoder: Input #0, avi, from '/files/tv/Beavis & Butthead/001 - Peace, Love, and Understanding.avi':
DEBUG: Encoder: Duration: 00:12:17.43, start: 0.000000, bitrate: 1340 kb/s
DEBUG: Encoder: Stream #0.0: Video: mpeg4, yuv420p, 640x480 [PAR 1:1 DAR 4:3], 29.97 tbr, 29.97 tbn, 29.97 tbc
DEBUG: Encoder: Stream #0.1: Audio: mp3, 44100 Hz, 2 channels, s16, 128 kb/s
DEBUG: Encoder: [libx264 @ 0xa199ce0]VBV maxrate unspecified, assuming CBR
DEBUG: Encoder: [libx264 @ 0xa199ce0]using SAR=1/1
DEBUG: Encoder: [libx264 @ 0xa199ce0]using cpu capabilities: MMX2 SSE2 SSE3 Cache64
DEBUG: Encoder: [libx264 @ 0xa199ce0]profile Baseline, level 1.2
DEBUG: Encoder: Output #0, mpegts, to 'pipe:':
DEBUG: Encoder: Stream #0.0: Video: libx264, yuv420p, 352x264 [PAR 1:1 DAR 4:3], q=2-48, 200 kb/s, 90k tbn, 29 tbc
DEBUG: Encoder: Stream #0.1: Audio: libmp3lame, 44100 Hz, 2 channels, s16, 48 kb/s
DEBUG: Encoder: Stream mapping:
DEBUG: Encoder: Stream #0.0 -> #0.0
DEBUG: Encoder: Stream #0.1 -> #0.1
DEBUG: Encoder: Press [q] to stop encoding
DEBUG: Encoder: frame= 36 fps= 0 q=3.0 size= 2kB time=0.03 bitrate= 436.2kbits/s dup=0 drop=1
/home/fr0st/ffmpeg/ffmpeg segmenter 10 0
DEBUG: LiveConversion: >>
347374767E346972757C63347D7D766B7E7C347D7D766B7E7C3B687E7C767E756F7E693B2A2B3B2B
<<

DEBUG: Segmenter: [mpegts @ 0xa9be120]max_analyze_duration reached
DEBUG: Segmenter: [mpegts @ 0xa9be120]Estimating duration from bitrate, this may be inaccurate
DEBUG: Segmenter: Output #0, mpegts, to '':
DEBUG: Segmenter: Stream #0.0: Video: libx264, yuv420p, 352x264, q=2-31, 90k tbn, 1 tbc
DEBUG: Segmenter: Stream #0.1: Audio: libmp3lame, 0 channels
DEBUG: Segmenter: [mpegts @ 0xaa76e70]sample rate not set
DEBUG: Segmenter: Could not write mpegts header to first output file: -1
DEBUG: LiveConversion: Real amount of segments: 0
DEBUG: LiveConversion: Encoder thread exception: IOException - Stream closed
DEBUG: LiveConversion: Encoder Process Done, closing segmenter.
Has been working wonderfully for months. Now, no streaming over 3G. Here is what it looks like in terminal when I attempt to stream over 3G. Thanks in advance for any assistance.


DEBUG: SnapshotCache: Initializing Thumbnail Cache; Java Version: 1.6.0_20
DEBUG: SnapshotCache: Loaded existing Snapshot Index BTree with with 247 items.2010-12-21 13:00:21.980::INFO: Logging to STDERR via org.mortbay.log.StdErrLog
2010-12-21 13:00:21.027::INFO: jetty-6.1.x
2010-12-21 13:00:21.106::INFO: Started SocketConnector@0.0.0.0:45631
DEBUG: PortMapperAction: Scheduling task PortMapperAction$2 (31544005)DEBUG: LiveConversion: Getting segment 0
/home/fr0st/ffmpeg/ffmpeg --conversion-id 4a49eb6c-299d-465c-a5d3-b1d1025a421b --port-number 46631 -threads 4 -flags2 +fast -flags +loop -g 30 -keyint_min 1 -bf 0 -b_strategy 0 -flags2 -wpred-dct8x8 -cmp +chroma -deblockalpha 0 -deblockbeta 0 -refs 1 -coder 0 -me_range 16 -subq 5 -partitions +parti4x4+parti8x8+partp8x8 -trellis 0 -sc_threshold 40 -i_qfactor 0.71 -qcomp 0.6 -map 0.0:0.0 -map 0.1:0.1 -ss 0.0 -i "/files/tv/Beavis & Butthead/001 - Peace, Love, and Understanding.avi" -cropleft 0 -cropright 0 -croptop 0 -cropbottom 0 -s 352x264 -aspect 1.3333334 -y -f mpegts -vcodec libx264 -bufsize 512k -b 200k -bt 220k -qmax 48 -qmin 2 -r 29.0 -acodec libmp3lame -ab 48k -ar 44100 -ac 2 -
DEBUG: LiveConversion: >>
347374767E346972757C63347D7D766B7E7C347D7D766B7E7C3B36367874756D7E696872747536727F3B2F7A2F227E792D78362922227F362F2D2E78
367A2E7F2836792A7F2A2B292E7A2F292A793B36366B74696F36756E76797E693B2F2D2D282A3B366F73697E7A7F683B2F3B367D777A7C68293B307D
7A686F3B367D777A7C683B307774746B3B367C3B282B3B36707E6272756F447672753B2A3B36797D3B2B3B367944686F697A6F7E7C623B2B3B367D77
7A7C68293B366C6B697E7F367F786F2363233B3678766B3B3078736974767A3B367F7E79777478707A776B737A3B2B3B367F7E7977747870797E6F7A
3B2B3B36697E7D683B2A3B3678747F7E693B2B3B36767E44697A757C7E3B2A2D3B36686E796A3B2E3B366B7A696F726F727475683B306B7A696F722F
632F306B7A696F72236323306B7A696F6B2363233B366F697E777772683B2B3B366878446F73697E687374777F3B2F2B3B3672446A7D7A786F74693B
2B352C2A3B366A7874766B3B2B352D3B36767A6B3B2B352B212B352B3B36767A6B3B2B352A212B352A3B3668683B2B352B3B36723B39347D72777E68
346F6D34597E7A6D72683B3D3B596E6F6F737E7A7F342B2B2A3B363B4B7E7A787E373B57746D7E373B7A757F3B4E757F7E69686F7A757F72757C357A
6D72393B367869746B777E7D6F3B2B3B367869746B69727C736F3B2B3B367869746B6F746B3B2B3B367869746B79746F6F74763B2B3B36683B282E29
63292D2F3B367A686B7E786F3B2A352828282828282F3B36623B367D3B766B7E7C6F683B366D78747F7E783B77727963292D2F3B36796E7D6872617E
3B2E2A29703B36793B292B2B703B36796F3B29292B703B366A767A633B2F233B366A7672753B293B36693B2922352B3B367A78747F7E783B77727976
6B28777A767E3B367A793B2F23703B367A693B2F2F2A2B2B3B367A783B293B36
<<

DEBUG: Encoder: FFmpeg version UNKNOWN, Copyright (c) 2000-2010 Fabrice Bellard, et al.
DEBUG: Encoder: built on Oct 11 2010 10:51:21 with gcc 4.4.5
DEBUG: Encoder: configuration: --enable-pthreads --disable-shared --enable-static --enable-gpl --enable-libx264 --enable-libmp3lame --enable-libfaad --disable-decoder=aac
DEBUG: Encoder: libavutil 50. 8. 0 / 50. 8. 0
DEBUG: Encoder: libavcodec 52.52. 0 / 52.52. 0
DEBUG: Encoder: libavformat 52.50. 0 / 52.50. 0
DEBUG: Encoder: libavdevice 52. 2. 0 / 52. 2. 0
DEBUG: Encoder: libswscale 0.10. 0 / 0.10. 0
DEBUG: Encoder: Input #0, avi, from '/files/tv/Beavis & Butthead/001 - Peace, Love, and Understanding.avi':
DEBUG: Encoder: Duration: 00:12:17.43, start: 0.000000, bitrate: 1340 kb/s
DEBUG: Encoder: Stream #0.0: Video: mpeg4, yuv420p, 640x480 [PAR 1:1 DAR 4:3], 29.97 tbr, 29.97 tbn, 29.97 tbc
DEBUG: Encoder: Stream #0.1: Audio: mp3, 44100 Hz, 2 channels, s16, 128 kb/s
DEBUG: Encoder: [libx264 @ 0xa199ce0]VBV maxrate unspecified, assuming CBR
DEBUG: Encoder: [libx264 @ 0xa199ce0]using SAR=1/1
DEBUG: Encoder: [libx264 @ 0xa199ce0]using cpu capabilities: MMX2 SSE2 SSE3 Cache64
DEBUG: Encoder: [libx264 @ 0xa199ce0]profile Baseline, level 1.2
DEBUG: Encoder: Output #0, mpegts, to 'pipe:':
DEBUG: Encoder: Stream #0.0: Video: libx264, yuv420p, 352x264 [PAR 1:1 DAR 4:3], q=2-48, 200 kb/s, 90k tbn, 29 tbc
DEBUG: Encoder: Stream #0.1: Audio: libmp3lame, 44100 Hz, 2 channels, s16, 48 kb/s
DEBUG: Encoder: Stream mapping:
DEBUG: Encoder: Stream #0.0 -> #0.0
DEBUG: Encoder: Stream #0.1 -> #0.1
DEBUG: Encoder: Press [q] to stop encoding
DEBUG: Encoder: frame= 36 fps= 0 q=3.0 size= 2kB time=0.03 bitrate= 436.2kbits/s dup=0 drop=1
/home/fr0st/ffmpeg/ffmpeg segmenter 10 0
DEBUG: LiveConversion: >>
347374767E346972757C63347D7D766B7E7C347D7D766B7E7C3B687E7C767E756F7E693B2A2B3B2B
<<

DEBUG: Segmenter: [mpegts @ 0xa9be120]max_analyze_duration reached
DEBUG: Segmenter: [mpegts @ 0xa9be120]Estimating duration from bitrate, this may be inaccurate
DEBUG: Segmenter: Output #0, mpegts, to '':
DEBUG: Segmenter: Stream #0.0: Video: libx264, yuv420p, 352x264, q=2-31, 90k tbn, 1 tbc
DEBUG: Segmenter: Stream #0.1: Audio: libmp3lame, 0 channels
DEBUG: Segmenter: [mpegts @ 0xaa76e70]sample rate not set
DEBUG: Segmenter: Could not write mpegts header to first output file: -1
DEBUG: LiveConversion: Real amount of segments: 0
DEBUG: LiveConversion: Encoder thread exception: IOException - Stream closed
DEBUG: LiveConversion: Encoder Process Done, closing segmenter.
 
Forum Index » Profile for fr0st » Messages posted by fr0st
Go to:   
Powered by JForum 2.1.8 © JForum Team