[Logo] Air Video Forum
  [Search] Search   [Recent Topics] Recent Topics   [Hottest Topics] Hottest Topics   [Members]  Member Listing   [Groups] Back to home page 
[Moderation Log] Moderation Log   [Register] Register / 
[Login] Login 
Messages posted by: outspoken
Forum Index » Profile for outspoken » Messages posted by outspoken
Author Message
Admin wrote:Does this happen with latest server beta version?

http://www.inmethod.com/forum/posts/list/4529.page


I am on Linux using beta6.

The server still runs and the client works so I am not in a rush to upgrade.

DEBUG: Thumbnail:
DEBUG: Thumbnail: Seems stream 0 codec frame rate differs from container frame rate: 180000.00 (180000/1) -> 90000.00 (180000/2)
DEBUG: Thumbnail: Input #0, mov,mp4,m4a,3gp,3g2,mj2, from '/data/Movies/16 Blocks (2006)/16 Blocks.mp4':
DEBUG: Thumbnail: Metadata:
DEBUG: Thumbnail: major_brand : mp42
DEBUG: Thumbnail: minor_version : 0
DEBUG: Thumbnail: compatible_brands: mp42isomavc1
DEBUG: Thumbnail: creation_time : 2012-02-24 16:24:53
DEBUG: Thumbnail: encoder : HandBrake rev3736 2012021599
DEBUG: Thumbnail: Duration: 01:41:46.81, start: 0.000000, bitrate: 1155 kb/s
DEBUG: Thumbnail: Stream #0.0(und): Video: h264 (High), yuv420p, 1280x544, 989 kb/s, 23.98 fps, 90k tbr, 90k tbn, 180k tbc
DEBUG: Thumbnail: Couldn't parse framerate
DEBUG: Thumbnail: Metadata:
DEBUG: Thumbnail: creation_time : 2012-02-24 16:24:53
DEBUG: Thumbnail: Stream #0.1(und): Audio: aac, 48000 Hz, stereo, s16, 159 kb/s
DEBUG: Thumbnail: Metadata:
DEBUG: Thumbnail: creation_time : 2012-02-24 16:24:54
DEBUG: Thumbnail: Incompatible pixel format 'yuv420p' for codec 'mjpeg', auto-selecting format 'yuvj420p'
DEBUG: Thumbnail: [buffer @ 0x2af7f20] w:1280 h:544 pixfmt:yuv420p
DEBUG: Thumbnail: [ffsink @ 0x2af90a0] auto-inserting filter 'auto-inserted scaler 0' between the filter 'src' and the filter 'out'
DEBUG: Thumbnail: [scale @ 0x2af97c0] w:1280 h:544 fmt:yuv420p -> w:1280 h:544 fmt:yuvj420p flags:0xa0000004
DEBUG: Thumbnail: [mjpeg @ 0x2af7080] removing common factors from framerate
DEBUG: Thumbnail: Output #0, mjpeg, to 'pipe:':
DEBUG: Thumbnail: Metadata:Unkown framerateUnkown framerate


am i missing something?
pdunkley wrote:I've been an Air Video user (running the Windows server) for a long time now. I just got around to trying the Air Video Server for Linux alpha 6 and it works great.

The process of getting this working on my Linux machine (running Fedora 16) was quite involved and I had to find, patch, and manually compile mpeg4ip 1.6.1. Just in case anyone else is in the similar situation I have provided a step-by-step guide for this which includes Avahi (Bonjour/mDNS) configuration and automatic start/stop of the server on system startup/shutdown.

The guide is here: http://www.dunkley.me.uk/2012/04/i-use-excellent-air-video-to-stream-non.html

I hope this proves useful.


good starting point for those of us on ubuntu, but can't be copied 1:1. i had a working server in old ubuntu by on the new 12.04 it is not working for me.
this is a receiver/tv issue. the iphone 4s only outputs 720p video.

check to see if you have an option to specify the input manually and limit it to 720p.
Admin wrote:What operating system are you using?


Windows Home Server SP2 (original, not 2011)
still can't get 2.4.5-beta6u2 to work, i have to remove it and re-install 2.4.5-beta5 for streaming/converting to start working.

toulouse wrote:
4 - Multiple server login accounts/passwords.


I'd really like to have this as I want friends to be able to access the server, but I want each of them to have their own account so I know if they ever give the password out to someone else I can tell that more than one connection is coming from that account in the logs via ip address check.
anyone ever pick up on this? just wondering if it is even possible.

I've used the PC client and that worked well. I just don't have a data plan for my iPhone anymore.
 
Forum Index » Profile for outspoken » Messages posted by outspoken
Go to:   
Powered by JForum 2.1.8 © JForum Team