[Logo] Air Video Forum
  [Search] Search   [Recent Topics] Recent Topics   [Hottest Topics] Hottest Topics   [Members]  Member Listing   [Groups] Back to home page 
[Moderation Log] Moderation Log   [Register] Register / 
[Login] Login 
Messages posted by: illy123
Forum Index » Profile for illy123 » Messages posted by illy123
Author Message
Stupid apple; I was using the iPhone as a media centre!!!
Damn, I was about to post just now that TV-out isn't working (only the sound comes up).

To be honest I would have preferred TV-out than some stupid folder and custom background.

Anything we can do to complain to apple? Though it probably won't make any difference as they don't listen to anyone.
I've just recently noticed this happening once upgrading from 2.2.6.

I guess this happens 3/4 times a day.
For some reason with the new server update 2.2.7 Update 1 I have the ffmpeg process using up lots of resources even when no movies are being streamed.

I'm running Windows 7 Ultimate
I appreciate the quick reply

Definitely, must be very hard trying to cater for different movie storing, viewing preferences not to mention that you now have the iPad to consider.
I've been using the latest beta server and client and noticed that it no longer plays the next movie on the list automatically.

Am I going crazy or did you chose to omit this feature? It was useful for videos that I would download from youtube (some were 12 parts).
I have a small problem with the new update (I have the latest client and server): whenever I close airvideo with the 'home' button and then open it up again for some reason it goes to the next episode. E.g I'm half way through episode 4; close airvideo to write an email then open it up again and instead of being presented with the fourth episode and the option to resume playback I'm shown episode 5.

Thanks!
I have discovered that my iphone has locked up on a few other instances (when air video was not running) and required me taking out the power cable and putting it back in. So hopefully it's not Air Video - probably a coincidence that I usually have my phone plugged in when watching air video.
Sorry I should have been more specific: Windows 7 Ultimate 32 bit.

What is weird is that I had 'autostart' checked and that become unchecked for some reason - and when I open the server I usually had the icon in the superbar however that has vanished also.
Since upgrading to the latest server beta I have had issues with it randomly closing whilst watching a movie - I have to open it on the computer again to get everything working.

However on my hackintosh it seems to be working without a glitch.
"This release contains improved iTunes support. Adding playlists should work now with iTunes 9.1 and iTunes launch is no longer required during browsing."

I don't mean to belittle this update in any way but I have everything working wonderfully since the last update - have there been any other improvements apart from itunes integration?
It's not.
I'm not sure whether this is a problem with air video or with my iphone (and because I use air-video a lot it just so happens that it occurs when air video is open).

However, over the past month there have been two cases where my iphone would completely freeze (not able to shut down) and then become operable in 20 or so seconds. The first time it occurred I wasn't able to turn it on or 10 or so seconds.

I see; when I opened regular DVD-rips then the CPU usage would jump to 100% for a few seconds and get the transcoding done and then rest for a bit and then jump again.

I guess streaming a 1080p rip with imax clips to an iphone was a bit optimistic

Out of interest why is ffmpeg not able to multi thread with high bit-rates?

Thanks for the quick reply.
Hmm, I tried streaming the same file from my Q8300 hackintosh and hardly got the buffering issue (twice, or is twice still too much?). In fact I try to use the mac air video server when I can as it seems more reliable (it auto port forwards whilst I had to do it manually for the W7 version).



LiveConversion: >>
39345A6B6B7772787A6F72747568345A72693B4D727F7E743B487E696D7E69357A6B6B345874756F7E756F6834497E68746E69787E68347D7D766B7E
7C393B36367874756D7E696872747536727F3B792B7F282C22797D362F292E78362F2C2E2336792A782C367F7E7F2E22782E2C2B2A22283B36366B74
696F36756E76797E693B2F2D2D282A3B366F73697E7A7F683B2F3B367D777A7C68293B307D7A686F3B367D777A7C683B307774746B3B367C3B292E2B
3B36707E6272756F447672753B292E3B36797D3B2B3B367944686F697A6F7E7C623B2B3B3678766B3B3078736974767A3B367F7E79777478707A776B
737A3B2B3B367F7E7977747870797E6F7A3B2B3B36697E7D683B2A3B3678747F7E693B2B3B36767E44697A757C7E3B2A2D3B36686E796A3B2E3B366B
7A696F726F727475683B306B7A696F722F632F306B7A696F72236323306B7A696F6B2363233B366F697E777772683B2B3B366878446F73697E687374
777F3B2F2B3B3672446A7D7A786F74693B2B352C2A3B366A7874766B3B2B352D3B36767A6B3B2B352B212B352B3B36767A6B3B2B352A212B352A3B36
68683B2B352B3B36723B39344E687E6968347A6B6B777E767A783456746D727E683456727F486E76767E693B566E697F7E6968342E632B2F3B363B56
6E697F7E693B54753B486F3B567A77777E62683B5F7A623B40292B2B2946357A6D72393B367869746B777E7D6F3B2B3B367869746B69727C736F3B2B
3B367869746B6F746B3B2B3B367869746B79746F6F74763B2B3B36683B2F232B63282D2B3B367A686B7E786F3B2A352828282828282F3B36623B367D
3B766B7E7C6F683B366D78747F7E783B77727963292D2F3B36796E7D6872617E3B2A2923703B36793B2A2C2B2B703B36796F3B2A232B2B703B366A76
7A633B2F233B366A7672753B293B36693B292E3B367A78747F7E783B777279766B28777A767E3B367A793B2A2229703B367A693B2F232B2B2B3B367A
783B293B36
<<

Encoder: FFmpeg version UNKNOWN, Copyright (c) 2000-2010 Fabrice Bellard, et al.
Encoder: built on Feb 7 2010 11:39:45 with gcc 4.0.1 (Apple Inc. build 5493)
Encoder: configuration: --enable-pthreads --disable-shared --enable-static --enable-gpl --enable-libx264 --enable-libmp3lame --enable-libfaad --disable-decoder=aac
Encoder: libavutil 50. 8. 0 / 50. 8. 0
Encoder: libavcodec 52.52. 0 / 52.52. 0
Encoder: libavformat 52.50. 0 / 52.50. 0
Encoder: libavdevice 52. 2. 0 / 52. 2. 0
Encoder: libswscale 0.10. 0 / 0.10. 0
Encoder:
Encoder: Seems stream 0 codec frame rate differs from container frame rate: 29.98 (65535/2186) -> 29.97 (2997/100)
Encoder: Input #0, avi, from '/Users/applemac/Movies/MidSummer Murders/5x04 - Murder On St Malleys Day [2002].avi':
Encoder: Metadata:
Encoder: ISFT : VirtualDubMod 1.5.4.1 (build 2178/release)
Encoder: IAS1 : English
Encoder: Duration: 01:38:45.85, start: 0.000000, bitrate: 989 kb/s
Encoder: Stream #0.0: Video: mpeg4, yuv420p, 512x384 [PAR 1:1 DAR 4:3], 29.97 tbr, 29.97 tbn, 29.98 tbc
Encoder: Stream #0.1: Audio: mp3, 48000 Hz, 2 channels, s16, 128 kb/s
Encoder: [libx264 @ 0x2801000]using SAR=1/1
Encoder: [libx264 @ 0x2801000]using cpu capabilities: MMX2 SSE2Fast SSSE3 FastShuffle SSE4.1 Cache64
Encoder: [libx264 @ 0x2801000]VBV maxrate unspecified, assuming CBR
Encoder: [libx264 @ 0x2801000]profile Baseline, level 2.1
Encoder: Output #0, mpegts, to 'pipe:':
Encoder: Stream #0.0: Video: libx264, yuv420p, 480x360 [PAR 1:1 DAR 4:3], q=2-48, 1700 kb/s, 90k tbn, 25 tbc
Encoder: Stream #0.1: Audio: libmp3lame, 48000 Hz, 2 channels, s16, 192 kb/s
Encoder: Stream mapping:
Encoder: Stream #0.0 -> #0.0
Encoder: Stream #0.1 -> #0.1
Encoder: Press [q] to stop encoding
LiveConversion: >>
39345A6B6B7772787A6F72747568345A72693B4D727F7E743B487E696D7E69357A6B6B345874756F7E756F6834497E68746E69787E68347D7D766B7E
7C393B687E7C767E756F7E693B2A2B3B2B
<<

Encoder: frame= 93 fps= 0 q=14.0 size= 308kB time=1.84 bitrate=1371.6kbits/s dup=0 drop=16
Segmenter: [mpegts @ 0x1008000]max_analyze_duration reached
Segmenter: [mpegts @ 0x1008000]Estimating duration from bitrate, this may be inaccurate
Segmenter: Output #0, mpegts, to '':
Segmenter: Stream #0.0: Video: libx264, yuv420p, 480x360, q=2-31, 90k tbn, 25 tbc
Segmenter: Stream #0.1: Audio: libmp3lame, 48000 Hz, 2 channels, 192 kb/s
Segmenter: [mpegts @ 0x11d2200]stream 0, bit rate is not set, this will cause problems
Segmenter: Offsetting timestamps by:0.000000
Segmenter: [mpegts @ 0x11d2200]st:1 error, non monotone timestamps 63000 >= 63000
Segmenter: Wrote segment 0
LiveConversion: Segmenter thread exception: Stream closed
LiveConversion: Encoder thread exception: IOException - Stream closed
Encoder: av_interleaved_write_frame(): Error while opening file
Encoder: Bad file descriptor
LiveConversion: >>
39345A6B6B7772787A6F72747568345A72693B4D727F7E743B487E696D7E69357A6B6B345874756F7E756F6834497E68746E69787E68347D7D766B7E
7C393B36367874756D7E696872747536727F3B792B7F282C22797D362F292E78362F2C2E2336792A782C367F7E7F2E22782E2C2B2A22283B36366B74
696F36756E76797E693B2F2D2D282A3B366F73697E7A7F683B2F3B367D777A7C68293B307D7A686F3B367D777A7C683B307774746B3B367C3B292E2B
3B36707E6272756F447672753B292E3B36797D3B2B3B367944686F697A6F7E7C623B2B3B3678766B3B3078736974767A3B367F7E79777478707A776B
737A3B2B3B367F7E7977747870797E6F7A3B2B3B36697E7D683B2A3B3678747F7E693B2B3B36767E44697A757C7E3B2A2D3B36686E796A3B2E3B366B
7A696F726F727475683B306B7A696F722F632F306B7A696F72236323306B7A696F6B2363233B366F697E777772683B2B3B366878446F73697E687374
777F3B2F2B3B3672446A7D7A786F74693B2B352C2A3B366A7874766B3B2B352D3B36767A6B3B2B352B212B352B3B36767A6B3B2B352A212B352A3B36
68683B282B352B3B36723B39344E687E6968347A6B6B777E767A783456746D727E683456727F486E76767E693B566E697F7E6968342E632B2F3B363B
566E697F7E693B54753B486F3B567A77777E62683B5F7A623B40292B2B2946357A6D72393B367869746B777E7D6F3B2B3B367869746B69727C736F3B
2B3B367869746B6F746B3B2B3B367869746B79746F6F74763B2B3B36683B2F232B63282D2B3B367A686B7E786F3B2A352828282828282F3B36623B36
7A686275783B2A3B367D3B766B7E7C6F683B366D78747F7E783B77727963292D2F3B36796E7D6872617E3B2A2923703B36793B2A2C2B2B703B36796F
3B2A232B2B703B366A767A633B2F233B366A7672753B293B36693B292E3B367A78747F7E783B777279766B28777A767E3B367A793B2A2229703B367A
693B2F232B2B2B3B367A783B293B36
<<

Encoder: FFmpeg version UNKNOWN, Copyright (c) 2000-2010 Fabrice Bellard, et al.
Encoder: built on Feb 7 2010 11:39:45 with gcc 4.0.1 (Apple Inc. build 5493)
Encoder: configuration: --enable-pthreads --disable-shared --enable-static --enable-gpl --enable-libx264 --enable-libmp3lame --enable-libfaad --disable-decoder=aac
Encoder: libavutil 50. 8. 0 / 50. 8. 0
Encoder: libavcodec 52.52. 0 / 52.52. 0
Encoder: libavformat 52.50. 0 / 52.50. 0
Encoder: libavdevice 52. 2. 0 / 52. 2. 0
Encoder: libswscale 0.10. 0 / 0.10. 0
Encoder:
Encoder: Seems stream 0 codec frame rate differs from container frame rate: 29.98 (65535/2186) -> 29.97 (2997/100)
Encoder: Input #0, avi, from '/Users/applemac/Movies/MidSummer Murders/5x04 - Murder On St Malleys Day [2002].avi':
Encoder: Metadata:
Encoder: ISFT : VirtualDubMod 1.5.4.1 (build 2178/release)
Encoder: IAS1 : English
Encoder: Duration: 01:38:45.85, start: 0.000000, bitrate: 989 kb/s
Encoder: Stream #0.0: Video: mpeg4, yuv420p, 512x384 [PAR 1:1 DAR 4:3], 29.97 tbr, 29.97 tbn, 29.98 tbc
Encoder: Stream #0.1: Audio: mp3, 48000 Hz, 2 channels, s16, 128 kb/s
Encoder: [libx264 @ 0x2801000]using SAR=1/1
Encoder: [libx264 @ 0x2801000]using cpu capabilities: MMX2 SSE2Fast SSSE3 FastShuffle SSE4.1 Cache64
Encoder: [libx264 @ 0x2801000]VBV maxrate unspecified, assuming CBR
Encoder: [libx264 @ 0x2801000]profile Baseline, level 2.1
Encoder: Output #0, mpegts, to 'pipe:':
Encoder: Stream #0.0: Video: libx264, yuv420p, 480x360 [PAR 1:1 DAR 4:3], q=2-48, 1700 kb/s, 90k tbn, 25 tbc
Encoder: Stream #0.1: Audio: libmp3lame, 48000 Hz, 2 channels, s16, 192 kb/s
Encoder: Stream mapping:
Encoder: Stream #0.0 -> #0.0
Encoder: Stream #0.1 -> #0.1
Encoder: Press [q] to stop encoding
LiveConversion: >>
39345A6B6B7772787A6F72747568345A72693B4D727F7E743B487E696D7E69357A6B6B345874756F7E756F6834497E68746E69787E68347D7D766B7E
7C393B687E7C767E756F7E693B2A2B3B28
<<

Encoder: frame= 55 fps= 0 q=9.0 size= 62kB time=0.32 bitrate=1579.2kbits/s dup=0 drop=308
LiveConversion: Encoder Process Done, closing segmenter.
Segmenter: [mpegts @ 0x1008000]max_analyze_duration reached
Segmenter: [mpegts @ 0x1008000]Estimating duration from bitrate, this may be inaccurate
Segmenter: Output #0, mpegts, to '':
Segmenter: Stream #0.0: Video: libx264, yuv420p, 480x360, q=2-31, 90k tbn, 25 tbc
Segmenter: Stream #0.1: Audio: libmp3lame, 48000 Hz, 2 channels, 192 kb/s
Segmenter: [mpegts @ 0x11e7200]stream 0, bit rate is not set, this will cause problems
Segmenter: Offsetting timestamps by:2700000.000000
Segmenter: [mpegts @ 0x11e7200]st:1 error, non monotone timestamps 2763000 >= 2763000
LiveConversion: Segmenter thread exception: Stream closed
LiveConversion: Encoder thread exception: IOException - Stream closed
Encoder: av_interleaved_write_frame(): Error while opening file
Encoder: Bad file descriptor
LiveConversion: >>
39345A6B6B7772787A6F72747568345A72693B4D727F7E743B487E696D7E69357A6B6B345874756F7E756F6834497E68746E69787E68347D7D766B7E
7C393B36367874756D7E696872747536727F3B792B7F282C22797D362F292E78362F2C2E2336792A782C367F7E7F2E22782E2C2B2A22283B36366B74
696F36756E76797E693B2F2D2D282A3B366F73697E7A7F683B2F3B367D777A7C68293B307D7A686F3B367D777A7C683B307774746B3B367C3B292E2B
3B36707E6272756F447672753B292E3B36797D3B2B3B367944686F697A6F7E7C623B2B3B3678766B3B3078736974767A3B367F7E79777478707A776B
737A3B2B3B367F7E7977747870797E6F7A3B2B3B36697E7D683B2A3B3678747F7E693B2B3B36767E44697A757C7E3B2A2D3B36686E796A3B2E3B366B
7A696F726F727475683B306B7A696F722F632F306B7A696F72236323306B7A696F6B2363233B366F697E777772683B2B3B366878446F73697E687374
777F3B2F2B3B3672446A7D7A786F74693B2B352C2A3B366A7874766B3B2B352D3B36767A6B3B2B352B212B352B3B36767A6B3B2B352A212B352A3B36
68683B2C2A2B352B3B36723B39344E687E6968347A6B6B777E767A783456746D727E683456727F486E76767E693B566E697F7E6968342E632B2F3B36
3B566E697F7E693B54753B486F3B567A77777E62683B5F7A623B40292B2B2946357A6D72393B367869746B777E7D6F3B2B3B367869746B69727C736F
3B2B3B367869746B6F746B3B2B3B367869746B79746F6F74763B2B3B36683B2F232B63282D2B3B367A686B7E786F3B2A352828282828282F3B36623B
367A686275783B2A3B367D3B766B7E7C6F683B366D78747F7E783B77727963292D2F3B36796E7D6872617E3B2A2923703B36793B2A2C2B2B703B3679
6F3B2A232B2B703B366A767A633B2F233B366A7672753B293B36693B292E3B367A78747F7E783B777279766B28777A767E3B367A793B2A2229703B36
7A693B2F232B2B2B3B367A783B293B36
<<

Encoder: FFmpeg version UNKNOWN, Copyright (c) 2000-2010 Fabrice Bellard, et al.
Encoder: built on Feb 7 2010 11:39:45 with gcc 4.0.1 (Apple Inc. build 5493)
Encoder: configuration: --enable-pthreads --disable-shared --enable-static --enable-gpl --enable-libx264 --enable-libmp3lame --enable-libfaad --disable-decoder=aac
Encoder: libavutil 50. 8. 0 / 50. 8. 0
Encoder: libavcodec 52.52. 0 / 52.52. 0
Encoder: libavformat 52.50. 0 / 52.50. 0
Encoder: libavdevice 52. 2. 0 / 52. 2. 0
Encoder: libswscale 0.10. 0 / 0.10. 0
Encoder:
Encoder: Seems stream 0 codec frame rate differs from container frame rate: 29.98 (65535/2186) -> 29.97 (2997/100)
Encoder: Input #0, avi, from '/Users/applemac/Movies/MidSummer Murders/5x04 - Murder On St Malleys Day [2002].avi':
Encoder: Metadata:
Encoder: ISFT : VirtualDubMod 1.5.4.1 (build 2178/release)
Encoder: IAS1 : English
Encoder: Duration: 01:38:45.85, start: 0.000000, bitrate: 989 kb/s
Encoder: Stream #0.0: Video: mpeg4, yuv420p, 512x384 [PAR 1:1 DAR 4:3], 29.97 tbr, 29.97 tbn, 29.98 tbc
Encoder: Stream #0.1: Audio: mp3, 48000 Hz, 2 channels, s16, 128 kb/s
Encoder: [libx264 @ 0x2801000]using SAR=1/1
Encoder: [libx264 @ 0x2801000]using cpu capabilities: MMX2 SSE2Fast SSSE3 FastShuffle SSE4.1 Cache64
Encoder: [libx264 @ 0x2801000]VBV maxrate unspecified, assuming CBR
Encoder: [libx264 @ 0x2801000]profile Baseline, level 2.1
Encoder: Output #0, mpegts, to 'pipe:':
Encoder: Stream #0.0: Video: libx264, yuv420p, 480x360 [PAR 1:1 DAR 4:3], q=2-48, 1700 kb/s, 90k tbn, 25 tbc
Encoder: Stream #0.1: Audio: libmp3lame, 48000 Hz, 2 channels, s16, 192 kb/s
Encoder: Stream mapping:
Encoder: Stream #0.0 -> #0.0
Encoder: Stream #0.1 -> #0.1
Encoder: Press [q] to stop encoding
Encoder: [libmp3lame @ 0x2801400]lame: output buffer too small (buffer index: 9216, free bytes: 576)
Encoder: Audio encoding failed
Encoder: Bad file descriptor
LiveConversion: Encoder thread exception: EOFException - null
LiveConversion: >>
39345A6B6B7772787A6F72747568345A72693B4D727F7E743B487E696D7E69357A6B6B345874756F7E756F6834497E68746E69787E68347D7D766B7E
7C393B36367874756D7E696872747536727F3B792B7F282C22797D362F292E78362F2C2E2336792A782C367F7E7F2E22782E2C2B2A22283B36366B74
696F36756E76797E693B2F2D2D282A3B366F73697E7A7F683B2F3B367D777A7C68293B307D7A686F3B367D777A7C683B307774746B3B367C3B292E2B
3B36707E6272756F447672753B292E3B36797D3B2B3B367944686F697A6F7E7C623B2B3B3678766B3B3078736974767A3B367F7E79777478707A776B
737A3B2B3B367F7E7977747870797E6F7A3B2B3B36697E7D683B2A3B3678747F7E693B2B3B36767E44697A757C7E3B2A2D3B36686E796A3B2E3B366B
7A696F726F727475683B306B7A696F722F632F306B7A696F72236323306B7A696F6B2363233B366F697E777772683B2B3B366878446F73697E687374
777F3B2F2B3B3672446A7D7A786F74693B2B352C2A3B366A7874766B3B2B352D3B36767A6B3B2B352B212B352B3B36767A6B3B2B352A212B352A3B36
68683B29282A2B352B3B36723B39344E687E6968347A6B6B777E767A783456746D727E683456727F486E76767E693B566E697F7E6968342E632B2F3B
363B566E697F7E693B54753B486F3B567A77777E62683B5F7A623B40292B2B2946357A6D72393B367869746B777E7D6F3B2B3B367869746B69727C73
6F3B2B3B367869746B6F746B3B2B3B367869746B79746F6F74763B2B3B36683B2F232B63282D2B3B367A686B7E786F3B2A352828282828282F3B3662
3B367A686275783B2A3B367D3B766B7E7C6F683B366D78747F7E783B77727963292D2F3B36796E7D6872617E3B2A2923703B36793B2A2C2B2B703B36
796F3B2A232B2B703B366A767A633B2F233B366A7672753B293B36693B292E3B367A78747F7E783B777279766B28777A767E3B367A793B2A2229703B
367A693B2F232B2B2B3B367A783B293B36
<<

Encoder: FFmpeg version UNKNOWN, Copyright (c) 2000-2010 Fabrice Bellard, et al.
Encoder: built on Feb 7 2010 11:39:45 with gcc 4.0.1 (Apple Inc. build 5493)
Encoder: configuration: --enable-pthreads --disable-shared --enable-static --enable-gpl --enable-libx264 --enable-libmp3lame --enable-libfaad --disable-decoder=aac
Encoder: libavutil 50. 8. 0 / 50. 8. 0
Encoder: libavcodec 52.52. 0 / 52.52. 0
Encoder: libavformat 52.50. 0 / 52.50. 0
Encoder: libavdevice 52. 2. 0 / 52. 2. 0
Encoder: libswscale 0.10. 0 / 0.10. 0
Encoder:
Encoder: Seems stream 0 codec frame rate differs from container frame rate: 29.98 (65535/2186) -> 29.97 (2997/100)
Encoder: Input #0, avi, from '/Users/applemac/Movies/MidSummer Murders/5x04 - Murder On St Malleys Day [2002].avi':
Encoder: Metadata:
Encoder: ISFT : VirtualDubMod 1.5.4.1 (build 2178/release)
Encoder: IAS1 : English
Encoder: Duration: 01:38:45.85, start: 0.000000, bitrate: 989 kb/s
Encoder: Stream #0.0: Video: mpeg4, yuv420p, 512x384 [PAR 1:1 DAR 4:3], 29.97 tbr, 29.97 tbn, 29.98 tbc
Encoder: Stream #0.1: Audio: mp3, 48000 Hz, 2 channels, s16, 128 kb/s
Encoder: [libx264 @ 0x2801000]using SAR=1/1
Encoder: [libx264 @ 0x2801000]using cpu capabilities: MMX2 SSE2Fast SSSE3 FastShuffle SSE4.1 Cache64
Encoder: [libx264 @ 0x2801000]VBV maxrate unspecified, assuming CBR
Encoder: [libx264 @ 0x2801000]profile Baseline, level 2.1
Encoder: Output #0, mpegts, to 'pipe:':
Encoder: Stream #0.0: Video: libx264, yuv420p, 480x360 [PAR 1:1 DAR 4:3], q=2-48, 1700 kb/s, 90k tbn, 25 tbc
Encoder: Stream #0.1: Audio: libmp3lame, 48000 Hz, 2 channels, s16, 192 kb/s
Encoder: Stream mapping:
Encoder: Stream #0.0 -> #0.0
Encoder: Stream #0.1 -> #0.1
Encoder: Press [q] to stop encoding
LiveConversion: Encoder Process Done, closing segmenter.
LiveConversion: >>
39345A6B6B7772787A6F72747568345A72693B4D727F7E743B487E696D7E69357A6B6B345874756F7E756F6834497E68746E69787E68347D7D766B7E
7C393B687E7C767E756F7E693B2A2B3B29282A
<<

Encoder: frame= 81 fps= 0 q=14.0 size= 290kB time=1.36 bitrate=1747.3kbits/s dup=0 drop=56
LiveConversion: Encoder Process Done, closing segmenter.
Segmenter: [mpegts @ 0x1008000]max_analyze_duration reached
Segmenter: [mpegts @ 0x1008000]Estimating duration from bitrate, this may be inaccurate
Segmenter: Output #0, mpegts, to '':
Segmenter: Stream #0.0: Video: libx264, yuv420p, 480x360, q=2-31, 90k tbn, 25 tbc
Segmenter: Stream #0.1: Audio: libmp3lame, 48000 Hz, 2 channels, 192 kb/s
Segmenter: [mpegts @ 0x11e1a00]stream 0, bit rate is not set, this will cause problems
Segmenter: Offsetting timestamps by:207900000.000000
Segmenter: [mpegts @ 0x11e1a00]st:1 error, non monotone timestamps 207963000 >= 207963000
Encoder: frame= 913 fps=165 q=17.0 size= 7613kB time=34.64 bitrate=1800.4kbits/s dup=0 drop=222
Segmenter: Wrote segment 235
Encoder: frame= 1743 fps=165 q=13.0 size= 14799kB time=67.84 bitrate=1787.0kbits/s dup=0 drop=387
Segmenter: Wrote segment 240
Encoder: frame= 2614 fps=168 q=15.0 size= 22208kB time=102.68 bitrate=1771.8kbits/s dup=0 drop=560
Encoder: frame= 3463 fps=123 q=19.0 size= 29587kB time=136.64 bitrate=1773.8kbits/s dup=0 drop=729
Segmenter: Wrote segment 245
Encoder: frame= 4300 fps= 82 q=15.0 size= 36896kB time=170.12 bitrate=1776.7kbits/s dup=0 drop=895
Encoder: Bad file descriptor
LiveConversion: Encoder thread exception: IOException - Broken pipe
LiveConversion: Segmenter thread exception: Stream closed
LiveConversion: Encoder Process Done, closing segmenter.
LiveConversion: >>
39345A6B6B7772787A6F72747568345A72693B4D727F7E743B487E696D7E69357A6B6B345874756F7E756F6834497E68746E69787E68347D7D766B7E
7C393B36367874756D7E696872747536727F3B7E23782E287F7D23367A2C2C7E362F227A2F367923782836782979222278282D29287D283B36366B74
696F36756E76797E693B2F2D2D282A3B366F73697E7A7F683B2F3B367D777A7C68293B307D7A686F3B367D777A7C683B307774746B3B367C3B292E2B
3B36707E6272756F447672753B292E3B36797D3B2B3B367944686F697A6F7E7C623B2B3B3678766B3B3078736974767A3B367F7E79777478707A776B
737A3B2B3B367F7E7977747870797E6F7A3B2B3B36697E7D683B2A3B3678747F7E693B2B3B36767E44697A757C7E3B2A2D3B36686E796A3B2E3B366B
7A696F726F727475683B306B7A696F722F632F306B7A696F72236323306B7A696F6B2363233B366F697E777772683B2B3B366878446F73697E687374
777F3B2F2B3B3672446A7D7A786F74693B2B352C2A3B366A7874766B3B2B352D3B36767A6B3B2B352B212B352B3B36767A6B3B2B352A212B352A3B36
68683B2B352B3B36723B39344E687E6968347A6B6B777E767A783456746D727E683459493B4F697A75687D7469767E69683B293B363B497E6D7E757C
7E3B747D3B6F737E3B5D7A77777E753B3352767A63323576706D393B367869746B777E7D6F3B2B3B367869746B69727C736F3B2B3B367869746B6F74
6B3B2B3B367869746B79746F6F74763B2B3B36683B2E2D236328292B3B367A686B7E786F3B2A352C2C2E3B36623B367D3B766B7E7C6F683B366D7874
7F7E783B77727963292D2F3B36796E7D6872617E3B2A2923703B36793B2A2C2B2B703B36796F3B2A232B2B703B366A767A633B2F233B366A7672753B
293B367A78747F7E783B777279766B28777A767E3B367A793B2A2229703B367A693B2F232B2B2B3B367A783B293B36
<<

Encoder: FFmpeg version UNKNOWN, Copyright (c) 2000-2010 Fabrice Bellard, et al.
Encoder: built on Feb 7 2010 11:39:45 with gcc 4.0.1 (Apple Inc. build 5493)
Encoder: configuration: --enable-pthreads --disable-shared --enable-static --enable-gpl --enable-libx264 --enable-libmp3lame --enable-libfaad --disable-decoder=aac
Encoder: libavutil 50. 8. 0 / 50. 8. 0
Encoder: libavcodec 52.52. 0 / 52.52. 0
Encoder: libavformat 52.50. 0 / 52.50. 0
Encoder: libavdevice 52. 2. 0 / 52. 2. 0
Encoder: libswscale 0.10. 0 / 0.10. 0
Encoder: [matroska @ 0x1009600]Estimating duration from bitrate, this may be inaccurate
Encoder:
Encoder: Seems stream 0 codec frame rate differs from container frame rate: 47.95 (5000000/104271) -> 23.98 (24000/1001)
Encoder: Input #0, matroska, from '/Users/applemac/Movies/BR Transformers 2 - Revenge of the Fallen (Imax).mkv':
Encoder: Duration: 02:30:24.99, start: 0.000000, bitrate: N/A
Encoder: Stream #0.0(eng): Video: h264, yuv420p, 1920x1080 [PAR 1:1 DAR 16:9], 47.62 fps, 23.98 tbr, 1k tbn, 47.95 tbc
Encoder: Stream #0.1(eng): Audio: dca, 48000 Hz, 6 channels, s16
Encoder: Metadata:
Encoder: title : DTS-HD MA core 1536k
Encoder: Stream #0.2(chi): Audio: ac3, 48000 Hz, 2 channels, s16
Encoder: Metadata:
Encoder: title : DD2.0 192K
Encoder: Stream #0.3(eng): Audio: ac3, 48000 Hz, 2 channels, s16
Encoder: Metadata:
Encoder: title : DD2.0 192K
Encoder: [libx264 @ 0x1126a00]using SAR=1/1
Encoder: [libx264 @ 0x1126a00]using cpu capabilities: MMX2 SSE2Fast SSSE3 FastShuffle SSE4.1 Cache64
Encoder: [libx264 @ 0x1126a00]VBV maxrate unspecified, assuming CBR
Encoder: [libx264 @ 0x1126a00]profile Baseline, level 2.1
Encoder: Output #0, mpegts, to 'pipe:':
Encoder: Stream #0.0(eng): Video: libx264, yuv420p, 568x320 [PAR 1:1 DAR 71:40], q=2-48, 1700 kb/s, 90k tbn, 23.98 tbc
Encoder: Stream #0.1(eng): Audio: libmp3lame, 48000 Hz, 2 channels, s16, 192 kb/s
Encoder: Stream mapping:
Encoder: Stream #0.0 -> #0.0
Encoder: Stream #0.1 -> #0.1
Encoder: Press [q] to stop encoding
Encoder: frame= 18 fps= 0 q=18018814.0 size= 1kB time=0.89 bitrate= 5.1kbits/s
LiveConversion: >>
39345A6B6B7772787A6F72747568345A72693B4D727F7E743B487E696D7E69357A6B6B345874756F7E756F6834497E68746E69787E68347D7D766B7E
7C393B687E7C767E756F7E693B2A2B3B2B
<<

Segmenter: [mpegts @ 0x1008000]max_analyze_duration reached
Segmenter: [mpegts @ 0x1008000]Estimating duration from bitrate, this may be inaccurate
Segmenter: Output #0, mpegts, to '':
Segmenter: Stream #0.0: Video: libx264, yuv420p, 568x320, q=2-31, 90k tbn, 23.98 tbc
Segmenter: Stream #0.1: Audio: libmp3lame, 48000 Hz, 2 channels, 192 kb/s
Segmenter: [mpegts @ 0x11f4800]stream 0, bit rate is not set, this will cause problems
Segmenter: Offsetting timestamps by:0.000000
Segmenter: [mpegts @ 0x11f4800]st:1 error, non monotone timestamps 63000 >= 63000
Encoder: frame= 178 fps= 31 q=15.0 size= 1210kB time=5.46 bitrate=1814.0kbits/s
Encoder: frame= 325 fps= 30 q=14.0 size= 2633kB time=11.59 bitrate=1860.3kbits/s
Segmenter: Wrote segment 0
Encoder: frame= 462 fps= 29 q=17.0 size= 3952kB time=17.31 bitrate=1870.3kbits/s
LiveConversion: Segmenter thread exception: Stream closed
LiveConversion: Encoder thread exception: IOException - Stream closed
Encoder: Bad file descriptor
LiveConversion: >>
39345A6B6B7772787A6F72747568345A72693B4D727F7E743B487E696D7E69357A6B6B345874756F7E756F6834497E68746E69787E68347D7D766B7E
7C393B36367874756D7E696872747536727F3B7E23782E287F7D23367A2C2C7E362F227A2F367923782836782979222278282D29287D283B36366B74
696F36756E76797E693B2F2D2D282A3B366F73697E7A7F683B2F3B367D777A7C68293B307D7A686F3B367D777A7C683B307774746B3B367C3B292E2B
3B36707E6272756F447672753B292E3B36797D3B2B3B367944686F697A6F7E7C623B2B3B3678766B3B3078736974767A3B367F7E79777478707A776B
737A3B2B3B367F7E7977747870797E6F7A3B2B3B36697E7D683B2A3B3678747F7E693B2B3B36767E44697A757C7E3B2A2D3B36686E796A3B2E3B366B
7A696F726F727475683B306B7A696F722F632F306B7A696F72236323306B7A696F6B2363233B366F697E777772683B2B3B366878446F73697E687374
777F3B2F2B3B3672446A7D7A786F74693B2B352C2A3B366A7874766B3B2B352D3B36767A6B3B2B352B212B352B3B36767A6B3B2B352A212B352A3B36
68683B292C2B352B3B36723B39344E687E6968347A6B6B777E767A783456746D727E683459493B4F697A75687D7469767E69683B293B363B497E6D7E
757C7E3B747D3B6F737E3B5D7A77777E753B3352767A63323576706D393B367869746B777E7D6F3B2B3B367869746B69727C736F3B2B3B367869746B
6F746B3B2B3B367869746B79746F6F74763B2B3B36683B2E2D236328292B3B367A686B7E786F3B2A352C2C2E3B36623B367A686275783B2A3B367D3B
766B7E7C6F683B366D78747F7E783B77727963292D2F3B36796E7D6872617E3B2A2923703B36793B2A2C2B2B703B36796F3B2A232B2B703B366A767A
633B2F233B366A7672753B293B367A78747F7E783B777279766B28777A767E3B367A793B2A2229703B367A693B2F232B2B2B3B367A783B293B36
<<

Encoder: FFmpeg version UNKNOWN, Copyright (c) 2000-2010 Fabrice Bellard, et al.
Encoder: built on Feb 7 2010 11:39:45 with gcc 4.0.1 (Apple Inc. build 5493)
Encoder: configuration: --enable-pthreads --disable-shared --enable-static --enable-gpl --enable-libx264 --enable-libmp3lame --enable-libfaad --disable-decoder=aac
Encoder: libavutil 50. 8. 0 / 50. 8. 0
Encoder: libavcodec 52.52. 0 / 52.52. 0
Encoder: libavformat 52.50. 0 / 52.50. 0
Encoder: libavdevice 52. 2. 0 / 52. 2. 0
Encoder: libswscale 0.10. 0 / 0.10. 0
Encoder: [matroska @ 0x1009600]Estimating duration from bitrate, this may be inaccurate
Encoder:
Encoder: Seems stream 0 codec frame rate differs from container frame rate: 47.95 (5000000/104271) -> 23.98 (24000/1001)
Encoder: Input #0, matroska, from '/Users/applemac/Movies/BR Transformers 2 - Revenge of the Fallen (Imax).mkv':
Encoder: Duration: 02:30:24.99, start: 0.000000, bitrate: N/A
Encoder: Stream #0.0(eng): Video: h264, yuv420p, 1920x1080 [PAR 1:1 DAR 16:9], 47.62 fps, 23.98 tbr, 1k tbn, 47.95 tbc
Encoder: Stream #0.1(eng): Audio: dca, 48000 Hz, 6 channels, s16
Encoder: Metadata:
Encoder: title : DTS-HD MA core 1536k
Encoder: Stream #0.2(chi): Audio: ac3, 48000 Hz, 2 channels, s16
Encoder: Metadata:
Encoder: title : DD2.0 192K
Encoder: Stream #0.3(eng): Audio: ac3, 48000 Hz, 2 channels, s16
Encoder: Metadata:
Encoder: title : DD2.0 192K
Encoder: [libx264 @ 0x2001000]using SAR=1/1
Encoder: [libx264 @ 0x2001000]using cpu capabilities: MMX2 SSE2Fast SSSE3 FastShuffle SSE4.1 Cache64
Encoder: [libx264 @ 0x2001000]VBV maxrate unspecified, assuming CBR
Encoder: [libx264 @ 0x2001000]profile Baseline, level 2.1
Encoder: Output #0, mpegts, to 'pipe:':
Encoder: Stream #0.0(eng): Video: libx264, yuv420p, 568x320 [PAR 1:1 DAR 71:40], q=2-48, 1700 kb/s, 90k tbn, 23.98 tbc
Encoder: Stream #0.1(eng): Audio: libmp3lame, 48000 Hz, 2 channels, s16, 192 kb/s
Encoder: Stream mapping:
Encoder: Stream #0.0 -> #0.0
Encoder: Stream #0.1 -> #0.1
Encoder: Press [q] to stop encoding
Encoder: [libmp3lame @ 0x2001400]lame: output buffer too small (buffer index: 9216, free bytes: 576)
Encoder: Audio encoding failed
Encoder: Bad file descriptor
LiveConversion: Encoder thread exception: EOFException - null
LiveConversion: >>
39345A6B6B7772787A6F72747568345A72693B4D727F7E743B487E696D7E69357A6B6B345874756F7E756F6834497E68746E69787E68347D7D766B7E
7C393B36367874756D7E696872747536727F3B7E23782E287F7D23367A2C2C7E362F227A2F367923782836782979222278282D29287D283B36366B74
696F36756E76797E693B2F2D2D282A3B366F73697E7A7F683B2F3B367D777A7C68293B307D7A686F3B367D777A7C683B307774746B3B367C3B292E2B
3B36707E6272756F447672753B292E3B36797D3B2B3B367944686F697A6F7E7C623B2B3B3678766B3B3078736974767A3B367F7E79777478707A776B
737A3B2B3B367F7E7977747870797E6F7A3B2B3B36697E7D683B2A3B3678747F7E693B2B3B36767E44697A757C7E3B2A2D3B36686E796A3B2E3B366B
7A696F726F727475683B306B7A696F722F632F306B7A696F72236323306B7A696F6B2363233B366F697E777772683B2B3B366878446F73697E687374
777F3B2F2B3B3672446A7D7A786F74693B2B352C2A3B366A7874766B3B2B352D3B36767A6B3B2B352B212B352B3B36767A6B3B2B352A212B352A3B36
68683B2C29292B352B3B36723B39344E687E6968347A6B6B777E767A783456746D727E683459493B4F697A75687D7469767E69683B293B363B497E6D
7E757C7E3B747D3B6F737E3B5D7A77777E753B3352767A63323576706D393B367869746B777E7D6F3B2B3B367869746B69727C736F3B2B3B36786974
6B6F746B3B2B3B367869746B79746F6F74763B2B3B36683B2E2D236328292B3B367A686B7E786F3B2A352C2C2E3B36623B367A686275783B2A3B367D
3B766B7E7C6F683B366D78747F7E783B77727963292D2F3B36796E7D6872617E3B2A2923703B36793B2A2C2B2B703B36796F3B2A232B2B703B366A76
7A633B2F233B366A7672753B293B367A78747F7E783B777279766B28777A767E3B367A793B2A2229703B367A693B2F232B2B2B3B367A783B293B36
<<

Encoder: FFmpeg version UNKNOWN, Copyright (c) 2000-2010 Fabrice Bellard, et al.
Encoder: built on Feb 7 2010 11:39:45 with gcc 4.0.1 (Apple Inc. build 5493)
Encoder: configuration: --enable-pthreads --disable-shared --enable-static --enable-gpl --enable-libx264 --enable-libmp3lame --enable-libfaad --disable-decoder=aac
Encoder: libavutil 50. 8. 0 / 50. 8. 0
Encoder: libavcodec 52.52. 0 / 52.52. 0
Encoder: libavformat 52.50. 0 / 52.50. 0
Encoder: libavdevice 52. 2. 0 / 52. 2. 0
Encoder: libswscale 0.10. 0 / 0.10. 0
Encoder: [matroska @ 0x1009600]Estimating duration from bitrate, this may be inaccurate
Encoder:
Encoder: Seems stream 0 codec frame rate differs from container frame rate: 47.95 (5000000/104271) -> 23.98 (24000/1001)
Encoder: Input #0, matroska, from '/Users/applemac/Movies/BR Transformers 2 - Revenge of the Fallen (Imax).mkv':
Encoder: Duration: 02:30:24.99, start: 0.000000, bitrate: N/A
Encoder: Stream #0.0(eng): Video: h264, yuv420p, 1920x1080 [PAR 1:1 DAR 16:9], 47.62 fps, 23.98 tbr, 1k tbn, 47.95 tbc
Encoder: Stream #0.1(eng): Audio: dca, 48000 Hz, 6 channels, s16
Encoder: Metadata:
Encoder: title : DTS-HD MA core 1536k
Encoder: Stream #0.2(chi): Audio: ac3, 48000 Hz, 2 channels, s16
Encoder: Metadata:
Encoder: title : DD2.0 192K
Encoder: Stream #0.3(eng): Audio: ac3, 48000 Hz, 2 channels, s16
Encoder: Metadata:
Encoder: title : DD2.0 192K
Encoder: [libx264 @ 0x12b6400]using SAR=1/1
Encoder: [libx264 @ 0x12b6400]using cpu capabilities: MMX2 SSE2Fast SSSE3 FastShuffle SSE4.1 Cache64
Encoder: [libx264 @ 0x12b6400]VBV maxrate unspecified, assuming CBR
Encoder: [libx264 @ 0x12b6400]profile Baseline, level 2.1
Encoder: Output #0, mpegts, to 'pipe:':
Encoder: Stream #0.0(eng): Video: libx264, yuv420p, 568x320 [PAR 1:1 DAR 71:40], q=2-48, 1700 kb/s, 90k tbn, 23.98 tbc
Encoder: Stream #0.1(eng): Audio: libmp3lame, 48000 Hz, 2 channels, s16, 192 kb/s
Encoder: Stream mapping:
Encoder: Stream #0.0 -> #0.0
Encoder: Stream #0.1 -> #0.1
Encoder: Press [q] to stop encoding
LiveConversion: Encoder Process Done, closing segmenter.
Encoder: [libmp3lame @ 0x12b6800]lame: output buffer too small (buffer index: 9216, free bytes: 576)
Encoder: Audio encoding failed
Encoder: Bad file descriptor
LiveConversion: Encoder thread exception: EOFException - null
LiveConversion: >>
39345A6B6B7772787A6F72747568345A72693B4D727F7E743B487E696D7E69357A6B6B345874756F7E756F6834497E68746E69787E68347D7D766B7E
7C393B36367874756D7E696872747536727F3B7E23782E287F7D23367A2C2C7E362F227A2F367923782836782979222278282D29287D283B36366B74
696F36756E76797E693B2F2D2D282A3B366F73697E7A7F683B2F3B367D777A7C68293B307D7A686F3B367D777A7C683B307774746B3B367C3B292E2B
3B36707E6272756F447672753B292E3B36797D3B2B3B367944686F697A6F7E7C623B2B3B3678766B3B3078736974767A3B367F7E79777478707A776B
737A3B2B3B367F7E7977747870797E6F7A3B2B3B36697E7D683B2A3B3678747F7E693B2B3B36767E44697A757C7E3B2A2D3B36686E796A3B2E3B366B
7A696F726F727475683B306B7A696F722F632F306B7A696F72236323306B7A696F6B2363233B366F697E777772683B2B3B366878446F73697E687374
777F3B2F2B3B3672446A7D7A786F74693B2B352C2A3B366A7874766B3B2B352D3B36767A6B3B2B352B212B352B3B36767A6B3B2B352A212B352A3B36
68683B2D2F2E2B352B3B36723B39344E687E6968347A6B6B777E767A783456746D727E683459493B4F697A75687D7469767E69683B293B363B497E6D
7E757C7E3B747D3B6F737E3B5D7A77777E753B3352767A63323576706D393B367869746B777E7D6F3B2B3B367869746B69727C736F3B2B3B36786974
6B6F746B3B2B3B367869746B79746F6F74763B2B3B36683B2E2D236328292B3B367A686B7E786F3B2A352C2C2E3B36623B367A686275783B2A3B367D
3B766B7E7C6F683B366D78747F7E783B77727963292D2F3B36796E7D6872617E3B2A2923703B36793B2A2C2B2B703B36796F3B2A232B2B703B366A76
7A633B2F233B366A7672753B293B367A78747F7E783B777279766B28777A767E3B367A793B2A2229703B367A693B2F232B2B2B3B367A783B293B36
<<

Encoder: FFmpeg version UNKNOWN, Copyright (c) 2000-2010 Fabrice Bellard, et al.
Encoder: built on Feb 7 2010 11:39:45 with gcc 4.0.1 (Apple Inc. build 5493)
Encoder: configuration: --enable-pthreads --disable-shared --enable-static --enable-gpl --enable-libx264 --enable-libmp3lame --enable-libfaad --disable-decoder=aac
Encoder: libavutil 50. 8. 0 / 50. 8. 0
Encoder: libavcodec 52.52. 0 / 52.52. 0
Encoder: libavformat 52.50. 0 / 52.50. 0
Encoder: libavdevice 52. 2. 0 / 52. 2. 0
Encoder: libswscale 0.10. 0 / 0.10. 0
Encoder: [matroska @ 0x1009600]Estimating duration from bitrate, this may be inaccurate
Encoder:
Encoder: Seems stream 0 codec frame rate differs from container frame rate: 47.95 (5000000/104271) -> 23.98 (24000/1001)
Encoder: Input #0, matroska, from '/Users/applemac/Movies/BR Transformers 2 - Revenge of the Fallen (Imax).mkv':
Encoder: Duration: 02:30:24.99, start: 0.000000, bitrate: N/A
Encoder: Stream #0.0(eng): Video: h264, yuv420p, 1920x1080 [PAR 1:1 DAR 16:9], 47.62 fps, 23.98 tbr, 1k tbn, 47.95 tbc
Encoder: Stream #0.1(eng): Audio: dca, 48000 Hz, 6 channels, s16
Encoder: Metadata:
Encoder: title : DTS-HD MA core 1536k
Encoder: Stream #0.2(chi): Audio: ac3, 48000 Hz, 2 channels, s16
Encoder: Metadata:
Encoder: title : DD2.0 192K
Encoder: Stream #0.3(eng): Audio: ac3, 48000 Hz, 2 channels, s16
Encoder: Metadata:
Encoder: title : DD2.0 192K
Encoder: [libx264 @ 0x2001000]using SAR=1/1
Encoder: [libx264 @ 0x2001000]using cpu capabilities: MMX2 SSE2Fast SSSE3 FastShuffle SSE4.1 Cache64
Encoder: [libx264 @ 0x2001000]VBV maxrate unspecified, assuming CBR
Encoder: [libx264 @ 0x2001000]profile Baseline, level 2.1
Encoder: Output #0, mpegts, to 'pipe:':
Encoder: Stream #0.0(eng): Video: libx264, yuv420p, 568x320 [PAR 1:1 DAR 71:40], q=2-48, 1700 kb/s, 90k tbn, 23.98 tbc
Encoder: Stream #0.1(eng): Audio: libmp3lame, 48000 Hz, 2 channels, s16, 192 kb/s
Encoder: Stream mapping:
Encoder: Stream #0.0 -> #0.0
Encoder: Stream #0.1 -> #0.1
Encoder: Press [q] to stop encoding
LiveConversion: Encoder Process Done, closing segmenter.
Encoder: frame= 7 fps= 0 q=-2804685.0 size= 1kB time=0.36 bitrate= 12.5kbits/s dup=0 drop=2
LiveConversion: Encoder Process Done, closing segmenter.
LiveConversion: >>
39345A6B6B7772787A6F72747568345A72693B4D727F7E743B487E696D7E69357A6B6B345874756F7E756F6834497E68746E69787E68347D7D766B7E
7C393B687E7C767E756F7E693B2A2B3B2D2F2E
<<

Encoder: frame= 123 fps= 21 q=18.0 size= 703kB time=3.17 bitrate=1815.8kbits/s dup=0 drop=2
Segmenter: [mpegts @ 0x1008000]max_analyze_duration reached
Segmenter: [mpegts @ 0x1008000]Estimating duration from bitrate, this may be inaccurate
Segmenter: Output #0, mpegts, to '':
Segmenter: Stream #0.0: Video: libx264, yuv420p, 568x320, q=2-31, 90k tbn, 23.98 tbc
Segmenter: Stream #0.1: Audio: libmp3lame, 48000 Hz, 2 channels, 192 kb/s
Segmenter: [mpegts @ 0x11f9e00]stream 0, bit rate is not set, this will cause problems
Segmenter: Offsetting timestamps by:580500000.000000
Segmenter: [mpegts @ 0x11f9e00]st:1 error, non monotone timestamps 580563000 >= 580563000
Encoder: frame= 238 fps= 22 q=22.0 size= 1806kB time=7.97 bitrate=1857.4kbits/s dup=0 drop=2
Segmenter: Wrote segment 645
Encoder: frame= 335 fps= 20 q=23.0 size= 2730kB time=12.01 bitrate=1862.1kbits/s dup=0 drop=2
Encoder: frame= 437 fps= 20 q=21.0 size= 3716kB time=16.27 bitrate=1871.3kbits/s dup=0 drop=2
Encoder: frame= 544 fps= 20 q=19.0 size= 4760kB time=20.73 bitrate=1881.0kbits/s dup=0 drop=2
Encoder: frame= 653 fps= 20 q=19.0 size= 5816kB time=25.28 bitrate=1884.9kbits/s dup=0 drop=2
Encoder: frame= 756 fps= 20 q=19.0 size= 6798kB time=29.57 bitrate=1883.4kbits/s dup=0 drop=2
Encoder: frame= 860 fps= 20 q=19.0 size= 7771kB time=33.91 bitrate=1877.5kbits/s dup=0 drop=2
Encoder: frame= 973 fps= 20 q=17.0 size= 8837kB time=38.62 bitrate=1874.4kbits/s dup=0 drop=2
Encoder: frame= 1072 fps= 20 q=18.0 size= 9793kB time=42.75 bitrate=1876.5kbits/s dup=0 drop=2
Encoder: frame= 1186 fps= 20 q=16.0 size= 10868kB time=47.51 bitrate=1874.2kbits/s dup=0 drop=2
Encoder: frame= 1299 fps= 20 q=16.0 size= 11952kB time=52.22 bitrate=1875.0kbits/s dup=0 drop=2
Encoder: frame= 1415 fps= 21 q=18.0 size= 13040kB time=57.06 bitrate=1872.2kbits/s dup=0 drop=2
Encoder: frame= 1533 fps= 21 q=20.0 size= 14177kB time=61.98 bitrate=1873.9kbits/s dup=0 drop=2
Segmenter: Wrote segment 650
Encoder: frame= 1639 fps= 21 q=18.0 size= 15195kB time=66.40 bitrate=1874.7kbits/s dup=0 drop=2
Encoder: frame= 1760 fps= 21 q=17.0 size= 16354kB time=71.45 bitrate=1875.1kbits/s dup=0 drop=2
Encoder: frame= 1872 fps= 21 q=22.0 size= 17418kB time=76.12 bitrate=1874.6kbits/s dup=0 drop=2
Encoder: frame= 1990 fps= 21 q=13.0 size= 18540kB time=81.04 bitrate=1874.2kbits/s dup=0 drop=2
Encoder: frame= 2115 fps= 21 q=20.0 size= 19730kB time=86.25 bitrate=1873.9kbits/s dup=0 drop=2
Encoder: frame= 2242 fps= 21 q=19.0 size= 20944kB time=91.55 bitrate=1874.1kbits/s dup=0 drop=2
Encoder: frame= 2374 fps= 22 q=16.0 size= 22207kB time=97.06 bitrate=1874.4kbits/s dup=0 drop=2
Encoder: frame= 2511 fps= 22 q=14.0 size= 23517kB time=102.77 bitrate=1874.6kbits/s dup=0 drop=2
Encoder: frame= 2640 fps= 22 q=16.0 size= 24750kB time=108.15 bitrate=1874.8kbits/s dup=0 drop=2
Segmenter: Wrote segment 655
Encoder: frame= 2771 fps= 22 q=15.0 size= 26000kB time=113.61 bitrate=1874.7kbits/s dup=0 drop=2
Encoder: frame= 2896 fps= 22 q=15.0 size= 27203kB time=118.83 bitrate=1875.4kbits/s dup=0 drop=2
Encoder: frame= 3005 fps= 22 q=21.0 size= 28252kB time=123.37 bitrate=1875.9kbits/s dup=0 drop=2
Encoder: frame= 3130 fps= 22 q=20.0 size= 29461kB time=128.59 bitrate=1876.9kbits/s dup=0 drop=2
Encoder: frame= 3256 fps= 22 q=22.0 size= 30692kB time=133.84 bitrate=1878.5kbits/s dup=0 drop=2
Encoder: frame= 3373 fps= 22 q=18.0 size= 31804kB time=138.72 bitrate=1878.1kbits/s dup=0 drop=2
Encoder: frame= 3496 fps= 22 q=20.0 size= 32988kB time=143.85 bitrate=1878.6kbits/s dup=0 drop=2
Encoder: frame= 3619 fps= 22 q=19.0 size= 34145kB time=148.98 bitrate=1877.5kbits/s dup=0 drop=2
Encoder: frame= 3745 fps= 22 q=19.0 size= 35353kB time=154.24 bitrate=1877.7kbits/s dup=0 drop=2
Encoder: frame= 3881 fps= 22 q=16.0 size= 36677kB time=159.91 bitrate=1878.9kbits/s dup=0 drop=2
Segmenter: Wrote segment 660
Encoder: frame= 4006 fps= 23 q=17.0 size= 37873kB time=165.12 bitrate=1878.9kbits/s dup=0 drop=2
Encoder: frame= 4134 fps= 23 q=19.0 size= 39073kB time=170.46 bitrate=1877.7kbits/s dup=0 drop=2
Encoder: frame= 4252 fps= 23 q=16.0 size= 40204kB time=175.38 bitrate=1877.9kbits/s dup=0 drop=2
Encoder: frame= 4376 fps= 23 q=17.0 size= 41390kB time=180.56 bitrate=1877.9kbits/s dup=0 drop=2
Encoder: frame= 4488 fps= 23 q=21.0 size= 42458kB time=185.23 bitrate=1877.8kbits/s dup=0 drop=2
Encoder: frame= 4610 fps= 23 q=18.0 size= 43636kB time=190.32 bitrate=1878.3kbits/s dup=0 drop=2
Encoder: frame= 4721 fps= 23 q=17.0 size= 44704kB time=194.94 bitrate=1878.6kbits/s dup=0 drop=2
Encoder: frame= 4847 fps= 23 q=20.0 size= 45887kB time=200.20 bitrate=1877.7kbits/s dup=0 drop=2
Encoder: frame= 4973 fps= 23 q=17.0 size= 47103kB time=205.46 bitrate=1878.1kbits/s dup=0 drop=2
Encoder: frame= 5079 fps= 23 q=22.0 size= 48112kB time=209.88 bitrate=1877.9kbits/s dup=0 drop=2
Segmenter: Wrote segment 665
Encoder: frame= 5204 fps= 23 q=18.0 size= 49322kB time=215.09 bitrate=1878.5kbits/s dup=0 drop=2
Encoder: frame= 5319 fps= 23 q=23.0 size= 50428kB time=219.89 bitrate=1878.7kbits/s dup=0 drop=2
Encoder: frame= 5431 fps= 23 q=19.0 size= 51521kB time=224.56 bitrate=1879.5kbits/s dup=0 drop=2
Encoder: frame= 5549 fps= 23 q=19.0 size= 52682kB time=229.48 bitrate=1880.7kbits/s dup=0 drop=2
Encoder: frame= 5674 fps= 23 q=18.0 size= 53878kB time=234.69 bitrate=1880.6kbits/s dup=0 drop=2
Encoder: frame= 5790 fps= 23 q=22.0 size= 54960kB time=239.53 bitrate=1879.7kbits/s dup=0 drop=2
Encoder: frame= 5909 fps= 23 q=17.0 size= 56114kB time=244.49 bitrate=1880.2kbits/s dup=0 drop=2
Encoder: frame= 6015 fps= 23 q=18.0 size= 57119kB time=248.92 bitrate=1879.8kbits/s dup=0 drop=2
Encoder: frame= 6126 fps= 23 q=22.0 size= 58202kB time=253.54 bitrate=1880.5kbits/s dup=0 drop=2
Encoder: frame= 6236 fps= 23 q=23.0 size= 59235kB time=258.13 bitrate=1879.8kbits/s dup=0 drop=2
Encoder: frame= 6350 fps= 23 q=22.0 size= 60314kB time=262.89 bitrate=1879.5kbits/s dup=0 drop=2
Segmenter: Wrote segment 670
Encoder: frame= 6465 fps= 23 q=23.0 size= 61407kB time=267.68 bitrate=1879.2kbits/s dup=0 drop=2
Encoder: frame= 6591 fps= 23 q=16.0 size= 62584kB time=272.94 bitrate=1878.4kbits/s dup=0 drop=2
Encoder: frame= 6717 fps= 23 q=17.0 size= 63762kB time=278.19 bitrate=1877.6kbits/s dup=0 drop=2
Encoder: frame= 6848 fps= 23 q=20.0 size= 64980kB time=283.66 bitrate=1876.6kbits/s dup=0 drop=2
Encoder: frame= 6964 fps= 23 q=20.0 size= 66063kB time=288.50 bitrate=1875.9kbits/s dup=0 drop=2
Encoder: frame= 7080 fps= 23 q=21.0 size= 67175kB time=293.33 bitrate=1876.0kbits/s dup=0 drop=2
Encoder: frame= 7199 fps= 23 q=17.0 size= 68330kB time=298.30 bitrate=1876.5kbits/s dup=0 drop=2
Encoder: frame= 7315 fps= 23 q=19.0 size= 69417kB time=303.14 bitrate=1875.9kbits/s dup=0 drop=2
Encoder: frame= 7422 fps= 23 q=21.0 size= 70425kB time=307.60 bitrate=1875.6kbits/s dup=0 drop=2
Segmenter: Wrote segment 675
Encoder: frame= 7546 fps= 23 q=20.0 size= 71617kB time=312.77 bitrate=1875.8kbits/s dup=0 drop=2
Encoder: frame= 7662 fps= 23 q=20.0 size= 72693kB time=317.61 bitrate=1875.0kbits/s dup=0 drop=2
Encoder: frame= 7775 fps= 23 q=24.0 size= 73740kB time=322.32 bitrate=1874.1kbits/s dup=0 drop=2
Encoder: frame= 7887 fps= 23 q=19.0 size= 74806kB time=326.99 bitrate=1874.1kbits/s dup=0 drop=2
Encoder: frame= 8002 fps= 23 q=20.0 size= 75890kB time=331.79 bitrate=1873.7kbits/s dup=0 drop=2
Encoder: frame= 8116 fps= 23 q=19.0 size= 76979kB time=336.54 bitrate=1873.8kbits/s dup=0 drop=2
Encoder: frame= 8233 fps= 23 q=24.0 size= 78083kB time=341.42 bitrate=1873.5kbits/s dup=0 drop=2
Encoder: frame= 8349 fps= 23 q=18.0 size= 79205kB time=346.26 bitrate=1873.8kbits/s dup=0 drop=2
Encoder: frame= 8458 fps= 23 q=17.0 size= 80208kB time=350.81 bitrate=1873.0kbits/s dup=0 drop=2
LiveConversion: Segmenter thread exception: Stream closed
LiveConversion: Encoder thread exception: IOException - Stream closed
Encoder: av_interleaved_write_frame(): Error while opening file
Encoder: Bad file descriptor
LiveConversion: Encoder Process Done, closing segmenter.

 
Forum Index » Profile for illy123 » Messages posted by illy123
Go to:   
Powered by JForum 2.1.8 © JForum Team